osu file format v14

[General]
AudioFilename: Tachiagaru Nakamatachi.mp3
AudioLeadIn: 0
PreviewTime: 10570
Countdown: 0
SampleSet: Soft
StackLeniency: 0.7
Mode: 0
LetterboxInBreaks: 0
WidescreenStoryboard: 0

[Editor]
Bookmarks: 38814
DistanceSpacing: 1.6
BeatDivisor: 4
GridSize: 4
TimelineZoom: 1

[Metadata]
Title:Tachiagaru Nakamatachi
TitleUnicode:立ち上がる仲間達
Artist:Sahashi Toshihiko
ArtistUnicode:佐橋俊彦
Creator:Guu
Version:Reborn
Source:家庭教師ヒットマンREBORN!
Tags:Katekyo Hitman Reborn sawada tsunayoshi tsuna vongola リボーン 沢田綱吉 ツナ
BeatmapID:666452
BeatmapSetID:296874

[Difficulty]
HPDrainRate:6
CircleSize:4
OverallDifficulty:6
ApproachRate:7.5
SliderMultiplier:1.8
SliderTickRate:1

[Events]
//Background and Video events
0,0,"Reborn1.jpg",0,0
//Break Periods
//Storyboard Layer 0 (Background)
//Storyboard Layer 1 (Fail)
//Storyboard Layer 2 (Pass)
//Storyboard Layer 3 (Foreground)
//Storyboard Sound Samples

[TimingPoints]
-1398,638.297872340426,4,2,1,50,1,0
516,-133.333333333333,4,2,1,50,0,0
1155,-100,4,2,1,50,0,0
11367,-83.3333333333333,4,2,1,50,0,0
29559,-83.3333333333333,4,2,1,20,0,0
29878,-83.3333333333333,4,2,1,30,0,0
30197,-83.3333333333333,4,2,1,40,0,0
30516,-83.3333333333333,4,2,1,50,0,0
30836,-83.3333333333333,4,2,1,60,0,0
31155,-83.3333333333333,4,2,1,70,0,0
31474,-83.3333333333333,4,2,1,80,0,0
31793,-66.6666666666667,4,2,1,80,0,0
31953,-66.6666666666667,4,2,1,60,0,0
41048,-66.6666666666667,4,2,1,40,0,0
41367,-66.6666666666667,4,2,1,50,0,0
41687,-66.6666666666667,4,2,1,60,0,0
42006,-66.6666666666667,4,2,1,80,0,0
42165,-66.6666666666667,4,2,1,60,0,0
49665,-66.6666666666667,4,2,1,40,0,0
49984,-66.6666666666667,4,2,1,45,0,0
50304,-66.6666666666667,4,2,1,50,0,0
50623,-66.6666666666667,4,2,1,55,0,0
50942,-66.6666666666667,4,2,1,60,0,0
51580,-66.6666666666667,4,2,1,40,0,0
52219,-83.3333333333333,4,2,1,50,0,0
61793,-83.3333333333333,4,2,1,40,0,0
62591,-83.3333333333333,4,2,1,60,0,0
70410,-83.3333333333333,4,2,1,20,0,0
70729,-83.3333333333333,4,2,1,30,0,0
71048,-83.3333333333333,4,2,1,40,0,0
71367,-83.3333333333333,4,2,1,50,0,0
71687,-83.3333333333333,4,2,1,60,0,0
72006,-83.3333333333333,4,2,1,70,0,0
72325,-83.3333333333333,4,2,1,80,0,0
72644,-66.6666666666667,4,2,1,80,0,1
72804,-66.6666666666667,4,2,1,60,0,1
81899,-66.6666666666667,4,2,1,40,0,1
82219,-66.6666666666667,4,2,1,50,0,1
82538,-66.6666666666667,4,2,1,60,0,1
90516,-66.6666666666667,4,2,1,40,0,1
90836,-66.6666666666667,4,2,1,45,0,1
91155,-66.6666666666667,4,2,1,50,0,1
91474,-66.6666666666667,4,2,1,55,0,1
91793,-66.6666666666667,4,2,1,60,0,1
92112,-66.6666666666667,4,2,1,65,0,1
92431,-66.6666666666667,4,2,1,70,0,1
92750,-66.6666666666667,4,2,1,80,0,1
93070,-66.6666666666667,4,2,1,80,0,0

[Colours]
Combo1 : 115,115,115
Combo2 : 89,45,0
Combo3 : 227,207,174
Combo4 : 145,0,0

[HitObjects]
220,208,516,6,0,P|212:159|226:111,1,101.250003862381,4|0,3:0|0:0,0:0:0:0:
264,88,1155,5,4,3:0:0:0:
304,68,1314,1,0,0:0:0:0:
344,44,1474,1,0,0:0:0:0:
220,24,1793,1,8,0:0:0:0:
344,44,2112,1,0,0:0:0:0:
328,168,2431,1,0,3:0:0:0:
444,124,2750,2,0,L|504:96,2,45,0|0|8,0:0|0:0|0:0,0:0:0:0:
328,168,3389,1,0,0:0:0:0:
336,212,3548,1,0,0:0:0:0:
344,256,3708,5,0,3:0:0:0:
384,276,3867,1,0,0:0:0:0:
428,292,4027,1,0,0:0:0:0:
320,352,4346,1,8,0:0:0:0:
428,292,4665,1,0,0:0:0:0:
260,288,4984,2,0,L|240:200,1,90,0|0,3:0|0:0,0:0:0:0:
272,168,5463,2,0,L|312:132,1,45,0|8,0:0|0:0,0:0:0:0:
336,108,5782,1,0,0:0:0:0:
300,80,5942,2,0,L|252:44,1,45
192,4,6261,5,4,3:0:0:0:
152,24,6421,1,0,0:0:0:0:
112,44,6580,1,0,0:0:0:0:
208,136,6899,1,8,0:0:0:0:
112,44,7219,1,0,0:0:0:0:
28,136,7538,2,0,L|60:232,1,90,0|0,3:0|0:0,0:0:0:0:
72,264,8016,2,0,L|52:315,1,45,0|8,0:0|0:0,0:0:0:0:
100,320,8336,1,0,0:0:0:0:
144,332,8495,1,0,0:0:0:0:
188,344,8655,1,0,0:0:0:0:
232,356,8814,5,0,3:0:0:0:
320,268,9133,1,0,0:0:0:0:
412,352,9453,5,8,0:0:0:0:
444,320,9612,1,8,0:0:0:0:
476,288,9772,1,0,0:0:0:0:
320,268,10091,1,8,0:0:0:0:
344,228,10250,1,8,0:0:0:0:
368,188,10410,1,0,0:0:0:0:
508,144,10729,2,0,L|508:88,1,45,8|0,0:0|0:0,0:0:0:0:
412,43,11048,2,0,L|412:88,1,45,8|0,0:0|0:0,0:0:0:0:
304,75,11367,6,0,L|88:56,1,215.999993408203,4|8,0:0|0:0,0:0:0:0:
96,240,12325,1,0,0:0:0:0:
196,156,12644,2,0,P|148:140|72:160,1,107.999996704102,2|0,0:0|0:0,0:0:0:0:
28,196,13123,1,0,0:0:0:0:
96,240,13282,2,0,P|146:256|199:247,1,107.999996704102,8|0,0:0|0:0,0:0:0:0:
260,200,13761,1,0,0:0:0:0:
268,120,13921,6,0,P|320:144|336:208,1,107.999996704102,2|0,0:0|0:0,0:0:0:0:
344,268,14399,1,0,0:0:0:0:
400,324,14559,2,0,L|452:376,2,53.9999983520508,8|0|0,0:0|0:0|0:0,0:0:0:0:
420,248,15038,2,0,L|428:80,1,161.999995056153,2|0,3:0|0:0,0:0:0:0:
320,188,15836,2,0,L|304:128,1,53.9999983520508,8|0,0:0|0:0,0:0:0:0:
232,128,16155,2,0,L|218:75,1,53.9999983520508
160,28,16474,6,0,P|92:88|124:200,1,215.999993408203,2|8,0:0|0:0,0:0:0:0:
252,196,17431,1,0,0:0:0:0:
328,304,17750,2,0,B|388:356|388:356|416:356,1,107.999996704102,2|0,0:0|0:0,0:0:0:0:
484,324,18229,1,0,0:0:0:0:
492,248,18389,2,0,B|432:196|432:196|404:196,1,107.999996704102,8|0,0:0|0:0,0:0:0:0:
328,204,18867,1,0,0:0:0:0:
254,178,19027,6,0,P|290:134|352:128,1,107.999996704102,2|0,0:0|0:0,0:0:0:0:
416,120,19506,1,0,0:0:0:0:
456,52,19665,2,0,L|488:0,2,53.9999983520508,8|0|0,0:0|0:0|0:0,0:0:0:0:
380,36,20144,2,0,L|204:48,1,161.999995056153,2|0,3:0|0:0,0:0:0:0:
84,56,20942,2,0,L|48:8,2,53.9999983520508,8|0|2,0:0|0:0|0:0,0:0:0:0:
44,120,21421,1,2,0:0:0:0:
28,192,21580,6,0,P|40:296|120:372,1,215.999993408203,4|8,0:0|0:0,0:0:0:0:
216,268,22538,1,0,0:0:0:0:
188,140,22857,2,0,P|137:158|105:199,1,107.999996704102,2|0,0:0|0:0,0:0:0:0:
140,264,23336,1,0,0:0:0:0:
216,268,23495,2,0,P|272:276|320:312,1,107.999996704102,8|0,0:0|0:0,0:0:0:0:
368,356,23974,1,0,0:0:0:0:
436,320,24134,6,0,L|456:212,1,107.999996704102,2|0,0:0|0:0,0:0:0:0:
472,136,24612,1,0,0:0:0:0:
416,80,24772,2,0,L|428:12,2,53.9999983520508,8|0|0,0:0|0:0|0:0,0:0:0:0:
363,141,25251,2,0,P|295:99|266:25,1,161.999995056153,2|0,3:0|0:0,0:0:0:0:
172,112,26048,2,0,L|180:184,1,53.9999983520508,8|0,0:0|0:0,0:0:0:0:
104,148,26367,2,0,L|104:216,1,53.9999983520508
32,152,26687,6,0,L|16:264,1,107.999996704102,2|0,0:0|0:0,0:0:0:0:
80,316,27165,1,0,0:0:0:0:
140,252,27325,2,0,P|197:252|240:280,1,107.999996704102,8|0,0:0|0:0,0:0:0:0:
427,325,27963,2,0,L|380:171,1,161.999995056153,2|0,0:0|0:0,0:0:0:0:
396,84,28602,2,0,P|380:148|316:100,1,161.999995056153,8|0,0:0|0:0,0:0:0:0:
328,20,29240,5,12,0:0:0:0:
200,40,29559,1,4,0:0:0:0:
92,108,29878,1,4,0:0:0:0:
44,228,30197,1,4,0:0:0:0:
40,356,30516,5,12,0:0:0:0:
116,224,30836,1,12,0:0:0:0:
272,152,31155,1,12,0:0:0:0:
464,176,31474,1,12,0:0:0:0:
256,348,31793,6,0,P|188:316|104:304,1,135.000005149842,4|0,1:0|0:0,0:0:0:0:
32,260,32272,1,0,0:0:0:0:
116,196,32431,2,0,L|174:151,1,67.5000025749208,8|0,0:0|0:0,0:0:0:0:
272,188,32750,2,0,L|324:146,1,67.5000025749208
256,64,33070,2,0,P|184:60|132:12,1,135.000005149842,2|0,0:0|0:0,0:0:0:0:
32,28,33548,1,0,0:0:0:0:
4,132,33708,2,0,L|62:177,1,67.5000025749208,8|0,0:0|0:0,0:0:0:0:
152,124,34027,2,0,L|204:166,1,67.5000025749208
208,276,34346,6,0,L|108:384,1,135.000005149842,2|0,0:0|0:0,0:0:0:0:
52,288,34825,2,0,L|56:216,2,67.5000025749208,0|8|0,0:0|0:0|0:0,0:0:0:0:
272,365,35463,2,0,B|280:220|280:220|256:168,1,202.500007724762,2|0,0:0|0:0,0:0:0:0:
184,252,36261,2,0,B|156:188|156:188|159:122,1,135.000005149842,8|0,0:0|0:0,0:0:0:0:
256,168,36740,1,0,0:0:0:0:
332,92,36899,6,0,P|268:76|212:12,1,135.000005149842,2|0,0:0|0:0,0:0:0:0:
112,12,37378,1,0,0:0:0:0:
28,80,37538,2,0,L|36:164,1,67.5000025749208,8|0,0:0|0:0,0:0:0:0:
136,180,37857,2,0,L|130:257,1,67.5000025749208
52,320,38176,2,0,P|108:352|180:348,1,135.000005149842,2|0,0:0|0:0,0:0:0:0:
360,236,38814,2,0,P|426:232|484:265,1,135.000005149842,8|0,0:0|0:0,0:0:0:0:
492,156,39293,1,0,0:0:0:0:
458,52,39453,6,0,L|320:116,1,135.000005149842,2|0,0:0|0:0,0:0:0:0:
252,176,39931,1,0,0:0:0:0:
144,196,40091,1,8,0:0:0:0:
48,144,40250,2,0,P|91:91|144:50,1,135.000005149842,2|0,0:0|0:0,0:0:0:0:
252,64,40729,1,10,0:0:0:0:
368,72,40889,1,8,0:0:0:0:
476,28,41048,1,4,0:0:0:0:
252,64,41367,1,4,0:0:0:0:
392,228,41687,1,4,0:0:0:0:
476,28,42006,6,0,P|492:96|472:164,1,135.000005149842,4|0,1:0|0:0,0:0:0:0:
392,228,42484,2,0,L|324:212,2,67.5000025749208,0|8|0,0:0|0:0|0:0,0:0:0:0:
242,306,42963,2,0,L|170:290,1,67.5000025749208
28,308,43282,2,0,P|28:248|76:184,1,135.000005149842,2|0,0:0|0:0,0:0:0:0:
176,164,43761,2,0,L|244:148,2,67.5000025749208,0|8|0,0:0|0:0|0:0,0:0:0:0:
326,242,44240,2,0,L|398:226,1,67.5000025749208
472,96,44559,6,0,P|403:95|310:63,1,135.000005149842,2|0,0:0|0:0,0:0:0:0:
236,48,45038,1,0,0:0:0:0:
132,68,45197,2,0,L|68:24,2,67.5000025749208,8|0|8,0:0|0:0|0:0,0:0:0:0:
176,164,45676,2,0,P|260:220|344:176,1,202.500007724762,2|0,3:0|0:0,0:0:0:0:
484,28,46474,1,8,0:0:0:0:
484,28,46793,1,0,0:0:0:0:
384,76,46953,1,0,0:0:0:0:
342,179,47112,6,0,P|414:179|462:219,1,135.000005149842,2|0,0:0|0:0,0:0:0:0:
476,324,47591,1,0,0:0:0:0:
372,300,47750,1,8,0:0:0:0:
264,296,47910,2,0,L|204:340,2,67.5000025749208,2|0|0,0:0|0:0|0:0,0:0:0:0:
372,300,48389,2,0,L|484:216,1,135.000005149842,2|0,0:0|0:0,0:0:0:0:
232,108,49027,2,0,P|166:110|114:70,1,135.000005149842,8|0,0:0|0:0,0:0:0:0:
114,70,49665,5,12,0:0:0:0:
100,168,49825,1,0,0:0:0:0:
85,271,49984,1,12,0:0:0:0:
267,360,50303,1,12,0:0:0:0:
409,214,50623,1,12,0:0:0:0:
312,36,50942,1,12,0:0:0:0:
312,36,51580,5,8,0:0:0:0:
404,20,51740,1,8,0:0:0:0:
384,112,51899,2,0,L|312:150,1,67.5000025749208,4|0,0:0|0:0,0:0:0:0:
228,188,52219,6,0,P|136:236|44:176,1,215.999993408203,4|0,1:0|3:0,0:0:0:0:
12,116,53016,1,0,0:0:0:0:
52,52,53176,2,0,L|112:32,1,53.9999983520508
152,92,53495,2,0,P|209:95|280:120,1,107.999996704102,2|0,0:0|0:0,0:0:0:0:
288,44,53974,2,0,P|343:38|396:16,1,107.999996704102,0|0,3:0|0:0,0:0:0:0:
468,24,54453,1,0,0:0:0:0:
472,100,54612,1,0,0:0:0:0:
412,148,54772,6,0,P|355:155|300:180,1,107.999996704102,2|0,0:0|0:0,0:0:0:0:
252,224,55250,1,0,0:0:0:0:
228,296,55410,1,2,3:0:0:0:
304,284,55570,1,0,0:0:0:0:
376,304,55729,2,0,P|404:316|436:336,1,53.9999983520508,0|0,0:0|3:0,0:0:0:0:
504,276,56048,2,0,P|428:248|368:192,1,161.999995056153,2|0,0:0|0:0,0:0:0:0:
324,132,56687,2,0,L|264:152,1,53.9999983520508,0|0,3:0|0:0,0:0:0:0:
200,172,57006,1,0,0:0:0:0:
148,228,57165,1,0,0:0:0:0:
120,300,57325,6,0,B|64:272|72:208|72:208|80:144|56:100,1,215.999993408203,2|0,0:0|3:0,0:0:0:0:
108,48,58123,1,0,0:0:0:0:
180,20,58282,1,0,0:0:0:0:
256,24,58442,1,0,0:0:0:0:
320,60,58602,2,0,P|359:101|420:112,1,107.999996704102,2|0,0:0|0:0,0:0:0:0:
420,188,59080,2,0,P|376:220|364:276,1,107.999996704102,0|0,3:0|0:0,0:0:0:0:
408,336,59559,1,0,3:0:0:0:
444,264,59719,1,0,0:0:0:0:
420,188,59878,6,0,P|368:200|304:184,1,107.999996704102,2|0,0:0|0:0,0:0:0:0:
244,164,60357,1,0,0:0:0:0:
172,180,60516,1,0,3:0:0:0:
112,224,60676,2,0,L|120:296,1,53.9999983520508,2|0,0:0|0:0,0:0:0:0:
48,182,60995,2,0,P|80:112|88:24,1,161.999995056153,2|0,3:0|0:0,0:0:0:0:
88,28,61793,1,8,0:0:0:0:
172,72,61953,1,8,0:0:0:0:
264,52,62112,2,0,P|260:76|248:104,1,53.9999983520508,4|0,0:0|0:0,0:0:0:0:
300,184,62431,6,0,P|368:148|448:192,1,161.999995056153,4|0,1:0|0:0,0:0:0:0:
372,232,63070,2,0,P|352:252|325:259,1,53.9999983520508,8|0,0:0|0:0,0:0:0:0:
252,244,63389,1,0,0:0:0:0:
176,252,63548,1,0,0:0:0:0:
112,292,63708,2,0,B|152:344|212:320|212:320|232:312|268:328,1,161.999995056153,2|0,0:0|0:0,0:0:0:0:
328,360,64346,2,0,P|408:376|464:316,1,161.999995056153,8|0,0:0|0:0,0:0:0:0:
456,248,64984,6,0,L|444:108,1,107.999996704102,2|0,0:0|0:0,0:0:0:0:
484,76,65463,1,0,0:0:0:0:
408,76,65623,1,8,0:0:0:0:
344,120,65782,2,0,L|348:184,1,53.9999983520508
261,229,66102,2,0,B|252:100|252:100|232:64,1,161.999995056153,2|0,3:0|0:0,0:0:0:0:
236,71,66899,1,8,0:0:0:0:
160,64,67059,1,0,0:0:0:0:
88,88,67219,1,0,0:0:0:0:
48,152,67378,1,0,0:0:0:0:
44,228,67538,6,0,P|92:262|120:312,1,107.999996704102,2|0,0:0|0:0,0:0:0:0:
188,280,68016,2,0,L|240:324,1,53.9999983520508,0|8,0:0|0:0,0:0:0:0:
304,320,68336,1,0,0:0:0:0:
392,196,68655,1,0,0:0:0:0:
336,144,68814,2,0,P|264:188|192:172,1,161.999995056153,2|0,0:0|0:0,0:0:0:0:
112,124,69453,1,10,0:0:0:0:
112,124,69772,1,0,0:0:0:0:
92,32,69931,1,0,0:0:0:0:
184,20,70091,6,0,L|216:80,1,53.9999983520508,12|0,0:0|0:0,0:0:0:0:
312,40,70410,2,0,L|320:108,1,53.9999983520508,4|0,0:0|0:0,0:0:0:0:
420,108,70729,2,0,L|400:176,1,53.9999983520508,4|0,0:0|0:0,0:0:0:0:
468,228,71048,2,0,L|432:296,1,53.9999983520508,4|0,0:0|0:0,0:0:0:0:
419,344,71367,6,0,L|472:356,1,53.9999983520508,12|0,0:0|0:0,0:0:0:0:
344,240,71687,2,0,L|396:224,1,53.9999983520508,12|0,0:0|0:0,0:0:0:0:
208,195,72006,2,0,L|240:152,1,53.9999983520508,12|0,0:0|0:0,0:0:0:0:
44,229,72325,2,0,L|48:176,1,53.9999983520508,12|0,0:0|0:0,0:0:0:0:
256,348,72644,6,0,P|304:288|372:288,1,135.000005149842,4|0,1:0|0:0,0:0:0:0:
406,186,73123,2,0,L|363:134,1,67.5000025749208,0|8,0:0|0:0,0:0:0:0:
296,48,73442,1,0,0:0:0:0:
192,76,73602,2,0,L|248:144,1,67.5000025749208
48,175,73921,2,0,P|112:180|180:212,1,135.000005149842,2|0,0:0|0:0,0:0:0:0:
277,272,74399,2,0,P|307:287|340:292,1,67.5000025749208,0|8,0:0|0:0,0:0:0:0:
440,248,74719,1,0,0:0:0:0:
500,336,74878,2,0,P|468:348|436:376,1,67.5000025749208
340,292,75197,6,0,P|348:224|332:156,1,135.000005149842,2|0,0:0|0:0,0:0:0:0:
419,91,75676,2,0,L|488:36,2,67.5000025749208,0|8|0,0:0|0:0|0:0,0:0:0:0:
228,110,76314,2,0,P|128:156|16:136,1,202.500007724762,4|0,1:0|0:0,0:0:0:0:
144,16,77112,2,0,P|196:44|228:116,1,135.000005149842,8|0,0:0|0:0,0:0:0:0:
228,220,77591,1,0,0:0:0:0:
120,208,77750,6,0,P|68:236|36:308,1,135.000005149842,2|0,0:0|0:0,0:0:0:0:
144,312,78229,1,0,0:0:0:0:
240,364,78389,2,0,L|308:368,1,67.5000025749208,8|0,0:0|0:0,0:0:0:0:
312,260,78708,2,0,L|392:264,1,67.5000025749208
484,288,79027,2,0,P|480:224|436:172,1,135.000005149842,2|0,0:0|0:0,0:0:0:0:
228,220,79665,2,0,P|168:232|96:212,1,135.000005149842,8|0,0:0|0:0,0:0:0:0:
16,144,80144,1,0,0:0:0:0:
2,37,80304,6,0,P|67:22|131:40,1,135.000005149842,2|0,0:0|0:0,0:0:0:0:
232,80,80782,1,0,0:0:0:0:
336,116,80942,1,8,0:0:0:0:
436,152,81101,2,0,P|432:212|424:248,2,67.5000025749208,2|0|0,0:0|0:0|0:0,0:0:0:0:
336,116,81580,1,8,0:0:0:0:
252,188,81740,1,8,0:0:0:0:
168,260,81899,2,0,L|182:325,1,67.5000025749208,4|0,0:0|0:0,0:0:0:0:
324,272,82219,2,0,L|373:226,1,67.5000025749208,4|0,0:0|0:0,0:0:0:0:
256,132,82538,2,0,L|191:111,1,67.5000025749208,4|0,0:0|0:0,0:0:0:0:
56,196,82857,6,0,P|44:260|76:332,1,135.000005149842,4|0,1:0|0:0,0:0:0:0:
178,313,83335,2,0,L|242:337,1,67.5000025749208,0|8,0:0|0:0,0:0:0:0:
276,244,83655,1,0,0:0:0:0:
376,288,83814,2,0,L|392:368,1,67.5000025749208
496,272,84133,2,0,P|475:215|407:173,1,135.000005149842,2|0,0:0|0:0,0:0:0:0:
312,204,84612,2,0,L|232:216,1,67.5000025749208,0|8,0:0|0:0,0:0:0:0:
136,232,84931,1,0,0:0:0:0:
116,136,85091,2,0,L|103:69,1,67.5000025749208
220,3,85410,6,0,P|215:70|241:132,1,135.000005149842,2|0,0:0|0:0,0:0:0:0:
316,56,85889,1,0,0:0:0:0:
416,92,86048,2,0,L|488:16,2,67.5000025749208,8|0|8,0:0|0:0|0:0,0:0:0:0:
336,164,86527,2,0,P|252:220|168:176,1,202.500007724762,4|0,1:0|0:0,0:0:0:0:
28,28,87325,1,8,0:0:0:0:
28,28,87644,1,0,0:0:0:0:
120,84,87804,1,0,0:0:0:0:
170,179,87963,6,0,P|98:179|50:219,1,135.000005149842,2|0,0:0|0:0,0:0:0:0:
36,324,88442,1,0,0:0:0:0:
140,300,88601,1,8,0:0:0:0:
248,296,88761,2,0,L|280:368,2,67.5000025749208,2|0|0,0:0|0:0|0:0,0:0:0:0:
140,300,89240,2,0,P|120:244|80:168,1,135.000005149842,2|0,0:0|0:0,0:0:0:0:
272,96,89878,2,0,P|339:100|400:68,1,135.000005149842,8|0,0:0|0:0,0:0:0:0:
398,69,90516,5,12,0:0:0:0:
376,176,90676,1,0,0:0:0:0:
427,271,90836,2,0,P|392:292|364:316,1,67.5000025749208,4|0,0:0|0:0,0:0:0:0:
245,360,91154,1,4,0:0:0:0:
103,214,91474,1,4,0:0:0:0:
200,36,91793,5,12,0:0:0:0:
188,144,91953,1,0,0:0:0:0:
103,214,92112,2,0,P|128:236|152:268,1,67.5000025749208,4|0,0:0|0:0,0:0:0:0:
245,360,92431,1,4,0:0:0:0:
428,272,92750,1,4,0:0:0:0:
88,92,93070,6,0,L|16:52,1,67.5000025749208,12|4,0:0|0:0,0:0:0:0:
88,92,93708,1,12,0:0:0:0:
