osu file format v12

[General]
AudioFilename: Sagara Kokoro-Hoshizora no Ima.mp3
AudioLeadIn: 0
PreviewTime: 66945
Countdown: 0
SampleSet: None
StackLeniency: 0.4
Mode: 0
LetterboxInBreaks: 1
WidescreenStoryboard: 1

[Editor]
Bookmarks: 8647,10269,17891,21945,22269,23161,25674,27783
DistanceSpacing: 1
BeatDivisor: 4
GridSize: 8

[Metadata]
Title:Hoshizora no Ima
TitleUnicode:Hoshizora no Ima
Artist:Sagara Kokoro
ArtistUnicode:Sagara Kokoro
Creator:Hydra
Version:mizu
Source:Hoshizora e Kakaru Hashi AA
Tags:hoshizora, kakaru, hashi, hydra, AA
BeatmapID:344967
BeatmapSetID:135602

[Difficulty]
HPDrainRate:8
CircleSize:4
OverallDifficulty:7
ApproachRate:9
SliderMultiplier:1.7
SliderTickRate:3

[Events]
//Background and Video events
0,0,"BG.jpg",0,0
//Break Periods
//Storyboard Layer 0 (Background)
//Storyboard Layer 1 (Fail)
//Storyboard Layer 2 (Pass)
//Storyboard Layer 3 (Foreground)
//Storyboard Sound Samples
//Background Colour Transformations
3,100,163,162,255

[TimingPoints]
3702,324.324324324324,4,1,0,90,1,0
4999,-100,4,1,0,90,0,0
7512,-66.6666666666667,4,1,0,90,0,0
10837,-50,4,1,0,90,0,0
11485,-100,4,1,0,90,0,0
12215,-66.6666666666667,4,1,0,90,0,0
13512,-66.6666666666667,4,1,0,90,0,0
14080,-57.1428571428571,4,1,0,90,0,0
15864,-66.6666666666667,4,1,0,90,0,0
16269,-100,4,1,0,90,0,0
18377,-100,4,1,0,90,0,0
21945,-133.333333333333,4,1,0,90,0,0
22269,-100,4,1,0,90,0,0
26647,-66.6666666666667,4,1,0,90,0,0
28107,-200,4,1,0,90,0,0
32485,-66.6666666666667,4,1,0,90,0,0
33134,-50,4,1,0,90,0,0
33539,-66.6666666666667,4,1,0,90,0,0
46999,-100,4,1,0,90,0,1
63377,-100,4,1,0,90,0,0
66783,-100,4,1,0,90,0,1
80964,-50,4,1,0,90,0,0
81377,-100,4,1,0,90,0,0
83404,-100,4,1,0,90,0,0
84215,-200,4,1,0,90,0,0
84458,-100,4,1,0,90,0,0
84558,-66.6666666666667,4,1,0,90,0,0
84783,-50,4,1,0,90,0,0
85431,-100,4,1,0,90,0,0
88999,-66.6666666666667,4,1,0,90,0,0
90296,-200,4,1,0,90,0,0
94837,-66.6666666666667,4,1,0,90,0,0
95485,-50,4,1,0,90,0,0
95810,-66.6666666666667,4,1,0,90,0,0
97756,-100,4,1,0,90,0,0

[Colours]
Combo1 : 224,56,153
Combo2 : 234,191,21
Combo3 : 236,4,4
Combo4 : 0,255,255

[HitObjects]
96,128,4999,2,0,B|168:96|168:96|184:120|264:144,1,170
408,192,5647,1,0,0:0:0:0:
320,272,6215,2,0,L|272:320,2,42.5
344,168,6539,1,0,0:0:0:0:
232,176,6701,1,0,0:0:0:0:
208,264,6864,2,0,L|176:296,2,42.5
152,168,7188,1,0,0:0:0:0:
264,152,7350,1,0,0:0:0:0:
368,80,7512,5,0,0:0:0:0:
424,200,7674,1,0,0:0:0:0:
296,176,7837,1,0,0:0:0:0:
176,168,7999,5,0,0:0:0:0:
192,296,8161,1,0,0:0:0:0:
296,224,8323,1,0,0:0:0:0:
384,128,8485,5,0,0:0:0:0:
280,56,8647,1,0,0:0:0:0:
152,40,8810,2,0,P|136:112|80:160,1,127.500004863739
64,232,9134,1,0,0:0:0:0:
128,312,9296,1,0,0:0:0:0:
240,328,9458,1,0,0:0:0:0:
360,296,9620,6,0,P|424:248|440:176,1,127.500004863739
320,168,9945,2,0,P|248:112|240:48,1,127.500004863739
160,200,10269,2,0,P|224:248|240:320,1,127.500004863739,0|0,0:0|0:0,0:0:0:0:
248,160,10593,2,0,P|184:112|168:40,1,127.500004863739
336,88,10918,6,0,B|346:178|430:256,1,170
464,328,11242,1,0,0:0:0:0:
360,320,11404,1,0,0:0:0:0:
248,288,11566,6,0,L|176:216,1,85
216,112,11891,2,0,L|288:184,1,85
440,232,12215,2,0,P|357:256|298:230,1,127.500004863739
226,180,12539,1,0,0:0:0:0:
223,65,12701,1,0,0:0:0:0:
124,125,12864,1,0,0:0:0:0:
210,251,13026,5,0,0:0:0:0:
60,284,13188,1,0,0:0:0:0:
100,136,13350,1,0,0:0:0:0:
223,65,13512,5,0,0:0:0:0:
371,99,13674,1,0,0:0:0:0:
441,235,13837,1,0,0:0:0:0:
355,329,13999,2,0,P|261:310|237:278,1,127.500004863739
159,205,14323,1,0,0:0:0:0:
102,100,14485,1,0,0:0:0:0:
202,36,14647,1,0,0:0:0:0:
352,64,14810,5,0,0:0:0:0:
408,200,14972,1,0,0:0:0:0:
264,184,15134,1,0,0:0:0:0:
264,184,15296,1,0,0:0:0:0:
144,272,15458,2,0,P|91:205|97:129,1,148.750001418591
216,64,15783,2,0,P|214:151|262:206,1,148.750001418591
380,168,16107,2,0,P|333:98|344:36,1,127.500004863739
136,127,16593,6,0,L|96:160,2,42.5
232,96,16918,1,0,0:0:0:0:
256,176,17080,1,0,0:0:0:0:
199,258,17242,2,0,L|166:289,2,42.5
280,256,17566,1,0,0:0:0:0:
344,304,17729,1,0,0:0:0:0:
344,304,17891,5,0,0:0:0:0:
184,240,18053,1,0,0:0:0:0:
264,272,18215,1,0,0:0:0:0:
128,168,18377,1,0,0:0:0:0:
184,240,18539,1,0,0:0:0:0:
104,88,18701,1,0,0:0:0:0:
176,40,18864,5,0,0:0:0:0:
264,40,19026,1,0,0:0:0:0:
344,72,19188,1,0,0:0:0:0:
424,32,19350,2,0,P|454:67|472:192,1,170
376,256,19837,5,0,0:0:0:0:
272,328,19999,1,0,0:0:0:0:
344,216,20161,1,0,0:0:0:0:
234,233,20323,1,0,0:0:0:0:
352,168,20485,1,0,0:0:0:0:
233,140,20647,1,0,0:0:0:0:
152,64,20810,2,0,P|128:120|80:152,3,85
64,240,21458,2,0,P|80:288|128:312,1,85
216,336,21783,1,0,0:0:0:0:
312,320,21945,6,0,L|384:288,1,63.7500024318696
432,184,22269,1,0,0:0:0:0:
432,184,22350,1,0,0:0:0:0:
432,184,22431,1,0,0:0:0:0:
376,72,22593,2,0,L|288:48,1,85
168,72,22918,1,0,0:0:0:0:
168,72,22999,1,0,0:0:0:0:
168,72,23080,1,0,0:0:0:0:
80,160,23242,6,0,P|56:208|64:248,1,85
104,312,23566,2,0,P|144:336|200:336,1,85
280,296,23891,1,0,0:0:0:0:
280,296,24053,1,0,0:0:0:0:
240,192,24215,1,0,0:0:0:0:
280,88,24377,1,0,0:0:0:0:
392,64,24539,5,0,0:0:0:0:
408,96,24620,1,0,0:0:0:0:
416,128,24701,1,0,0:0:0:0:
416,160,24783,1,0,0:0:0:0:
408,192,24864,1,0,0:0:0:0:
392,224,24945,1,0,0:0:0:0:
368,248,25026,1,0,0:0:0:0:
344,272,25107,1,0,0:0:0:0:
320,296,25188,1,0,0:0:0:0:
288,312,25269,1,0,0:0:0:0:
256,320,25350,1,0,0:0:0:0:
128,280,25674,5,0,0:0:0:0:
72,176,25837,1,0,0:0:0:0:
120,72,25999,1,0,0:0:0:0:
232,32,26161,1,0,0:0:0:0:
232,32,26323,1,0,0:0:0:0:
344,64,26485,6,0,P|360:112|400:160,1,85
432,256,26810,2,0,P|384:312|312:320,1,127.500004863739
216,312,27134,2,0,P|144:280|112:216,1,127.500004863739
360,192,27458,2,0,L|232:192,1,127.500004863739
216,72,27783,2,0,P|144:104|112:168,1,127.500004863739
80,256,28107,6,0,L|120:296,1,42.5
240,256,28431,2,0,L|208:224,1,42.5
272,48,28756,2,0,L|312:80,1,42.5
456,104,29080,2,0,L|416:64,1,42.5
440,208,29404,6,0,P|448:232|440:248,1,42.5
304,280,29729,2,0,P|304:256|312:240,1,42.5
216,80,30053,2,0,P|232:96|224:128,1,42.5
96,248,30377,2,0,P|80:232|80:200,1,42.5
104,96,30701,6,0,L|152:64,1,42.5
432,288,31026,2,0,L|392:328,1,42.5
208,72,31350,2,0,L|160:112,1,42.5
336,320,31674,2,0,L|384:280,1,42.5
320,144,31999,2,0,L|272:184,1,42.5
200,248,32323,2,0,L|248:208,1,42.5
352,256,32647,6,0,P|400:208|416:136,1,127.500004863739
376,32,32972,2,0,P|304:80|288:144,1,127.500004863739
96,168,33296,2,0,P|176:208|272:216,1,170
272,64,33620,6,0,L|384:136,1,127.500004863739
400,288,33945,2,0,L|288:208,1,127.500004863739
464,208,34269,2,0,P|464:128|432:72,1,127.500004863739
240,64,34593,6,0,L|128:136,1,127.500004863739
112,288,34918,2,0,L|224:208,1,127.500004863739
48,208,35242,2,0,P|48:128|80:72,1,127.500004863739
192,56,35566,5,0,0:0:0:0:
312,96,35729,1,0,0:0:0:0:
312,96,35810,1,0,0:0:0:0:
312,96,35891,1,0,0:0:0:0:
400,192,36053,1,0,0:0:0:0:
336,304,36215,1,0,0:0:0:0:
208,320,36377,1,0,0:0:0:0:
88,248,36539,1,0,0:0:0:0:
88,248,36620,1,0,0:0:0:0:
88,248,36701,1,0,0:0:0:0:
96,120,36864,5,0,0:0:0:0:
208,64,37026,1,0,0:0:0:0:
200,192,37188,1,0,0:0:0:0:
128,88,37350,1,0,0:0:0:0:
256,56,37512,1,0,0:0:0:0:
248,184,37674,1,0,0:0:0:0:
200,304,37837,6,0,P|248:336|320:344,1,127.500004863739
432,296,38161,2,0,P|472:240|472:176,1,127.500004863739
424,64,38485,1,0,0:0:0:0:
296,40,38647,1,0,0:0:0:0:
168,64,38810,1,0,0:0:0:0:
88,168,38972,1,0,0:0:0:0:
168,64,39134,5,0,0:0:0:0:
296,40,39296,1,0,0:0:0:0:
248,160,39458,1,0,0:0:0:0:
328,64,39620,5,0,0:0:0:0:
272,176,39783,1,0,0:0:0:0:
400,160,39945,1,0,0:0:0:0:
280,208,40107,5,0,0:0:0:0:
192,304,40269,1,0,0:0:0:0:
136,192,40431,1,0,0:0:0:0:
72,72,40593,2,0,P|128:48|208:40,1,127.500004863739
320,40,40918,2,0,P|392:40|456:72,2,127.500004863739
200,80,41404,5,0,0:0:0:0:
136,192,41566,1,0,0:0:0:0:
192,304,41729,1,0,0:0:0:0:
320,304,41891,5,0,0:0:0:0:
400,240,42053,1,0,0:0:0:0:
400,136,42215,1,0,0:0:0:0:
328,64,42377,1,0,0:0:0:0:
320,304,42539,5,0,0:0:0:0:
448,248,42701,1,0,0:0:0:0:
448,128,42864,1,0,0:0:0:0:
328,64,43026,1,0,0:0:0:0:
216,128,43188,2,0,P|288:152|344:216,1,127.500004863739
472,232,43512,2,0,P|412:253|377:304,1,127.500004863739
224,224,43837,2,0,P|288:264|304:336,1,127.500004863739
136,264,44161,2,0,P|80:296|0:277,1,127.500004863739
144,160,44485,2,0,P|111:104|130:23,1,127.500004863739
240,80,44810,5,0,0:0:0:0:
320,176,44972,1,0,0:0:0:0:
368,56,45134,1,0,0:0:0:0:
368,56,45296,1,0,0:0:0:0:
360,184,45458,5,0,0:0:0:0:
240,136,45620,1,0,0:0:0:0:
264,264,45783,1,0,0:0:0:0:
384,224,45945,5,0,0:0:0:0:
480,296,46107,1,0,0:0:0:0:
360,344,46269,1,0,0:0:0:0:
360,344,46431,1,0,0:0:0:0:
232,320,46593,1,0,0:0:0:0:
128,240,46756,5,0,0:0:0:0:
88,120,46918,1,0,0:0:0:0:
88,120,46999,1,0,0:0:0:0:
88,120,47080,1,0,0:0:0:0:
184,48,47242,1,0,0:0:0:0:
184,48,47404,1,0,0:0:0:0:
296,80,47566,1,0,0:0:0:0:
384,192,47729,6,0,L|384:240|384:288,1,85
288,344,48053,1,0,0:0:0:0:
176,304,48215,1,0,0:0:0:0:
288,344,48377,1,0,0:0:0:0:
176,304,48539,1,0,0:0:0:0:
104,208,48701,1,0,0:0:0:0:
104,208,48864,1,0,0:0:0:0:
128,96,49026,1,0,0:0:0:0:
128,96,49188,1,0,0:0:0:0:
224,56,49350,1,0,0:0:0:0:
104,208,49512,1,0,0:0:0:0:
176,304,49674,5,0,0:0:0:0:
288,344,49837,1,0,0:0:0:0:
384,272,49999,1,0,0:0:0:0:
288,344,50161,1,0,0:0:0:0:
384,272,50323,1,0,0:0:0:0:
424,160,50485,1,0,0:0:0:0:
424,160,50647,1,0,0:0:0:0:
384,48,50810,6,0,P|360:104|328:128,2,85
248,240,51296,5,0,0:0:0:0:
248,240,51458,1,0,0:0:0:0:
160,160,51620,1,0,0:0:0:0:
280,40,51783,5,0,0:0:0:0:
368,120,51945,1,0,0:0:0:0:
136,272,52107,6,0,L|72:200,1,85
232,128,52431,2,0,B|312:144|264:216|264:216|304:248|368:232|368:232|344:328|216:336,1,425
64,272,53404,2,0,P|48:232|48:208,1,42.5
136,56,53566,2,0,P|176:88|184:136,1,85
192,216,53891,5,0,0:0:0:0:
264,304,54053,1,0,0:0:0:0:
312,192,54215,1,0,0:0:0:0:
424,160,54377,5,0,0:0:0:0:
304,320,54701,1,0,0:0:0:0:
104,280,55026,1,0,0:0:0:0:
72,168,55350,2,0,P|64:120|80:80,1,85
184,40,55674,2,0,P|216:88|216:120,1,85
240,232,55999,1,0,0:0:0:0:
312,328,56161,5,0,0:0:0:0:
312,328,56242,1,0,0:0:0:0:
312,328,56323,1,0,0:0:0:0:
424,296,56485,1,0,0:0:0:0:
424,296,56566,1,0,0:0:0:0:
424,296,56647,1,0,0:0:0:0:
448,176,56810,1,0,0:0:0:0:
416,64,56972,2,0,P|352:40|304:48,1,85
216,56,57296,2,0,P|160:96|144:128,1,85
104,216,57620,2,0,P|88:264|88:320,1,85
200,344,57945,2,0,P|232:296|240:264,1,85
280,160,58269,1,0,0:0:0:0:
280,160,58431,1,0,0:0:0:0:
344,64,58593,6,0,P|400:96|416:136,1,85
416,232,58918,2,0,P|392:280|352:304,1,85
256,328,59242,2,0,P|184:328|160:320,1,85
72,256,59566,1,0,0:0:0:0:
136,152,59729,5,0,0:0:0:0:
360,64,59891,1,0,0:0:0:0:
152,184,60053,2,0,B|152:232|216:232|248:280,2,127.5
376,96,60701,1,0,0:0:0:0:
296,320,60864,1,0,0:0:0:0:
112,176,61026,1,0,0:0:0:0:
176,272,61188,1,0,0:0:0:0:
256,48,61350,1,0,0:0:0:0:
352,120,61512,6,0,P|368:176|368:208,2,85
256,48,61999,2,0,P|192:56|160:72,1,85
80,136,62323,1,0,0:0:0:0:
80,256,62485,1,0,0:0:0:0:
80,136,62647,1,0,0:0:0:0:
80,256,62810,1,0,0:0:0:0:
120,280,62891,1,0,0:0:0:0:
160,272,62972,1,0,0:0:0:0:
184,240,63053,1,0,0:0:0:0:
224,224,63134,1,0,0:0:0:0:
264,248,63215,1,0,0:0:0:0:
288,280,63296,1,0,0:0:0:0:
392,328,63458,6,0,B|440:280|448:240|456:240,1,85
432,144,63783,1,0,0:0:0:0:
432,144,63945,1,0,0:0:0:0:
360,48,64107,1,0,0:0:0:0:
320,32,64188,1,0,0:0:0:0:
280,40,64269,1,0,0:0:0:0:
248,64,64350,1,0,0:0:0:0:
216,88,64431,1,0,0:0:0:0:
176,80,64512,1,0,0:0:0:0:
144,56,64593,1,0,0:0:0:0:
48,120,64756,6,0,P|32:176|32:216,3,85
88,304,65404,2,0,P|152:336|192:336,1,85
280,320,65729,1,0,0:0:0:0:
416,128,65891,1,0,0:0:0:0:
240,288,66053,1,0,0:0:0:0:
448,168,66215,1,0,0:0:0:0:
376,96,66377,5,0,0:0:0:0:
264,56,66539,1,0,0:0:0:0:
264,56,66701,1,0,0:0:0:0:
368,304,66864,6,0,L|400:272,1,42.5
368,128,67026,2,0,L|336:160,1,42.5
144,280,67188,2,0,L|192:312,1,42.5
200,88,67350,2,0,L|160:56,1,42.5
56,168,67512,2,0,L|104:168,1,42.5
408,232,67675,2,0,L|352:232,1,42.5
256,192,67999,5,0,0:0:0:0:
368,128,68485,2,0,L|416:96,2,42.5
352,240,68810,1,0,0:0:0:0:
256,192,68972,1,0,0:0:0:0:
256,80,69134,1,0,0:0:0:0:
256,80,69215,1,0,0:0:0:0:
256,80,69296,1,0,0:0:0:0:
168,48,69458,1,0,0:0:0:0:
72,40,69620,1,0,0:0:0:0:
96,152,69783,2,0,L|72:224,1,42.5
128,288,69945,2,0,L|168:256,1,42.5
288,232,70107,2,0,L|280:304,1,42.5
384,312,70269,2,0,L|432:272,1,42.5
440,200,70431,6,0,P|448:152|432:104,1,85
344,56,70756,1,0,0:0:0:0:
232,48,70918,1,0,0:0:0:0:
128,120,71080,1,0,0:0:0:0:
232,160,71242,1,0,0:0:0:0:
272,176,71323,1,0,0:0:0:0:
304,200,71404,1,0,0:0:0:0:
320,240,71485,1,0,0:0:0:0:
344,280,71566,1,0,0:0:0:0:
376,304,71647,1,0,0:0:0:0:
416,328,71729,1,0,0:0:0:0:
456,216,71891,6,0,P|464:152|448:112,1,85
344,56,72215,2,0,P|360:112|352:152,1,85
304,248,72539,1,0,0:0:0:0:
304,248,72620,1,0,0:0:0:0:
304,248,72701,1,0,0:0:0:0:
192,288,72864,1,0,0:0:0:0:
192,288,73026,1,0,0:0:0:0:
96,216,73188,1,0,0:0:0:0:
96,216,73269,1,0,0:0:0:0:
96,216,73350,1,0,0:0:0:0:
120,96,73512,1,0,0:0:0:0:
232,48,73674,1,0,0:0:0:0:
352,72,73837,6,0,L|400:112,2,42.5
328,200,74161,2,0,L|360:232,2,42.5
224,272,74485,1,0,0:0:0:0:
224,272,74566,1,0,0:0:0:0:
224,272,74647,1,0,0:0:0:0:
104,224,74810,6,0,P|64:168|64:136,1,85
136,56,75134,2,0,P|160:120|192:136,1,85
272,184,75458,1,0,0:0:0:0:
272,184,75539,1,0,0:0:0:0:
272,184,75620,1,0,0:0:0:0:
360,120,75783,1,0,0:0:0:0:
456,168,75945,2,0,P|464:240|448:272,1,85
376,320,76269,6,0,L|328:336,2,42.5
360,224,76593,2,0,L|312:240,2,42.5
336,112,76918,1,0,0:0:0:0:
296,120,76999,1,0,0:0:0:0:
256,128,77080,1,0,0:0:0:0:
168,64,77242,1,0,0:0:0:0:
80,136,77404,1,0,0:0:0:0:
72,248,77566,1,0,0:0:0:0:
176,288,77729,6,0,P|240:272|280:248,1,85
352,208,78053,2,0,P|400:168|424:144,1,85
392,48,78377,2,0,P|328:64|288:56,1,85
200,88,78701,1,0,0:0:0:0:
144,184,78864,6,0,L|112:240,2,42.5
216,80,79188,1,0,0:0:0:0:
328,64,79350,1,0,0:0:0:0:
320,160,79512,2,0,L|296:208,2,42.5
304,288,79837,1,0,0:0:0:0:
400,344,79999,1,0,0:0:0:0:
432,240,80161,6,0,L|448:184,1,42.5
416,88,80323,2,0,L|368:112,1,42.5
304,208,80485,2,0,L|264:168,1,42.5
216,80,80647,2,0,L|176:104,1,42.5
96,192,80810,2,0,L|128:232,1,42.5
224,296,80972,6,0,B|320:312|408:280|456:216|464:112,1,340
368,48,81458,2,0,P|360:80|320:128,2,85
464,48,82107,5,0,0:0:0:0:
448,152,82269,1,0,0:0:0:0:
408,248,82431,1,0,0:0:0:0:
328,304,82593,1,0,0:0:0:0:
408,248,82756,1,0,0:0:0:0:
448,152,82918,2,0,P|384:168|336:144,1,85
280,152,83242,1,0,0:0:0:0:
192,240,83404,6,0,P|144:256|96:240,1,85
80,136,83729,2,0,P|104:80|144:56,1,85
232,48,84053,1,0,0:0:0:0:
360,64,84215,2,0,P|392:80|408:96,1,42.5
432,192,84539,2,0,P|432:240|392:288,1,85
320,320,84864,2,0,P|248:336|144:312,1,170
80,240,85188,2,0,P|40:160|56:56,1,170
152,32,85512,5,0,0:0:0:0:
152,32,85674,1,0,0:0:0:0:
232,104,85837,1,0,0:0:0:0:
328,152,85999,1,0,0:0:0:0:
248,232,86161,1,0,0:0:0:0:
328,312,86323,1,0,0:0:0:0:
424,256,86485,2,0,P|464:208|480:168,1,85
456,80,86810,5,0,0:0:0:0:
416,64,86891,1,0,0:0:0:0:
376,56,86972,1,0,0:0:0:0:
336,72,87053,1,0,0:0:0:0:
296,96,87134,1,0,0:0:0:0:
256,104,87215,1,0,0:0:0:0:
216,120,87296,1,0,0:0:0:0:
176,112,87377,1,0,0:0:0:0:
136,96,87458,1,0,0:0:0:0:
96,88,87539,2,0,P|56:128|40:200,1,127.5
136,272,87945,5,0,0:0:0:0:
136,272,88107,1,0,0:0:0:0:
193,334,88269,1,0,0:0:0:0:
305,346,88431,1,0,0:0:0:0:
381,305,88593,1,0,0:0:0:0:
168,64,88756,6,0,P|152:112|112:160,1,85
80,256,89081,2,0,P|128:312|200:320,1,127.500004863739
296,312,89405,2,0,P|368:280|400:216,1,127.500004863739
152,192,89729,2,0,L|280:192,1,127.500004863739
296,72,90054,2,0,P|368:104|400:168,1,127.500004863739
432,256,90378,6,0,L|392:296,1,42.5
272,256,90702,2,0,L|304:224,1,42.5
240,48,91027,2,0,L|200:80,1,42.5
56,104,91351,2,0,L|96:64,1,42.5
72,208,91675,6,0,P|64:232|72:248,1,42.5
208,280,92000,2,0,P|208:256|200:240,1,42.5
296,80,92324,2,0,P|280:96|288:128,1,42.5
416,248,92648,2,0,P|432:232|432:200,1,42.5
408,96,92972,6,0,L|360:64,1,42.5
80,288,93297,2,0,L|120:328,1,42.5
304,72,93621,2,0,L|352:112,1,42.5
208,280,93945,2,0,L|160:240,1,42.5
88,120,94270,2,0,L|136:160,1,42.5
408,240,94594,2,0,L|360:200,1,42.5
160,256,94918,6,0,P|112:208|96:136,1,127.500004863739
136,32,95243,2,0,P|208:80|224:144,1,127.500004863739
416,168,95567,2,0,P|336:208|240:216,1,170
240,64,95891,6,0,L|128:136,1,127.500004863739
112,288,96216,2,0,L|224:208,1,127.500004863739
48,208,96540,2,0,P|48:128|80:72,1,127.500004863739
272,64,96864,6,0,L|384:136,1,127.500004863739
400,288,97189,2,0,L|288:208,1,127.500004863739
464,208,97513,2,0,P|464:128|432:72,1,127.500004863739
320,48,97837,1,0,0:0:0:0:
232,56,97999,1,0,0:0:0:0:
192,72,98080,1,0,0:0:0:0:
160,96,98161,1,0,0:0:0:0:
120,168,98323,1,0,0:0:0:0:
144,248,98485,1,0,0:0:0:0:
200,312,98647,1,0,0:0:0:0:
288,328,98810,1,0,0:0:0:0:
328,320,98891,1,0,0:0:0:0:
368,304,98972,1,0,0:0:0:0:
392,272,99053,1,0,0:0:0:0:
416,232,99134,1,0,0:0:0:0:
424,192,99215,1,0,0:0:0:0:
416,152,99296,1,0,0:0:0:0:
368,80,99458,1,0,0:0:0:0:
256,192,99620,12,0,103431,0:0:0:0:
