osu file format v12

[General]
AudioFilename: Sagara Kokoro-Hoshizora no Ima.mp3
AudioLeadIn: 0
PreviewTime: 66945
Countdown: 0
SampleSet: Normal
StackLeniency: 0.5
Mode: 0
LetterboxInBreaks: 1
WidescreenStoryboard: 0

[Editor]
DistanceSpacing: 1
BeatDivisor: 4
GridSize: 8

[Metadata]
Title:Hoshizora no Ima
TitleUnicode:Hoshizora no Ima
Artist:Sagara Kokoro
ArtistUnicode:Sagara Kokoro
Creator:Hydra
Version:Insane
Source:Hoshizora e Kakaru Hashi AA
Tags:hoshizora, kakaru, hashi, hydra, AA
BeatmapID:339656
BeatmapSetID:135602

[Difficulty]
HPDrainRate:8
CircleSize:4
OverallDifficulty:7
ApproachRate:9
SliderMultiplier:1.5
SliderTickRate:3

[Events]
//Background and Video events
0,0,"BG.jpg",0,0
//Break Periods
//Storyboard Layer 0 (Background)
//Storyboard Layer 1 (Fail)
//Storyboard Layer 2 (Pass)
//Storyboard Layer 3 (Foreground)
//Storyboard Sound Samples
//Background Colour Transformations
3,100,163,162,255

[TimingPoints]
3702,324.324324324324,4,1,0,90,1,0
4999,-200,4,1,0,90,0,0
16269,-100,4,1,0,90,0,0
36701,-200,4,1,0,90,0,0
46999,-100,4,1,0,90,0,0

[HitObjects]
88,144,5080,2,0,L|112:216,1,75
128,232,5728,2,0,L|200:264,1,75
272,288,6377,6,0,L|328:232,1,75
344,144,7026,2,0,L|384:152,2,37.5
336,256,7674,1,0,0:0:0:0:
232,312,7999,1,0,0:0:0:0:
224,192,8323,1,0,0:0:0:0:
184,80,8647,2,0,P|152:96|112:120,1,75
208,176,9296,5,0,0:0:0:0:
272,320,9620,1,0,0:0:0:0:
408,208,9945,1,0,0:0:0:0:
336,88,10269,1,0,0:0:0:0:
152,64,10593,6,0,P|120:96|112:136,1,75
152,224,11242,1,0,0:0:0:0:
272,200,11566,2,0,P|296:232|296:272,1,75
384,192,12242,1,0,0:0:0:0:
336,104,12539,2,0,P|304:64|272:64,2,75
304,192,13512,2,0,L|232:216,1,75
120,184,14161,2,0,L|88:112,1,75
184,64,14810,2,0,L|264:64,1,75
368,304,15458,5,0,0:0:0:0:
216,256,15783,1,0,0:0:0:0:
248,112,16026,2,0,L|184:72,1,75
184,80,16404,6,0,P|163:112|160:184,1,112.5
176,248,16756,1,0,0:0:0:0:
248,312,16919,1,0,0:0:0:0:
280,216,17081,1,0,0:0:0:0:
376,280,17243,1,0,0:0:0:0:
280,144,17404,6,0,P|248:96|200:88,1,75
80,192,17729,2,0,L|120:272,1,75
176,168,18053,2,0,P|152:144|152:96,1,75
248,128,18350,2,0,L|288:192,1,75
224,288,18674,1,0,0:0:0:0:
128,232,18864,1,0,0:0:0:0:
96,112,19026,1,0,0:0:0:0:
208,168,19188,1,0,0:0:0:0:
312,96,19350,1,0,0:0:0:0:
400,216,19512,6,0,L|336:280,1,75
347,268,19837,1,0,0:0:0:0:
347,268,19999,1,0,0:0:0:0:
236,167,20161,5,0,0:0:0:0:
136,272,20323,1,0,0:0:0:0:
136,272,20404,1,0,0:0:0:0:
136,272,20485,1,0,0:0:0:0:
284,293,20647,1,0,0:0:0:0:
284,293,20729,1,0,0:0:0:0:
284,293,20810,1,0,0:0:0:0:
408,152,20972,6,0,L|384:240,1,75
270,144,21296,2,0,L|246:64,1,75
85,119,21620,2,0,L|61:199,1,75
170,285,21945,2,0,L|210:205,1,75
297,171,22269,2,0,L|329:259,1,75
411,297,22593,2,0,L|443:209,1,75
376,128,22918,2,0,L|336:208,1,75
264,160,23242,5,0,0:0:0:0:
264,160,23404,1,0,0:0:0:0:
152,120,23566,1,0,0:0:0:0:
152,120,23729,1,0,0:0:0:0:
200,256,23891,1,0,0:0:0:0:
200,256,24053,1,0,0:0:0:0:
336,112,24215,5,0,0:0:0:0:
384,304,24377,1,0,0:0:0:0:
432,184,24539,1,0,0:0:0:0:
288,208,24701,1,0,0:0:0:0:
336,112,24863,1,0,0:0:0:0:
288,208,25025,1,0,0:0:0:0:
288,208,25188,1,0,0:0:0:0:
88,112,25837,6,0,L|64:64,2,37.5
112,192,26161,1,0,0:0:0:0:
112,192,26242,1,0,0:0:0:0:
112,192,26323,1,0,0:0:0:0:
232,176,26485,6,0,L|200:256,1,75
309,247,26810,2,0,L|349:143,1,75
384,176,27134,5,0,0:0:0:0:
312,88,27296,1,0,0:0:0:0:
200,80,27458,1,0,0:0:0:0:
104,144,27620,1,0,0:0:0:0:
120,248,27783,2,0,L|72:280,2,37.5
224,256,28107,2,0,L|256:232,2,37.5
104,144,28431,6,0,L|128:240,1,75
208,184,28756,2,0,L|248:88,1,75
408,88,29080,5,0,0:0:0:0:
320,168,29242,1,0,0:0:0:0:
416,240,29404,1,0,0:0:0:0:
304,296,29566,1,0,0:0:0:0:
176,296,29729,5,0,0:0:0:0:
176,296,29810,1,0,0:0:0:0:
176,296,29892,1,0,0:0:0:0:
240,200,30053,1,0,0:0:0:0:
240,200,30134,1,0,0:0:0:0:
240,200,30215,1,0,0:0:0:0:
256,72,30377,6,0,P|160:72|144:136,1,150
224,152,31026,6,0,P|179:207|109:190,1,150
152,127,31674,5,0,0:0:0:0:
256,52,31837,1,0,0:0:0:0:
352,127,31999,1,0,0:0:0:0:
257,212,32161,1,0,0:0:0:0:
184,256,32323,6,0,L|136:176,1,75
56,176,32647,2,0,L|96:264,1,75
168,184,32972,5,0,0:0:0:0:
264,96,33134,1,0,0:0:0:0:
352,184,33296,1,0,0:0:0:0:
264,280,33458,1,0,0:0:0:0:
168,184,33620,1,0,0:0:0:0:
80,144,33783,6,0,L|56:88,2,37.5
128,240,34107,2,0,L|192:304,1,75
224,224,34431,2,0,L|280:288,1,75
352,264,34756,2,0,L|376:192,1,75
363,66,35080,1,0,0:0:0:0:
279,162,35242,1,0,0:0:0:0:
186,66,35404,1,0,0:0:0:0:
65,106,35566,1,0,0:0:0:0:
139,189,35729,5,0,0:0:0:0:
162,212,35810,1,0,0:0:0:0:
185,235,35891,1,0,0:0:0:0:
208,258,35972,1,0,0:0:0:0:
231,281,36053,1,0,0:0:0:0:
258,290,36134,1,0,0:0:0:0:
294,295,36215,1,0,0:0:0:0:
327,295,36296,1,0,0:0:0:0:
360,295,36377,1,0,0:0:0:0:
445,271,36539,6,0,B|501:255|376:200|427:134,1,150
368,280,37431,2,0,L|392:184,1,93.75
360,120,37999,6,0,L|264:72,1,93.75
192,112,38647,2,0,L|112:176,1,93.75
48,208,39459,5,0,0:0:0:0:
128,304,39783,1,0,0:0:0:0:
208,200,40108,1,0,0:0:0:0:
304,288,40432,1,0,0:0:0:0:
400,112,40756,5,0,0:0:0:0:
288,48,41081,1,0,0:0:0:0:
176,112,41405,1,0,0:0:0:0:
64,48,41729,1,0,0:0:0:0:
96,192,42054,6,0,P|64:232|80:264,1,75
168,240,42701,2,0,P|192:256|208:312,1,75
320,256,43351,5,0,0:0:0:0:
320,224,43675,1,0,0:0:0:0:
320,192,44000,1,0,0:0:0:0:
320,160,44324,1,0,0:0:0:0:
264,104,44647,6,0,L|192:144,1,75
176,136,45134,2,0,L|104:176,1,75
110,172,45945,5,0,0:0:0:0:
192,288,46269,1,0,0:0:0:0:
192,288,46593,1,0,0:0:0:0:
312,208,46918,1,0,0:0:0:0:
360,136,47080,6,0,L|408:128,2,37.5
267,60,47404,2,0,L|227:132,1,75
110,139,47729,2,0,L|142:51,1,75
81,175,48053,2,0,P|65:215|81:247,1,75
180,302,48377,2,0,L|244:222,1,75
256,168,48701,5,0,0:0:0:0:
312,280,48864,1,0,0:0:0:0:
432,280,49026,1,0,0:0:0:0:
480,168,49188,1,0,0:0:0:0:
368,80,49350,1,0,0:0:0:0:
248,96,49512,1,0,0:0:0:0:
136,136,49674,5,0,0:0:0:0:
136,136,49756,1,0,0:0:0:0:
136,136,49837,1,0,0:0:0:0:
155,239,49999,2,0,L|99:263,2,37.5
253,274,50323,2,0,L|205:314,2,37.5
357,274,50647,2,0,L|309:306,2,37.5
304,152,50972,5,0,0:0:0:0:
304,152,51053,1,0,0:0:0:0:
304,152,51134,1,0,0:0:0:0:
144,80,51296,6,0,L|96:152,1,75
160,256,51620,2,0,L|224:176,1,75
288,96,51945,2,0,L|320:176,1,75
328,288,52269,5,0,0:0:0:0:
328,288,52431,2,0,L|408:304,2,75
155,256,52918,1,0,0:0:0:0:
155,256,53080,2,0,L|88:295,2,75
85,163,53566,5,0,0:0:0:0:
165,62,53729,1,0,0:0:0:0:
243,162,53891,1,0,0:0:0:0:
331,70,54053,1,0,0:0:0:0:
389,260,54377,6,0,L|313:315,1,75
271,190,54701,2,0,L|248:105,1,75
107,79,55026,2,0,L|79:155,1,75
72,284,55350,2,0,L|166:286,1,75
146,285,55674,1,0,0:0:0:0:
68,183,55837,1,0,0:0:0:0:
104,79,55999,1,0,0:0:0:0:
214,129,56323,5,0,0:0:0:0:
240,155,56404,1,0,0:0:0:0:
266,181,56485,1,0,0:0:0:0:
292,207,56566,1,0,0:0:0:0:
318,233,56647,1,0,0:0:0:0:
344,259,56729,1,0,0:0:0:0:
370,285,56810,1,0,0:0:0:0:
436,198,56972,6,0,L|435:111,2,75
322,54,57620,6,0,L|253:114,1,75
186,168,57945,2,0,L|132:82,1,75
61,190,58269,2,0,L|114:265,1,75
169,62,58593,6,0,P|155:100|169:159,1,75
298,120,58918,2,0,P|312:148|292:195,1,75
213,224,59242,6,0,P|207:265|237:300,1,75
336,283,59566,2,0,L|404:231,1,75
390,74,59891,5,0,0:0:0:0:
390,74,60053,2,0,L|281:80,1,75
132,77,60377,1,0,0:0:0:0:
132,77,60539,2,0,L|192:130,1,75
314,192,60864,1,0,0:0:0:0:
314,192,61026,2,0,L|234:253,1,75
202,308,61350,1,0,0:0:0:0:
110,252,61512,5,0,0:0:0:0:
110,199,61837,1,0,0:0:0:0:
110,146,62161,1,0,0:0:0:0:
323,58,62810,6,0,P|420:89|442:138,1,150
417,237,63458,2,0,P|393:319|310:306,1,150
338,325,64107,1,0,0:0:0:0:
96,166,64674,6,0,L|214:328,1,187.5
304,272,65404,1,0,0:0:0:0:
432,96,65566,1,0,0:0:0:0:
464,208,65728,1,0,0:0:0:0:
264,96,65891,1,0,0:0:0:0:
400,256,66053,1,0,0:0:0:0:
336,72,66215,1,0,0:0:0:0:
264,96,66377,1,0,0:0:0:0:
92,156,66539,5,0,0:0:0:0:
113,203,66620,1,0,0:0:0:0:
154,235,66702,1,0,0:0:0:0:
200,259,66783,1,0,0:0:0:0:
251,270,66864,1,0,0:0:0:0:
295,273,66945,2,0,P|383:248|445:187,1,150
440,178,67350,6,0,P|432:80|360:72,1,150
294,81,67999,2,0,L|251:162,1,75
150,162,68323,2,0,L|190:99,1,75
263,157,68647,2,0,L|329:233,1,75
243,274,68972,2,0,L|159:315,1,75
80,286,69296,2,0,L|83:184,1,75
119,81,69620,5,0,0:0:0:0:
238,172,69783,1,0,0:0:0:0:
384,140,69945,1,0,0:0:0:0:
430,282,70107,1,0,0:0:0:0:
320,179,70269,1,0,0:0:0:0:
214,285,70431,1,0,0:0:0:0:
102,185,70593,1,0,0:0:0:0:
216,86,70756,1,0,0:0:0:0:
415,130,70918,5,0,0:0:0:0:
396,174,70999,1,0,0:0:0:0:
371,216,71080,1,0,0:0:0:0:
341,254,71161,1,0,0:0:0:0:
297,275,71242,1,0,0:0:0:0:
249,284,71323,1,0,0:0:0:0:
214,285,71404,1,0,0:0:0:0:
256,192,71485,12,0,72053,0:0:0:0:
200,116,72458,5,0,0:0:0:0:
81,165,72782,2,0,L|59:227,2,37.5
81,165,73188,1,0,0:0:0:0:
256,192,73512,6,0,L|320:112,2,75
104,248,74161,5,0,0:0:0:0:
272,320,74323,1,0,0:0:0:0:
416,208,74485,1,0,0:0:0:0:
416,208,74647,1,0,0:0:0:0:
368,64,74810,5,0,0:0:0:0:
272,160,74973,1,0,0:0:0:0:
176,64,75135,1,0,0:0:0:0:
176,64,75296,1,0,0:0:0:0:
72,104,75458,5,0,0:0:0:0:
80,152,75539,1,0,0:0:0:0:
96,200,75620,1,0,0:0:0:0:
128,240,75701,1,0,0:0:0:0:
168,264,75783,1,0,0:0:0:0:
216,272,75864,1,0,0:0:0:0:
264,272,75945,1,0,0:0:0:0:
312,264,76026,1,0,0:0:0:0:
352,248,76188,6,0,P|400:208|400:128,1,112.5
256,192,76512,12,0,77242,0:0:0:0:
128,96,77729,6,0,P|88:128|96:152,1,75
112,176,78053,6,0,L|168:240,1,75
256,216,78377,2,0,L|216:312,1,75
328,280,78701,2,0,L|432:320,1,75
416,208,79026,2,0,L|392:128,1,75
304,96,79350,2,0,L|288:176,1,75
48,80,79674,5,0,0:0:0:0:
184,192,79836,1,0,0:0:0:0:
168,64,79998,1,0,0:0:0:0:
88,232,80160,1,0,0:0:0:0:
280,288,80323,5,0,0:0:0:0:
280,288,80404,1,0,0:0:0:0:
280,288,80485,1,0,0:0:0:0:
392,256,80647,2,0,P|424:224|416:168,1,75
424,104,80972,2,0,B|352:48|352:48|296:80,1,150
160,128,81458,6,0,L|96:72,2,75
232,192,81945,1,0,0:0:0:0:
304,256,82107,1,0,0:0:0:0:
376,192,82269,1,0,0:0:0:0:
344,104,82431,1,0,0:0:0:0:
232,104,82593,5,0,0:0:0:0:
232,104,82674,1,0,0:0:0:0:
232,104,82756,1,0,0:0:0:0:
136,176,82918,5,0,0:0:0:0:
136,176,82999,1,0,0:0:0:0:
136,176,83080,1,0,0:0:0:0:
192,272,83242,6,0,L|256:336,1,75
368,304,83566,2,0,L|416:240,1,75
376,120,83891,2,0,L|304:72,1,75
184,80,84215,2,0,L|104:128,1,75
104,248,84539,2,0,L|104:328,1,75
224,288,84864,2,0,L|288:224,1,75
368,280,85188,5,0,0:0:0:0:
448,208,85350,1,0,0:0:0:0:
352,168,85512,1,0,0:0:0:0:
392,72,85674,1,0,0:0:0:0:
256,144,85837,5,0,0:0:0:0:
136,56,85999,1,0,0:0:0:0:
136,208,86161,1,0,0:0:0:0:
264,280,86323,1,0,0:0:0:0:
352,168,86485,1,0,0:0:0:0:
200,272,86647,5,0,0:0:0:0:
160,144,86810,1,0,0:0:0:0:
376,256,86972,1,0,0:0:0:0:
312,80,87134,1,0,0:0:0:0:
264,280,87296,1,0,0:0:0:0:
232,104,87458,1,0,0:0:0:0:
392,160,88026,6,0,L|432:104,2,37.5
296,120,88350,1,0,0:0:0:0:
296,120,88431,1,0,0:0:0:0:
296,120,88512,1,0,0:0:0:0:
88,72,88756,6,0,P|56:96|64:152,1,75
136,144,89080,2,0,P|152:184|120:216,1,75
80,280,89404,2,0,P|112:320|160:312,1,75
224,272,89729,5,0,0:0:0:0:
312,296,89891,1,0,0:0:0:0:
384,240,90053,1,0,0:0:0:0:
312,192,90215,1,0,0:0:0:0:
376,128,90377,1,0,0:0:0:0:
296,88,90539,1,0,0:0:0:0:
176,72,90701,6,0,P|104:64|80:128,1,150
136,216,91350,2,0,P|160:280|232:264,1,150
336,192,91999,2,0,B|384:240|360:328|344:344,1,150
192,280,92647,2,0,L|104:328,2,75
128,208,93134,5,0,0:0:0:0:
128,112,93296,1,0,0:0:0:0:
208,64,93458,1,0,0:0:0:0:
328,96,93620,1,0,0:0:0:0:
328,96,93701,1,0,0:0:0:0:
328,96,93783,1,0,0:0:0:0:
328,96,93864,1,0,0:0:0:0:
408,200,94269,6,0,L|320:328,1,150
256,272,94918,2,0,L|168:136,1,150
248,112,95566,2,0,L|336:240,1,150
332,235,96215,1,0,0:0:0:0:
88,136,96539,5,0,0:0:0:0:
200,80,96701,1,0,0:0:0:0:
328,80,96864,1,0,0:0:0:0:
440,144,97026,1,0,0:0:0:0:
416,272,97188,1,0,0:0:0:0:
304,208,97350,1,0,0:0:0:0:
200,280,97512,1,0,0:0:0:0:
120,224,97674,5,0,0:0:0:0:
104,192,97756,1,0,0:0:0:0:
104,152,97837,1,0,0:0:0:0:
120,120,97918,1,0,0:0:0:0:
152,104,97999,1,0,0:0:0:0:
192,96,98080,1,0,0:0:0:0:
232,96,98161,1,0,0:0:0:0:
272,96,98242,1,0,0:0:0:0:
312,96,98323,1,0,0:0:0:0:
352,88,98404,1,0,0:0:0:0:
376,64,98485,1,0,0:0:0:0:
424,64,98566,6,0,P|440:152|400:240,1,187.5
400,238,99134,1,0,0:0:0:0:
256,192,99377,12,0,103918,0:0:0:0:
