osu file format v13

[General]
AudioFilename: Sagara Kokoro-Hoshizora no Ima [myfreemp3.eu].mp3
AudioLeadIn: 0
PreviewTime: 52247
Countdown: 0
SampleSet: Soft
StackLeniency: 0.7
Mode: 3
LetterboxInBreaks: 0
SpecialStyle: 0
WidescreenStoryboard: 1

[Editor]
Bookmarks: 80788
DistanceSpacing: 1.3
BeatDivisor: 4
GridSize: 4
TimelineZoom: 1

[Metadata]
Title:Hoshizora no Ima
TitleUnicode:星空のいま
Artist:Sagara Kokoro
ArtistUnicode:相良心
Creator:1164530434
Version:Drum track
Source:Hoshizora e Kakaru Hashi AA
Tags:gal game ed bridge to the Starry night 星空へ架かる橋 feng
BeatmapID:451191
BeatmapSetID:184238

[Difficulty]
HPDrainRate:8
CircleSize:7
OverallDifficulty:8
ApproachRate:5
SliderMultiplier:1.4
SliderTickRate:1

[Events]
//Background and Video events
0,0,"EV_SEI_N_01_a.jpg",0,0
//Break Periods
2,62826,66615
2,166610,175588
//Storyboard Layer 0 (Background)
//Storyboard Layer 1 (Fail)
//Storyboard Layer 2 (Pass)
//Storyboard Layer 3 (Foreground)
//Storyboard Sound Samples
//Background Colour Transformations
3,100,163,162,255

[TimingPoints]
356,324.324324324324,4,2,0,40,1,0
9761,-100,4,1,1,60,0,0
31491,-100,4,2,0,70,0,1
50950,-100,4,2,0,70,0,0
52247,-100,4,2,0,70,0,1
61977,-100,4,1,1,70,0,1
62626,-100,4,2,0,40,0,0
72193,-100,4,2,0,40,0,0
80869,-100,4,3,2,70,0,0
82004,-100,4,2,0,40,0,0
93761,-100,4,2,0,70,0,1
114518,-100,4,2,0,40,0,0
123518,-100,4,2,0,50,0,0
124004,-100,4,2,0,55,0,0
124491,-100,4,2,0,60,0,0
124815,-100,4,2,0,60,0,0
187166,-100,4,2,0,70,0,1
206626,-100,4,2,0,70,0,0
207923,-100,4,2,1,70,0,1
216355,-100,4,1,1,70,0,1
217004,-100,4,1,1,70,0,1
217085,-100,4,1,1,70,0,1
218626,-100,4,2,0,70,0,1
226085,-100,4,2,0,40,0,1
226410,-100,4,2,0,45,0,1
226734,-100,4,2,0,50,0,1
227058,-100,4,2,0,55,0,1
227383,-100,4,2,0,60,0,1
227707,-100,4,2,0,65,0,1
228031,-100,4,2,0,70,0,1
228355,-100,4,2,0,70,0,1
229004,-100,4,2,0,70,0,0

[HitObjects]
256,192,10247,5,0,0:0:0:70:bassdrum.wav
36,192,10247,1,0,0:0:0:70:bassdrum.wav
475,192,10247,1,0,0:0:0:40:tom02.wav
475,192,10572,1,0,0:0:0:70:bassdrum.wav
402,192,10653,1,0,0:0:0:70:bassdrum.wav
182,192,10734,1,0,0:0:0:70:bassdrum.wav
36,192,10734,1,0,0:0:0:70:cymbol.wav
329,192,10734,1,0,0:0:0:70:bassdrum.wav
329,192,11058,1,6,0:0:0:0:
109,192,11058,1,2,0:0:0:0:
402,192,11383,1,6,0:0:0:0:
182,192,11383,1,2,0:0:0:0:
329,192,11707,1,6,0:0:0:0:
109,192,11707,1,2,0:0:0:0:
402,192,12031,1,6,0:0:0:0:
182,192,12031,1,2,0:0:0:0:
256,192,12355,1,2,0:0:0:0:
475,192,12355,1,6,0:0:0:0:
36,192,12680,1,2,0:0:0:0:
329,192,12680,1,6,0:0:0:0:
109,192,13004,1,2,0:0:0:0:
256,192,13004,1,6,0:0:0:0:
475,192,13166,1,0,0:0:0:70:snare.wav
329,192,13166,1,0,0:0:0:40:hihat02.wav
402,192,13328,1,6,0:0:0:0:
36,192,13328,1,0,0:0:0:70:bassdrum.wav
109,192,13653,1,2,0:0:0:0:
475,192,13653,1,6,0:0:0:0:
402,192,13977,1,6,0:0:0:0:
182,192,13977,1,2,0:0:0:0:
109,192,14301,1,2,0:0:0:0:
475,192,14301,1,6,0:0:0:0:
402,192,14626,1,6,0:0:0:0:
109,192,14626,1,2,0:0:0:0:
36,192,14950,1,0,0:0:0:70:bassdrum.wav
475,192,14950,1,0,0:0:0:70:bassdrum.wav
109,192,15112,1,0,0:0:0:40:tom01.wav
182,192,15112,1,0,0:0:0:70:bassdrum.wav
329,192,15274,1,2,0:0:0:0:
475,192,15274,1,2,0:0:0:0:
109,192,15437,1,2,0:0:0:0:
36,192,15437,1,2,0:0:0:0:
256,192,15599,1,0,0:0:0:40:tom02.wav
402,192,15599,1,2,0:0:0:0:
36,192,15761,1,2,0:0:0:0:
182,192,15842,1,2,0:0:0:0:
475,192,15923,1,2,0:0:0:0:
329,192,15923,1,0,0:0:0:70:cymbol.wav
402,192,16247,1,2,0:0:0:70:hihat.wav
109,192,16247,1,2,0:0:0:0:
182,192,16572,1,2,0:0:0:0:
329,192,16572,1,2,0:0:0:70:hihat.wav
475,192,16896,1,2,0:0:0:70:hihat.wav
109,192,16896,1,2,0:0:0:0:
256,192,17220,1,2,0:0:0:0:
475,192,17220,1,2,0:0:0:70:hihat.wav
475,192,17545,1,2,0:0:0:70:hihat.wav
109,192,17545,1,2,0:0:0:0:
36,192,17869,1,2,0:0:0:0:
402,192,17869,1,2,0:0:0:70:hihat.wav
402,192,18193,1,2,0:0:0:0:
109,192,18193,1,2,0:0:0:0:
182,192,18355,1,0,0:0:0:50:hihat02.wav
329,192,18355,1,0,0:0:0:70:snare.wav
36,192,18518,1,2,0:0:0:0:
402,192,18518,1,0,0:0:0:70:hihat.wav
256,192,18842,1,0,0:0:0:70:hihat.wav
109,192,18842,1,2,0:0:0:0:
36,192,19166,1,2,0:0:0:0:
402,192,19166,1,0,0:0:0:70:hihat.wav
256,192,19491,1,0,0:0:0:40:hihat01.wav
109,192,19491,1,2,0:0:0:0:
475,192,19653,1,0,0:0:0:70:snare.wav
329,192,19734,1,0,0:0:0:70:snare.wav
182,192,19815,1,0,0:0:0:70:bassdrum.wav
36,192,19815,1,0,0:0:0:70:cymbol.wav
329,192,20139,1,0,0:0:0:50:snare.wav
475,192,20139,1,0,0:0:0:50:snare.wav
109,192,20383,1,0,0:0:0:70:bassdrum.wav
256,192,20626,1,0,0:0:0:50:tom01.wav
329,192,20788,1,0,0:0:0:50:tom01.wav
402,192,20950,1,0,0:0:0:50:tom02.wav
182,192,21112,1,0,0:0:0:70:cymbol.wav
36,192,21112,1,0,0:0:0:70:bassdrum.wav
475,192,21112,1,0,0:0:0:70:cymbol.wav
329,192,21437,1,6,0:0:0:0:
109,192,21437,1,2,0:0:0:0:
402,192,21680,1,0,0:0:0:70:hihat.wav
475,192,21761,1,6,0:0:0:0:
182,192,21761,1,2,0:0:0:0:
36,192,22085,1,2,0:0:0:0:
182,192,22085,1,6,0:0:0:0:
402,192,22410,1,6,0:0:0:0:
109,192,22410,1,2,0:0:0:0:
182,192,22734,1,2,0:0:0:0:
402,192,22734,1,6,0:0:0:0:
329,192,23058,1,6,0:0:0:0:
182,192,23058,1,2,0:0:0:0:
36,192,23383,1,2,0:0:0:0:
402,192,23383,1,6,0:0:0:0:
402,192,23707,1,6,0:0:0:0:
182,192,23707,1,2,0:0:0:0:
109,192,24031,1,2,0:0:0:0:
256,192,24031,1,6,0:0:0:0:
402,192,24355,1,6,0:0:0:0:
182,192,24355,1,2,0:0:0:0:
182,192,24680,1,2,0:0:0:0:
329,192,24680,1,6,0:0:0:0:
256,192,25004,1,0,0:0:0:70:hihat01.wav
182,192,25328,1,0,0:0:0:70:snare.wav
36,192,25328,1,0,0:0:0:50:bassdrum.wav
329,192,25328,1,0,0:0:0:70:snare.wav
402,192,25653,1,0,0:0:0:70:bassdrum.wav
109,192,25653,1,0,0:0:0:70:tom01.wav
329,192,25815,1,0,0:0:0:70:bassdrum.wav
182,192,25815,1,0,0:0:0:70:bassdrum.wav
36,192,25977,1,0,0:0:0:70:bassdrum.wav
475,192,25977,1,0,0:0:0:70:bassdrum.wav
402,192,26139,1,0,0:0:0:70:bassdrum.wav
109,192,26139,1,0,0:0:0:70:tom02.wav
36,192,28896,1,0,0:0:0:70:cymbol.wav
475,192,28896,1,0,0:0:0:70:cymbol.wav
256,192,28896,1,0,0:0:0:70:bassdrum.wav
109,192,29220,1,0,0:0:0:50:tom02.wav
329,192,29220,1,0,0:0:0:70:bassdrum.wav
475,192,29220,1,0,0:0:0:70:bassdrum.wav
36,192,29545,1,0,0:0:0:70:bassdrum.wav
475,192,29545,1,0,0:0:0:70:snare.wav
182,192,29707,1,0,0:0:0:50:snare.wav
329,192,29788,1,0,0:0:0:50:snare.wav
109,192,29869,1,0,0:0:0:50:snare.wav
402,192,29950,1,0,0:0:0:50:snare.wav
36,192,30031,1,0,0:0:0:50:snare.wav
475,192,30112,1,0,0:0:0:50:snare.wav
329,192,31166,1,0,0:0:0:70:bassdrum.wav
475,192,31166,1,0,0:0:0:40:tom01.wav
256,192,31491,1,0,0:0:0:70:bassdrum.wav
109,192,31491,1,0,0:0:0:70:cymbol.wav
402,192,31491,1,0,0:0:0:70:cymbol.wav
329,192,31653,1,0,0:0:0:50:hihat02.wav
36,192,31815,1,0,0:0:0:70:bassdrum.wav
182,192,31815,1,0,0:0:0:70:snare.wav
329,192,31977,1,0,0:0:0:50:hihat02.wav
402,192,32139,1,0,0:0:0:70:bassdrum.wav
109,192,32301,1,0,0:0:0:50:hihat02.wav
329,192,32464,1,0,0:0:0:70:bassdrum.wav
475,192,32464,1,0,0:0:0:70:snare.wav
182,192,32626,1,0,0:0:0:50:hihat02.wav
475,192,32788,1,0,0:0:0:70:bassdrum.wav
329,192,32950,1,0,0:0:0:50:hihat02.wav
182,192,33112,1,0,0:0:0:70:snare.wav
36,192,33112,1,0,0:0:0:70:bassdrum.wav
402,192,33274,1,0,0:0:0:50:hihat02.wav
36,192,33437,1,0,0:0:0:70:bassdrum.wav
182,192,33599,1,0,0:0:0:50:hihat02.wav
329,192,33761,1,0,0:0:0:70:bassdrum.wav
475,192,33761,1,0,0:0:0:70:snare.wav
36,192,33923,1,0,0:0:0:50:hihat02.wav
329,192,34085,1,0,0:0:0:70:bassdrum.wav
475,192,34247,1,0,0:0:0:50:hihat02.wav
109,192,34410,1,0,0:0:0:70:bassdrum.wav
256,192,34410,1,0,0:0:0:70:snare.wav
475,192,34572,1,0,0:0:0:50:hihat02.wav
36,192,34734,1,0,0:0:0:70:bassdrum.wav
182,192,34896,1,0,0:0:0:50:hihat02.wav
256,192,35058,1,0,0:0:0:70:bassdrum.wav
402,192,35058,1,0,0:0:0:70:snare.wav
329,192,35220,1,0,0:0:0:50:hihat02.wav
182,192,35383,1,0,0:0:0:70:bassdrum.wav
402,192,35545,1,0,0:0:0:50:hihat02.wav
109,192,35707,1,0,0:0:0:70:bassdrum.wav
256,192,35707,1,0,0:0:0:70:snare.wav
182,192,35869,1,0,0:0:0:50:hihat02.wav
475,192,36031,1,0,0:0:0:70:bassdrum.wav
109,192,36193,1,0,0:0:0:50:hihat02.wav
329,192,36355,1,0,0:0:0:70:bassdrum.wav
402,192,36355,1,0,0:0:0:70:snare.wav
182,192,36518,1,0,0:0:0:50:hihat02.wav
475,192,36680,1,0,0:0:0:70:bassdrum.wav
109,192,36842,1,0,0:0:0:50:hihat02.wav
182,192,37004,1,0,0:0:0:70:bassdrum.wav
36,192,37004,1,0,0:0:0:70:snare.wav
402,192,37166,1,0,0:0:0:50:hihat02.wav
256,192,37328,1,0,0:0:0:70:bassdrum.wav
109,192,37491,1,0,0:0:0:50:hihat02.wav
402,192,37653,1,0,0:0:0:70:bassdrum.wav
475,192,37653,1,0,0:0:0:70:snare.wav
182,192,37815,1,0,0:0:0:50:hihat02.wav
329,192,37977,1,0,0:0:0:70:bassdrum.wav
36,192,38139,1,0,0:0:0:50:hihat02.wav
109,192,38301,1,0,0:0:0:70:bassdrum.wav
256,192,38301,1,0,0:0:0:70:snare.wav
402,192,38464,1,0,0:0:0:50:hihat02.wav
182,192,38626,1,0,0:0:0:70:bassdrum.wav
402,192,38788,1,0,0:0:0:50:hihat02.wav
329,192,38950,1,0,0:0:0:70:bassdrum.wav
475,192,38950,1,0,0:0:0:70:snare.wav
109,192,39112,1,0,0:0:0:50:hihat02.wav
256,192,39274,1,0,0:0:0:70:bassdrum.wav
402,192,39437,1,0,0:0:0:50:hihat02.wav
36,192,39599,1,0,0:0:0:70:snare.wav
182,192,39599,1,0,0:0:0:70:bassdrum.wav
109,192,39761,1,0,0:0:0:50:hihat02.wav
402,192,39923,1,0,0:0:0:70:bassdrum.wav
36,192,40085,1,0,0:0:0:50:hihat02.wav
329,192,40247,1,0,0:0:0:70:snare.wav
182,192,40247,1,0,0:0:0:70:snare.wav
475,192,40410,1,0,0:0:0:70:snare.wav
402,192,40491,1,0,0:0:0:70:snare.wav
329,192,40572,1,0,0:0:0:50:tom02.wav
109,192,40572,1,0,0:0:0:70:bassdrum.wav
36,192,40734,1,0,0:0:0:70:bassdrum.wav
182,192,40734,1,0,0:0:0:70:hihat02.wav
475,192,40896,1,0,0:0:0:70:snare.wav
402,192,40896,1,0,0:0:0:70:cymbol.wav
182,192,41058,1,0,0:0:0:70:tom01.wav
109,192,41220,1,0,0:0:0:70:snare.wav
475,192,41301,1,0,0:0:0:70:snare.wav
329,192,41383,1,0,0:0:0:70:snare.wav
182,192,41545,1,0,0:0:0:70:snare.wav
329,192,41626,1,0,0:0:0:70:snare.wav
109,192,41707,1,0,0:0:0:70:snare.wav
402,192,41788,1,0,0:0:0:70:snare.wav
36,192,41869,1,0,0:0:0:70:bassdrum.wav
182,192,41869,1,4,0:0:0:70:cymbol.wav
329,192,42031,1,0,0:0:0:50:hihat02.wav
109,192,42193,1,0,0:0:0:70:bassdrum.wav
256,192,42193,1,0,0:0:0:70:snare.wav
402,192,42355,1,0,0:0:0:50:hihat02.wav
36,192,42518,1,0,0:0:0:70:bassdrum.wav
182,192,42680,1,0,0:0:0:50:hihat02.wav
329,192,42842,1,0,0:0:0:70:bassdrum.wav
475,192,42842,1,0,0:0:0:70:snare.wav
36,192,43004,1,0,0:0:0:50:hihat02.wav
256,192,43166,1,0,0:0:0:70:bassdrum.wav
475,192,43328,1,0,0:0:0:50:hihat02.wav
36,192,43491,1,0,0:0:0:70:bassdrum.wav
182,192,43491,1,0,0:0:0:70:snare.wav
329,192,43653,1,0,0:0:0:50:hihat02.wav
109,192,43815,1,0,0:0:0:70:bassdrum.wav
402,192,43977,1,0,0:0:0:50:hihat02.wav
182,192,44139,1,0,0:0:0:70:bassdrum.wav
36,192,44139,1,0,0:0:0:70:snare.wav
256,192,44301,1,0,0:0:0:50:hihat02.wav
109,192,44464,1,0,0:0:0:70:bassdrum.wav
402,192,44626,1,0,0:0:0:50:hihat02.wav
329,192,44788,1,0,0:0:0:70:snare.wav
182,192,44788,1,0,0:0:0:70:bassdrum.wav
475,192,44950,1,0,0:0:0:50:hihat02.wav
109,192,45112,1,0,0:0:0:70:bassdrum.wav
256,192,45274,1,0,0:0:0:50:hihat02.wav
402,192,45437,1,0,0:0:0:70:snare.wav
475,192,45437,1,0,0:0:0:70:snare.wav
182,192,45599,1,0,0:0:0:40:tom01.wav
329,192,45680,1,0,0:0:0:40:tom02.wav
36,192,45761,1,0,0:0:0:70:bassdrum.wav
475,192,45761,1,0,0:0:0:70:bassdrum.wav
109,192,45923,1,0,0:0:0:70:snare.wav
256,192,46085,1,0,0:0:0:70:snare.wav
475,192,46247,1,0,0:0:0:70:snare.wav
329,192,46328,1,0,0:0:0:70:snare.wav
109,192,46410,1,0,0:0:0:70:snare.wav
475,192,46572,1,0,0:0:0:70:snare.wav
329,192,46653,1,0,0:0:0:70:snare.wav
36,192,46734,1,0,0:0:0:70:snare.wav
182,192,46815,1,0,0:0:0:70:tom01.wav
475,192,46896,1,0,0:0:0:50:tom01.wav
329,192,46977,1,0,0:0:0:50:tom02.wav
182,192,47058,1,0,0:0:0:70:cymbol.wav
36,192,47058,1,0,0:0:0:70:bassdrum.wav
256,192,47058,1,0,0:0:0:70:cymbol.wav
256,192,47383,1,0,0:0:0:70:bassdrum.wav
109,192,47545,1,0,0:0:0:70:bassdrum.wav
402,192,47545,1,0,0:0:0:30:snare.wav
329,192,47707,1,0,0:0:0:70:bassdrum.wav
36,192,47869,1,0,0:0:0:70:bassdrum.wav
475,192,47869,1,0,0:0:0:40:snare.wav
329,192,48031,1,0,0:0:0:70:bassdrum.wav
182,192,48193,1,0,0:0:0:70:bassdrum.wav
402,192,48193,1,0,0:0:0:50:snare.wav
36,192,48355,1,0,0:0:0:70:bassdrum.wav
256,192,48518,1,0,0:0:0:70:bassdrum.wav
109,192,48518,1,0,0:0:0:60:snare.wav
329,192,48680,1,0,0:0:0:70:bassdrum.wav
109,192,48842,1,0,0:0:0:70:bassdrum.wav
402,192,48842,1,0,0:0:0:70:snare.wav
182,192,49004,1,0,0:0:0:70:bassdrum.wav
329,192,49166,1,0,0:0:0:70:bassdrum.wav
475,192,49166,1,0,0:0:0:70:snare.wav
256,192,49328,1,0,0:0:0:70:bassdrum.wav
182,192,49491,1,0,0:0:0:70:bassdrum.wav
329,192,49491,1,0,0:0:0:70:snare.wav
109,192,49653,1,0,0:0:0:70:bassdrum.wav
475,192,49815,1,0,0:0:0:70:snare.wav
402,192,49815,1,0,0:0:0:70:bassdrum.wav
182,192,49977,1,0,0:0:0:70:bassdrum.wav
402,192,50139,1,0,0:0:0:40:tom02.wav
475,192,50139,1,0,0:0:0:40:snare.wav
36,192,50301,1,0,0:0:0:70:bassdrum.wav
109,192,50301,1,0,0:0:0:40:tom02.wav
329,192,50301,1,0,0:0:0:50:snare.wav
402,192,50464,1,0,0:0:0:40:tom02.wav
475,192,50464,1,0,0:0:0:60:snare.wav
109,192,50626,1,0,0:0:0:40:tom02.wav
182,192,50626,1,0,0:0:0:70:snare.wav
256,192,50626,1,0,0:0:0:70:bassdrum.wav
402,192,50788,1,0,0:0:0:40:tom02.wav
475,192,50788,1,0,0:0:0:70:snare.wav
36,192,50950,1,0,0:0:0:70:bassdrum.wav
475,192,50950,1,0,0:0:0:70:snare.wav
402,192,50950,1,0,0:0:0:40:tom02.wav
109,192,51923,1,0,0:0:0:70:snare.wav
402,192,52004,1,0,0:0:0:70:snare.wav
182,192,52085,1,0,0:0:0:70:snare.wav
329,192,52166,1,0,0:0:0:70:snare.wav
475,192,52247,1,4,0:0:0:70:cymbol.wav
36,192,52247,1,2,0:0:0:70:bassdrum.wav
256,192,52572,1,0,0:0:0:70:snare.wav
109,192,52572,1,2,0:0:0:70:hihat01.wav
402,192,52572,1,2,0:0:0:0:
402,192,52896,1,0,0:0:0:70:bassdrum.wav
36,192,52896,1,2,0:0:0:70:hihat01.wav
182,192,53058,1,0,0:0:0:70:bassdrum.wav
329,192,53220,1,0,0:0:0:70:snare.wav
475,192,53220,1,2,0:0:0:0:
109,192,53220,1,2,0:0:0:70:hihat01.wav
256,192,53545,1,0,0:0:0:70:bassdrum.wav
109,192,53545,1,2,0:0:0:70:hihat01.wav
329,192,53707,1,0,0:0:0:70:bassdrum.wav
182,192,53869,1,0,0:0:0:70:snare.wav
475,192,53869,1,2,0:0:0:0:
36,192,53869,1,2,0:0:0:70:hihat01.wav
329,192,54193,1,0,0:0:0:70:bassdrum.wav
109,192,54193,1,2,0:0:0:70:hihat01.wav
256,192,54355,1,0,0:0:0:70:bassdrum.wav
329,192,54518,1,0,0:0:0:70:snare.wav
475,192,54518,1,2,0:0:0:0:
182,192,54518,1,2,0:0:0:70:hihat01.wav
329,192,54842,1,0,0:0:0:70:bassdrum.wav
109,192,54842,1,0,0:0:0:70:hihat01.wav
475,192,55166,1,2,0:0:0:0:
329,192,55166,1,0,0:0:0:70:snare.wav
36,192,55166,1,2,0:0:0:70:hihat01.wav
402,192,55491,1,0,0:0:0:70:bassdrum.wav
109,192,55491,1,2,0:0:0:70:hihat01.wav
182,192,55653,1,0,0:0:0:70:bassdrum.wav
36,192,55815,1,0,0:0:0:70:snare.wav
475,192,55815,1,2,0:0:0:0:
329,192,55815,1,2,0:0:0:70:hihat01.wav
329,192,56139,1,2,0:0:0:70:bassdrum.wav
109,192,56139,1,0,0:0:0:70:hihat01.wav
475,192,56301,1,0,0:0:0:70:bassdrum.wav
402,192,56464,1,2,0:0:0:0:
256,192,56464,1,0,0:0:0:70:snare.wav
109,192,56464,1,2,0:0:0:70:hihat01.wav
36,192,56626,1,0,0:0:0:40:snare.wav
182,192,56707,1,0,0:0:0:70:snare.wav
475,192,56788,1,2,0:0:0:70:snare.wav
329,192,56788,1,2,0:0:0:70:hihat01.wav
256,192,56950,1,0,0:0:0:70:bassdrum.wav
182,192,57112,1,0,0:0:0:70:snare.wav
402,192,57112,1,2,0:0:0:0:
36,192,57112,1,2,0:0:0:70:hihat01.wav
475,192,57274,1,0,0:0:0:40:snare.wav
329,192,57355,1,0,0:0:0:70:snare.wav
36,192,57437,1,0,0:0:0:70:cymbol.wav
109,192,57437,1,0,0:0:0:70:bassdrum.wav
329,192,57761,1,0,0:0:0:70:snare.wav
475,192,57761,1,2,0:0:0:0:
36,192,57761,1,2,0:0:0:70:hihat01.wav
402,192,58085,1,0,0:0:0:70:bassdrum.wav
182,192,58085,1,2,0:0:0:70:hihat01.wav
256,192,58247,1,0,0:0:0:70:bassdrum.wav
329,192,58410,1,0,0:0:0:70:snare.wav
475,192,58410,1,2,0:0:0:0:
36,192,58410,1,2,0:0:0:70:hihat01.wav
402,192,58734,1,0,0:0:0:70:bassdrum.wav
109,192,58734,1,2,0:0:0:70:hihat01.wav
329,192,58896,1,0,0:0:0:70:bassdrum.wav
475,192,59058,1,2,0:0:0:0:
256,192,59058,1,0,0:0:0:70:snare.wav
36,192,59058,1,2,0:0:0:70:hihat01.wav
329,192,59383,1,0,0:0:0:70:bassdrum.wav
109,192,59383,1,2,0:0:0:70:hihat01.wav
182,192,59545,1,0,0:0:0:70:bassdrum.wav
256,192,59707,1,0,0:0:0:70:snare.wav
402,192,59707,1,2,0:0:0:0:
36,192,59707,1,2,0:0:0:70:hihat01.wav
329,192,60031,1,0,0:0:0:70:bassdrum.wav
182,192,60031,1,2,0:0:0:70:hihat01.wav
402,192,60355,1,2,0:0:0:0:
256,192,60355,1,0,0:0:0:70:snare.wav
109,192,60355,1,2,0:0:0:70:hihat01.wav
402,192,60680,1,0,0:0:0:70:bassdrum.wav
182,192,60680,1,0,0:0:0:70:hihat01.wav
256,192,60842,1,0,0:0:0:70:bassdrum.wav
475,192,61004,1,2,0:0:0:0:
329,192,61004,1,0,0:0:0:70:snare.wav
36,192,61004,1,0,0:0:0:70:hihat01.wav
475,192,61328,1,0,0:0:0:50:tom02.wav
36,192,61328,1,4,0:0:0:70:bassdrum.wav
256,192,61328,1,0,0:0:0:70:bassdrum.wav
329,192,61491,1,0,0:0:0:70:bassdrum.wav
182,192,61491,1,0,0:0:0:70:snare.wav
36,192,61653,1,0,0:0:0:70:snare.wav
402,192,61653,1,0,0:0:0:70:bassdrum.wav
109,192,61815,1,0,0:0:0:70:snare.wav
402,192,61815,1,0,0:0:0:70:bassdrum.wav
329,192,61977,1,0,0:0:0:70:snare.wav
182,192,61977,1,0,0:0:0:50:snare.wav
475,192,61977,1,0,0:0:0:70:bassdrum.wav
109,192,62139,1,0,0:0:0:40:snare.wav
182,192,62220,1,0,0:0:0:50:snare.wav
256,192,62301,1,10,0:0:0:0:
475,192,62383,1,0,0:0:0:70:snare.wav
402,192,62464,1,0,0:0:0:40:tom01.wav
329,192,62545,1,0,0:0:0:40:tom02.wav
182,192,62626,1,0,0:0:0:70:bassdrum.wav
36,192,62626,1,0,0:0:0:70:cymbol.wav
256,192,67815,5,0,0:0:0:50:ride.wav
109,192,68301,1,0,0:0:0:10:ride.wav
402,192,68464,1,0,0:0:0:10:ride.wav
36,192,68626,1,0,0:0:0:40:ride.wav
329,192,68788,1,0,0:0:0:40:ride.wav
182,192,69274,1,0,0:0:0:10:ride.wav
329,192,69437,1,0,0:0:0:10:ride.wav
109,192,69599,1,0,0:0:0:30:ride.wav
402,192,69761,1,0,0:0:0:50:ride.wav
109,192,70085,1,0,0:0:0:30:ride.wav
475,192,70247,1,0,0:0:0:10:ride.wav
402,192,70328,1,0,0:0:0:20:ride.wav
329,192,70410,1,0,0:0:0:30:ride.wav
109,192,70734,1,0,0:0:0:10:ride.wav
402,192,70896,1,0,0:0:0:10:ride.wav
256,192,71058,1,0,0:0:0:30:ride.wav
475,192,71220,1,0,0:0:0:30:ride.wav
36,192,71383,1,0,0:0:0:50:ride.wav
329,192,71869,1,0,0:0:0:50:ride.wav
182,192,72193,1,0,0:0:0:50:tom01.wav
329,192,72193,1,0,0:0:0:40:tom01.wav
402,192,72518,1,0,0:0:0:40:tom02.wav
109,192,72518,1,0,0:0:0:70:bassdrum.wav
36,192,72842,1,0,0:0:0:70:bassdrum.wav
182,192,72923,1,0,0:0:0:70:bassdrum.wav
329,192,73004,1,4,0:0:0:70:cymbol.wav
475,192,73004,1,0,0:0:0:70:cymbol.wav
109,192,73328,1,0,0:0:0:70:bassdrum.wav
402,192,73328,1,0,0:0:0:70:hihat.wav
256,192,73653,1,0,0:0:0:70:hihat.wav
36,192,73653,1,0,0:0:0:70:bassdrum.wav
182,192,73977,1,0,0:0:0:70:bassdrum.wav
402,192,73977,1,0,0:0:0:70:hihat.wav
256,192,74301,1,0,0:0:0:70:hihat.wav
109,192,74301,1,0,0:0:0:70:bassdrum.wav
109,192,74626,1,0,0:0:0:70:bassdrum.wav
329,192,74626,1,0,0:0:0:70:hihat.wav
182,192,74950,1,0,0:0:0:50:bassdrum.wav
402,192,74950,1,0,0:0:0:70:hihat.wav
402,192,75274,1,0,0:0:0:70:hihat.wav
109,192,75274,1,0,0:0:0:50:bassdrum.wav
256,192,75437,1,0,0:0:0:70:bassdrum.wav
182,192,75518,1,0,0:0:0:70:snare.wav
475,192,75599,1,0,0:0:0:70:hihat.wav
36,192,75599,1,0,0:0:0:70:bassdrum.wav
182,192,75923,1,0,0:0:0:70:bassdrum.wav
329,192,75923,1,0,0:0:0:70:hihat.wav
109,192,76247,1,0,0:0:0:70:bassdrum.wav
402,192,76247,1,0,0:0:0:70:hihat.wav
182,192,76572,1,0,0:0:0:70:bassdrum.wav
475,192,76572,1,0,0:0:0:70:hihat.wav
329,192,76896,1,0,0:0:0:70:hihat.wav
36,192,76896,1,0,0:0:0:70:bassdrum.wav
182,192,77220,1,0,0:0:0:70:hihat.wav
109,192,77220,1,0,0:0:0:70:bassdrum.wav
475,192,77383,1,0,0:0:0:70:snare.wav
329,192,77383,1,0,0:0:0:70:hihat02.wav
256,192,77383,1,0,0:0:0:40:snare.wav
182,192,77545,1,0,0:0:0:70:hihat.wav
109,192,77545,1,0,0:0:0:70:bassdrum.wav
329,192,77707,1,0,0:0:0:70:hihat02.wav
475,192,77707,1,0,0:0:0:70:snare.wav
256,192,77707,1,0,0:0:0:40:snare.wav
475,192,77869,1,0,0:0:0:70:bassdrum.wav
36,192,78031,1,0,0:0:0:50:tom01.wav
182,192,78112,1,0,0:0:0:40:tom02.wav
475,192,78193,1,0,0:0:0:70:bassdrum.wav
329,192,78193,1,0,0:0:0:70:hihat.wav
36,192,78518,1,0,0:0:0:70:bassdrum.wav
329,192,78518,1,0,0:0:0:70:hihat.wav
402,192,78842,1,0,0:0:0:70:hihat.wav
182,192,78842,1,0,0:0:0:70:bassdrum.wav
329,192,79166,1,0,0:0:0:70:hihat.wav
109,192,79166,1,0,0:0:0:70:bassdrum.wav
36,192,79491,1,0,0:0:0:70:bassdrum.wav
329,192,79491,1,0,0:0:0:70:hihat.wav
109,192,79815,1,0,0:0:0:70:bassdrum.wav
402,192,79815,1,0,0:0:0:70:hihat.wav
329,192,80139,1,0,0:0:0:70:hihat.wav
182,192,80139,1,0,0:0:0:70:bassdrum.wav
329,192,80464,1,0,0:0:0:70:hihat.wav
36,192,80464,1,0,0:0:0:70:bassdrum.wav
182,192,80626,1,0,0:0:0:50:tom01.wav
329,192,80707,1,0,0:0:0:50:tom02.wav
36,192,80788,1,0,0:0:0:70:bassdrum.wav
475,192,80788,1,0,0:0:0:50:hihat01.wav
109,192,81112,1,0,0:0:0:70:bassdrum.wav
329,192,81274,1,0,0:0:0:30:snare.wav
475,192,81274,1,0,0:0:0:30:tom02.wav
36,192,81437,1,0,0:0:0:40:tom02.wav
182,192,81437,1,10,0:0:0:0:
402,192,81599,1,0,0:0:0:40:tom02.wav
109,192,81599,1,0,0:0:0:50:snare.wav
329,192,81761,1,0,0:0:0:40:tom02.wav
182,192,81761,1,10,0:0:0:0:
109,192,81923,1,0,0:0:0:70:snare.wav
402,192,81923,1,0,0:0:0:40:tom02.wav
36,192,82085,1,0,0:0:0:70:bassdrum.wav
256,192,82085,1,4,0:0:0:70:cymbol.wav
475,192,82085,1,0,0:0:0:70:snare.wav
182,192,82247,1,0,0:0:0:70:snare.wav
329,192,82328,1,0,0:0:0:70:snare.wav
475,192,82410,1,0,0:0:0:70:snare.wav
329,192,82572,1,0,0:0:0:70:snare.wav
182,192,82653,1,0,0:0:0:70:snare.wav
36,192,82734,1,0,0:0:0:70:snare.wav
475,192,82896,1,0,0:0:0:70:snare.wav
182,192,82977,1,0,0:0:0:70:snare.wav
329,192,83058,1,0,0:0:0:70:snare.wav
109,192,83139,1,0,0:0:0:70:snare.wav
402,192,83220,1,0,0:0:0:70:snare.wav
182,192,83301,1,0,0:0:0:70:snare.wav
475,192,83383,1,0,0:0:0:70:cymbol.wav
36,192,83383,1,0,0:0:0:70:cymbol.wav
402,192,83707,1,0,0:0:0:70:ride.wav
182,192,84031,1,0,0:0:0:35:ride.wav
36,192,84031,1,0,0:0:0:70:bassdrum.wav
402,192,84193,1,0,0:0:0:70:bassdrum.wav
109,192,84355,1,0,0:0:0:70:ride.wav
109,192,84680,1,0,0:0:0:70:bassdrum.wav
256,192,84680,1,0,0:0:0:35:ride.wav
182,192,84842,1,0,0:0:0:70:bassdrum.wav
402,192,85004,1,0,0:0:0:70:ride.wav
182,192,85328,1,0,0:0:0:70:bassdrum.wav
36,192,85328,1,0,0:0:0:35:ride.wav
475,192,85491,1,0,0:0:0:70:bassdrum.wav
36,192,85653,1,0,0:0:0:70:ride.wav
402,192,85977,1,0,0:0:0:70:bassdrum.wav
256,192,85977,1,0,0:0:0:35:ride.wav
36,192,86301,1,0,0:0:0:70:ride.wav
329,192,86626,1,0,0:0:0:70:bassdrum.wav
182,192,86626,1,0,0:0:0:35:ride.wav
402,192,86788,1,0,0:0:0:70:bassdrum.wav
36,192,86950,1,0,0:0:0:70:ride.wav
475,192,87274,1,0,0:0:0:70:bassdrum.wav
402,192,87274,1,0,0:0:0:35:ride.wav
109,192,87437,1,0,0:0:0:70:bassdrum.wav
182,192,87599,1,0,0:0:0:70:hihat01.wav
329,192,87599,1,0,0:0:0:70:snare.wav
36,192,87923,1,0,0:0:0:70:hihat01.wav
475,192,87923,1,0,0:0:0:70:snare.wav
182,192,88139,1,0,0:0:0:30:snare.wav
329,192,88247,1,0,0:0:0:30:tom01.wav
109,192,88355,1,0,0:0:0:40:tom02.wav
402,192,88464,1,0,0:0:0:50:tom02.wav
182,192,88572,1,0,0:0:0:70:cymbol.wav
36,192,88572,1,0,0:0:0:70:cymbol.wav
329,192,89058,1,0,0:0:0:70:bassdrum.wav
109,192,89220,1,0,0:0:0:40:clap.wav
475,192,89383,1,0,0:0:0:70:bassdrum.wav
402,192,89869,1,0,0:0:0:70:bassdrum.wav
182,192,90031,1,8,0:0:0:20:clap.wav
329,192,90193,1,8,0:0:0:40:clap.wav
36,192,90355,1,0,0:0:0:70:bassdrum.wav
256,192,90518,1,0,0:0:0:40:clap.wav
402,192,90680,1,0,0:0:0:70:bassdrum.wav
109,192,90680,1,0,0:0:0:70:bassdrum.wav
329,192,90842,1,0,0:0:0:70:snare.wav
475,192,90842,1,0,0:0:0:70:snare.wav
36,192,90842,1,0,0:0:0:50:tom02.wav
109,192,91166,1,0,0:0:0:70:cymbol.wav
329,192,91166,1,0,0:0:0:70:bassdrum.wav
475,192,91166,1,0,0:0:0:70:bassdrum.wav
182,192,91491,1,0,0:0:0:70:bassdrum.wav
36,192,91491,1,0,0:0:0:70:bassdrum.wav
329,192,91653,1,0,0:0:0:20:tom02.wav
475,192,91653,1,0,0:0:0:30:snare.wav
109,192,91815,1,0,0:0:0:70:bassdrum.wav
329,192,91815,1,0,0:0:0:30:tom02.wav
475,192,91815,1,0,0:0:0:40:snare.wav
329,192,91977,1,0,0:0:0:40:tom02.wav
475,192,91977,1,0,0:0:0:50:snare.wav
109,192,92139,1,0,0:0:0:70:bassdrum.wav
329,192,92139,1,0,0:0:0:40:tom02.wav
475,192,92139,1,0,0:0:0:60:snare.wav
329,192,92301,1,0,0:0:0:40:tom02.wav
475,192,92301,1,0,0:0:0:70:snare.wav
182,192,92464,1,0,0:0:0:70:bassdrum.wav
36,192,92464,1,0,0:0:0:70:bassdrum.wav
402,192,92626,1,0,0:0:0:50:hihat02.wav
256,192,92626,1,0,0:0:0:70:snare.wav
36,192,92788,1,0,0:0:0:70:snare.wav
109,192,92788,1,0,0:0:0:50:hihat02.wav
256,192,92950,1,0,0:0:0:70:bassdrum.wav
182,192,93112,1,0,0:0:0:70:bassdrum.wav
329,192,93112,1,0,0:0:0:70:snare.wav
475,192,93274,1,0,0:0:0:70:snare.wav
329,192,93355,1,0,0:0:0:70:snare.wav
36,192,93437,1,0,0:0:0:70:snare.wav
182,192,93518,1,0,0:0:0:70:snare.wav
475,192,93599,1,0,0:0:0:40:tom01.wav
329,192,93680,1,0,0:0:0:40:tom02.wav
182,192,93761,1,4,0:0:0:70:bassdrum.wav
256,192,93761,1,4,0:0:0:70:cymbol.wav
36,192,93761,1,0,0:0:0:70:cymbol.wav
109,192,93923,1,0,0:0:0:50:hihat02.wav
329,192,94085,1,0,0:0:0:70:bassdrum.wav
475,192,94085,1,0,0:0:0:70:snare.wav
182,192,94247,1,0,0:0:0:50:hihat02.wav
402,192,94410,1,0,0:0:0:70:bassdrum.wav
36,192,94572,1,0,0:0:0:50:hihat02.wav
256,192,94734,1,0,0:0:0:70:bassdrum.wav
402,192,94734,1,0,0:0:0:70:snare.wav
109,192,94896,1,0,0:0:0:50:hihat02.wav
402,192,95058,1,0,0:0:0:70:bassdrum.wav
329,192,95220,1,0,0:0:0:50:hihat02.wav
256,192,95383,1,0,0:0:0:70:snare.wav
109,192,95383,1,0,0:0:0:70:bassdrum.wav
402,192,95545,1,0,0:0:0:50:hihat02.wav
36,192,95707,1,0,0:0:0:70:bassdrum.wav
256,192,95869,1,0,0:0:0:50:hihat02.wav
329,192,96031,1,0,0:0:0:70:bassdrum.wav
475,192,96031,1,0,0:0:0:70:snare.wav
109,192,96193,1,0,0:0:0:50:hihat02.wav
256,192,96355,1,0,0:0:0:70:bassdrum.wav
475,192,96518,1,0,0:0:0:50:hihat02.wav
36,192,96680,1,0,0:0:0:70:snare.wav
182,192,96680,1,0,0:0:0:70:bassdrum.wav
402,192,96842,1,0,0:0:0:50:hihat02.wav
109,192,97004,1,0,0:0:0:70:bassdrum.wav
256,192,97166,1,0,0:0:0:50:hihat02.wav
329,192,97328,1,0,0:0:0:70:bassdrum.wav
475,192,97328,1,0,0:0:0:70:snare.wav
36,192,97491,1,0,0:0:0:50:hihat02.wav
475,192,97653,1,0,0:0:0:70:bassdrum.wav
182,192,97815,1,0,0:0:0:50:hihat02.wav
256,192,97977,1,0,0:0:0:70:snare.wav
109,192,97977,1,0,0:0:0:70:bassdrum.wav
402,192,98139,1,0,0:0:0:50:hihat02.wav
182,192,98301,1,0,0:0:0:70:bassdrum.wav
109,192,98464,1,0,0:0:0:50:hihat02.wav
475,192,98626,1,0,0:0:0:70:snare.wav
329,192,98626,1,0,0:0:0:70:bassdrum.wav
109,192,98788,1,0,0:0:0:50:hihat02.wav
402,192,98950,1,0,0:0:0:70:bassdrum.wav
182,192,99112,1,0,0:0:0:50:hihat02.wav
402,192,99274,1,0,0:0:0:70:bassdrum.wav
475,192,99274,1,0,0:0:0:70:snare.wav
109,192,99437,1,0,0:0:0:50:hihat02.wav
329,192,99599,1,0,0:0:0:70:bassdrum.wav
256,192,99761,1,0,0:0:0:50:hihat02.wav
182,192,99923,1,0,0:0:0:70:snare.wav
36,192,99923,1,0,0:0:0:70:bassdrum.wav
329,192,100085,1,0,0:0:0:50:hihat02.wav
402,192,100247,1,0,0:0:0:70:bassdrum.wav
109,192,100410,1,0,0:0:0:50:hihat02.wav
182,192,100572,1,0,0:0:0:70:bassdrum.wav
36,192,100572,1,0,0:0:0:70:snare.wav
256,192,100734,1,0,0:0:0:50:hihat02.wav
402,192,100896,1,0,0:0:0:70:bassdrum.wav
109,192,101058,1,0,0:0:0:50:hihat02.wav
475,192,101220,1,0,0:0:0:70:snare.wav
329,192,101220,1,0,0:0:0:70:bassdrum.wav
109,192,101383,1,0,0:0:0:50:hihat02.wav
402,192,101545,1,0,0:0:0:70:bassdrum.wav
182,192,101707,1,0,0:0:0:50:hihat02.wav
475,192,101869,1,0,0:0:0:70:snare.wav
329,192,101869,1,0,0:0:0:70:bassdrum.wav
36,192,102031,1,0,0:0:0:50:hihat02.wav
329,192,102193,1,0,0:0:0:70:bassdrum.wav
182,192,102355,1,0,0:0:0:50:hihat02.wav
109,192,102518,1,0,0:0:0:70:snare.wav
402,192,102518,1,0,0:0:0:70:snare.wav
256,192,102680,1,0,0:0:0:70:snare.wav
182,192,102761,1,0,0:0:0:40:tom01.wav
109,192,102842,1,0,0:0:0:70:bassdrum.wav
36,192,103004,1,0,0:0:0:70:snare.wav
402,192,103004,1,0,0:0:0:50:hihat02.wav
475,192,103004,1,0,0:0:0:50:tom02.wav
402,192,103166,1,0,0:0:0:70:cymbol.wav
36,192,103166,1,0,0:0:0:70:snare.wav
475,192,103166,1,0,0:0:0:70:cymbol.wav
182,192,103328,1,0,0:0:0:50:tom01.wav
402,192,103491,1,0,0:0:0:50:snare.wav
109,192,103572,1,0,0:0:0:50:snare.wav
329,192,103653,1,0,0:0:0:60:snare.wav
36,192,103815,1,0,0:0:0:70:snare.wav
182,192,103896,1,0,0:0:0:70:snare.wav
475,192,103977,1,0,0:0:0:70:snare.wav
329,192,104058,1,0,0:0:0:70:snare.wav
109,192,104139,1,0,0:0:0:70:cymbol.wav
36,192,104139,1,0,0:0:0:70:cymbol.wav
182,192,104301,1,0,0:0:0:50:hihat02.wav
329,192,104464,1,0,0:0:0:70:bassdrum.wav
475,192,104464,1,0,0:0:0:70:snare.wav
36,192,104626,1,0,0:0:0:50:hihat02.wav
329,192,104788,1,0,0:0:0:70:bassdrum.wav
109,192,104950,1,0,0:0:0:50:hihat02.wav
402,192,105112,1,0,0:0:0:70:bassdrum.wav
475,192,105112,1,0,0:0:0:70:snare.wav
182,192,105274,1,0,0:0:0:50:hihat02.wav
475,192,105437,1,0,0:0:0:70:bassdrum.wav
329,192,105599,1,0,0:0:0:50:hihat02.wav
36,192,105761,1,0,0:0:0:70:bassdrum.wav
109,192,105761,1,0,0:0:0:70:snare.wav
329,192,105923,1,0,0:0:0:50:hihat02.wav
182,192,106085,1,0,0:0:0:70:bassdrum.wav
256,192,106247,1,0,0:0:0:50:hihat02.wav
402,192,106410,1,0,0:0:0:70:bassdrum.wav
475,192,106410,1,0,0:0:0:70:snare.wav
109,192,106572,1,0,0:0:0:50:hihat02.wav
329,192,106734,1,0,0:0:0:70:bassdrum.wav
36,192,106896,1,0,0:0:0:50:hihat02.wav
329,192,107058,1,0,0:0:0:70:bassdrum.wav
475,192,107058,1,0,0:0:0:70:snare.wav
109,192,107220,1,0,0:0:0:50:hihat02.wav
402,192,107383,1,0,0:0:0:70:bassdrum.wav
36,192,107545,1,0,0:0:0:50:hihat02.wav
329,192,107707,1,0,0:0:0:70:bassdrum.wav
475,192,107707,1,0,0:0:0:70:snare.wav
182,192,107869,1,0,0:0:0:50:tom01.wav
329,192,107950,1,0,0:0:0:50:tom02.wav
109,192,108031,1,0,0:0:0:70:bassdrum.wav
475,192,108193,1,0,0:0:0:70:snare.wav
402,192,108193,1,0,0:0:0:70:bassdrum.wav
36,192,108355,1,0,0:0:0:70:bassdrum.wav
109,192,108355,1,0,0:0:0:70:snare.wav
402,192,108518,1,0,0:0:0:70:snare.wav
256,192,108599,1,0,0:0:0:70:snare.wav
109,192,108680,1,0,0:0:0:70:snare.wav
182,192,108842,1,0,0:0:0:70:snare.wav
329,192,108923,1,0,0:0:0:70:snare.wav
475,192,109004,1,0,0:0:0:70:snare.wav
36,192,109085,1,0,0:0:0:70:tom01.wav
182,192,109166,1,0,0:0:0:50:tom01.wav
329,192,109247,1,0,0:0:0:40:tom02.wav
109,192,109328,1,4,0:0:0:70:cymbol.wav
475,192,109328,1,0,0:0:0:70:cymbol.wav
36,192,109328,1,0,0:0:0:70:bassdrum.wav
329,192,109653,1,0,0:0:0:70:bassdrum.wav
402,192,109815,1,0,0:0:0:30:snare.wav
109,192,109815,1,0,0:0:0:70:bassdrum.wav
182,192,109977,1,0,0:0:0:70:bassdrum.wav
182,192,110139,1,0,0:0:0:70:bassdrum.wav
402,192,110139,1,0,0:0:0:40:snare.wav
36,192,110301,1,0,0:0:0:70:bassdrum.wav
182,192,110464,1,0,0:0:0:70:bassdrum.wav
402,192,110464,1,0,0:0:0:50:snare.wav
256,192,110626,1,0,0:0:0:70:bassdrum.wav
109,192,110788,1,0,0:0:0:70:bassdrum.wav
329,192,110788,1,0,0:0:0:60:snare.wav
182,192,110950,1,0,0:0:0:70:bassdrum.wav
36,192,111112,1,0,0:0:0:70:bassdrum.wav
402,192,111112,1,0,0:0:0:70:snare.wav
182,192,111274,1,0,0:0:0:70:bassdrum.wav
109,192,111437,1,0,0:0:0:70:bassdrum.wav
256,192,111437,1,0,0:0:0:70:snare.wav
329,192,111599,1,0,0:0:0:70:bassdrum.wav
182,192,111761,1,0,0:0:0:70:bassdrum.wav
402,192,111761,1,0,0:0:0:70:snare.wav
329,192,111923,1,0,0:0:0:70:bassdrum.wav
256,192,112085,1,0,0:0:0:70:bassdrum.wav
475,192,112085,1,0,0:0:0:70:snare.wav
182,192,112247,1,0,0:0:0:70:bassdrum.wav
329,192,112410,1,0,0:0:0:70:snare.wav
475,192,112410,1,0,0:0:0:40:tom02.wav
329,192,112572,1,0,0:0:0:70:snare.wav
475,192,112572,1,0,0:0:0:40:tom02.wav
109,192,112572,1,0,0:0:0:70:bassdrum.wav
475,192,112734,1,0,0:0:0:40:tom02.wav
329,192,112734,1,0,0:0:0:70:snare.wav
329,192,112896,1,0,0:0:0:70:snare.wav
475,192,112896,1,0,0:0:0:40:tom02.wav
36,192,112896,1,0,0:0:0:70:bassdrum.wav
182,192,113058,1,0,0:0:0:70:snare.wav
109,192,113058,1,0,0:0:0:40:tom02.wav
329,192,113220,1,0,0:0:0:70:snare.wav
475,192,113220,1,0,0:0:0:40:tom02.wav
256,192,113220,1,0,0:0:0:70:bassdrum.wav
256,192,114518,1,0,0:0:0:70:bassdrum.wav
475,192,114518,1,0,0:0:0:70:cymbol.wav
36,192,114518,1,0,0:0:0:70:cymbol.wav
329,192,115166,1,0,0:0:0:50:clap.wav
109,192,115815,1,0,0:0:0:70:bassdrum.wav
329,192,115977,1,0,0:0:0:70:bassdrum.wav
256,192,116139,1,0,0:0:0:70:bassdrum.wav
402,192,116464,1,0,0:0:0:50:clap.wav
256,192,117112,1,0,0:0:0:70:bassdrum.wav
109,192,117761,1,0,0:0:0:50:clap.wav
256,192,118572,1,0,0:0:0:70:bassdrum.wav
256,192,118734,1,0,0:0:0:70:bassdrum.wav
109,192,119058,1,0,0:0:0:50:clap.wav
402,192,119383,1,0,0:0:0:40:hihat.wav
475,192,119545,1,0,0:0:0:40:ride.wav
329,192,119707,1,0,0:0:0:70:ride.wav
182,192,120355,1,0,0:0:0:50:clap.wav
402,192,121004,1,0,0:0:0:70:bassdrum.wav
182,192,121166,1,0,0:0:0:70:bassdrum.wav
256,192,121328,1,0,0:0:0:70:bassdrum.wav
402,192,121653,1,0,0:0:0:50:clap.wav
256,192,122301,1,0,0:0:0:70:bassdrum.wav
36,192,122950,1,0,0:0:0:50:clap.wav
402,192,123558,1,0,0:0:0:70:bassdrum.wav
329,192,123599,1,0,0:0:0:70:bassdrum.wav
109,192,123599,1,0,0:0:0:50:tom01.wav
36,192,124085,1,0,0:0:0:70:bassdrum.wav
182,192,124085,1,0,0:0:0:50:tom02.wav
402,192,124085,1,0,0:0:0:70:bassdrum.wav
109,192,124572,1,0,0:0:0:70:bassdrum.wav
475,192,124572,1,0,0:0:0:70:bassdrum.wav
256,192,124734,1,0,0:0:0:40:cymbol.wav
329,192,124896,1,0,0:0:0:70:cymbol.wav
182,192,124896,1,0,0:0:0:70:bassdrum.wav
402,192,124896,1,0,0:0:0:70:bassdrum.wav
109,192,125220,1,0,0:0:0:70:bassdrum.wav
329,192,125220,1,0,0:0:0:70:hihat01.wav
475,192,125383,1,0,0:0:0:70:bassdrum.wav
36,192,125545,1,0,0:0:0:30:cymbol.wav
182,192,125545,1,0,0:0:0:70:snare.wav
329,192,125869,1,0,0:0:0:70:hihat01.wav
109,192,125869,1,0,0:0:0:70:bassdrum.wav
36,192,126193,1,0,0:0:0:30:cymbol.wav
182,192,126193,1,0,0:0:0:70:bassdrum.wav
329,192,126193,1,0,0:0:0:70:bassdrum.wav
256,192,126355,1,0,0:0:0:70:bassdrum.wav
109,192,126518,1,0,0:0:0:70:bassdrum.wav
402,192,126518,1,0,0:0:0:70:hihat01.wav
475,192,126680,1,0,0:0:0:70:bassdrum.wav
36,192,126842,1,0,0:0:0:30:cymbol.wav
182,192,126842,1,0,0:0:0:70:snare.wav
109,192,127166,1,0,0:0:0:70:bassdrum.wav
36,192,127166,1,0,0:0:0:70:hihat01.wav
402,192,127491,1,0,0:0:0:30:cymbol.wav
182,192,127491,1,0,0:0:0:70:bassdrum.wav
329,192,127491,1,0,0:0:0:70:bassdrum.wav
256,192,127653,1,0,0:0:0:70:bassdrum.wav
109,192,127815,1,0,0:0:0:70:bassdrum.wav
36,192,127815,1,0,0:0:0:70:hihat01.wav
475,192,127977,1,0,0:0:0:70:bassdrum.wav
402,192,128139,1,0,0:0:0:30:cymbol.wav
182,192,128139,1,0,0:0:0:70:snare.wav
109,192,128464,1,0,0:0:0:70:hihat01.wav
182,192,128626,1,0,0:0:0:70:bassdrum.wav
36,192,128707,1,0,0:0:0:70:bassdrum.wav
329,192,128788,1,0,0:0:0:70:snare.wav
475,192,128788,1,0,0:0:0:70:snare.wav
109,192,128950,1,0,0:0:0:70:bassdrum.wav
402,192,129112,1,0,0:0:0:70:bassdrum.wav
182,192,129274,1,0,0:0:0:70:snare.wav
36,192,129274,1,0,0:0:0:70:snare.wav
402,192,129274,1,0,0:0:0:70:bassdrum.wav
475,192,129437,1,0,0:0:0:70:bassdrum.wav
402,192,129599,1,0,0:0:0:70:bassdrum.wav
182,192,129761,1,0,0:0:0:70:tom01.wav
36,192,129761,1,0,0:0:0:70:bassdrum.wav
475,192,129842,1,0,0:0:0:70:bassdrum.wav
402,192,129923,1,0,0:0:0:70:bassdrum.wav
329,192,130004,1,0,0:0:0:50:tom02.wav
36,192,130085,1,0,0:0:0:70:cymbol.wav
256,192,130085,1,0,0:0:0:70:bassdrum.wav
109,192,130085,1,0,0:0:0:70:cymbol.wav
256,192,130410,1,0,0:0:0:70:hihat01.wav
36,192,130410,1,0,0:0:0:70:snare.wav
182,192,130734,1,0,0:0:0:40:bassdrum.wav
36,192,130734,1,0,0:0:0:70:hihat01.wav
402,192,130896,1,0,0:0:0:40:bassdrum.wav
329,192,131058,1,0,0:0:0:70:snare.wav
36,192,131058,1,0,0:0:0:70:hihat01.wav
182,192,131383,1,0,0:0:0:70:bassdrum.wav
36,192,131383,1,0,0:0:0:70:hihat01.wav
182,192,131545,1,0,0:0:0:70:bassdrum.wav
329,192,131707,1,0,0:0:0:70:snare.wav
36,192,131707,1,0,0:0:0:70:hihat01.wav
329,192,132031,1,0,0:0:0:70:bassdrum.wav
36,192,132031,1,0,0:0:0:70:hihat01.wav
402,192,132193,1,0,0:0:0:70:bassdrum.wav
182,192,132355,1,0,0:0:0:70:snare.wav
475,192,132355,1,0,0:0:0:70:snare.wav
36,192,132355,1,0,0:0:0:70:hihat01.wav
256,192,132518,1,0,0:0:0:50:tom01.wav
182,192,132599,1,0,0:0:0:40:tom02.wav
109,192,132680,1,0,0:0:0:70:bassdrum.wav
475,192,132680,1,0,0:0:0:70:cymbol.wav
329,192,132680,1,4,0:0:0:70:cymbol.wav
402,192,132842,1,0,0:0:0:70:snare.wav
182,192,132923,1,0,0:0:0:70:snare.wav
36,192,133004,1,0,0:0:0:70:snare.wav
182,192,133166,1,0,0:0:0:70:cymbol.wav
475,192,133328,1,0,0:0:0:50:snare.wav
402,192,133410,1,0,0:0:0:60:snare.wav
329,192,133491,1,0,0:0:0:70:snare.wav
256,192,133572,1,0,0:0:0:70:snare.wav
109,192,133653,1,0,0:0:0:70:cymbol.wav
182,192,133653,1,0,0:0:0:70:bassdrum.wav
36,192,133653,1,0,0:0:0:70:snare.wav
402,192,133815,1,0,0:0:0:50:snare.wav
329,192,133896,1,0,0:0:0:60:snare.wav
256,192,133977,1,0,0:0:0:70:snare.wav
329,192,134139,1,0,0:0:0:70:cymbol.wav
109,192,134139,1,0,0:0:0:70:cymbol.wav
475,192,134301,1,0,0:0:0:50:snare.wav
402,192,134383,1,0,0:0:0:60:snare.wav
329,192,134464,1,0,0:0:0:70:snare.wav
256,192,134545,1,0,0:0:0:70:snare.wav
109,192,134626,1,0,0:0:0:70:cymbol.wav
329,192,134788,1,0,0:0:0:70:snare.wav
402,192,134869,1,0,0:0:0:70:snare.wav
475,192,134950,1,0,0:0:0:70:snare.wav
402,192,135031,1,0,0:0:0:70:snare.wav
329,192,135112,1,0,0:0:0:60:snare.wav
256,192,135193,1,0,0:0:0:50:snare.wav
182,192,135274,1,0,0:0:0:70:cymbol.wav
36,192,135274,1,0,0:0:0:70:cymbol.wav
109,192,135274,1,0,0:0:0:70:bassdrum.wav
109,192,135599,1,0,0:0:0:50:hihat01.wav
475,192,135599,1,0,0:0:0:70:snare.wav
182,192,135923,1,0,0:0:0:50:hihat01.wav
402,192,135923,1,0,0:0:0:70:bassdrum.wav
182,192,136085,1,0,0:0:0:70:bassdrum.wav
109,192,136247,1,0,0:0:0:50:hihat01.wav
329,192,136247,1,0,0:0:0:70:snare.wav
109,192,136572,1,0,0:0:0:50:hihat01.wav
402,192,136572,1,0,0:0:0:70:bassdrum.wav
402,192,136734,1,0,0:0:0:70:bassdrum.wav
182,192,136896,1,0,0:0:0:50:hihat01.wav
329,192,136896,1,0,0:0:0:70:snare.wav
36,192,137220,1,0,0:0:0:50:hihat01.wav
329,192,137220,1,0,0:0:0:70:bassdrum.wav
182,192,137383,1,0,0:0:0:70:bassdrum.wav
109,192,137545,1,0,0:0:0:50:hihat01.wav
256,192,137545,1,0,0:0:0:70:snare.wav
109,192,137869,1,0,0:0:0:50:hihat01.wav
402,192,137869,1,0,0:0:0:70:bassdrum.wav
182,192,138193,1,0,0:0:0:50:hihat01.wav
329,192,138193,1,0,0:0:0:70:snare.wav
109,192,138518,1,0,0:0:0:50:hihat01.wav
256,192,138518,1,0,0:0:0:70:bassdrum.wav
182,192,138680,1,0,0:0:0:70:bassdrum.wav
109,192,138842,1,0,0:0:0:50:hihat01.wav
329,192,138842,1,0,0:0:0:70:snare.wav
182,192,139166,1,0,0:0:0:50:hihat01.wav
402,192,139166,1,0,0:0:0:70:bassdrum.wav
256,192,139328,1,0,0:0:0:70:bassdrum.wav
402,192,139491,1,0,0:0:0:70:snare.wav
109,192,139491,1,0,0:0:0:50:hihat01.wav
109,192,139815,1,0,0:0:0:50:hihat01.wav
402,192,139815,1,0,0:0:0:70:bassdrum.wav
402,192,139977,1,0,0:0:0:70:bassdrum.wav
182,192,140139,1,0,0:0:0:50:hihat01.wav
475,192,140139,1,0,0:0:0:70:snare.wav
109,192,140464,1,0,0:0:0:50:hihat01.wav
256,192,140464,1,0,0:0:0:70:cymbol.wav
402,192,140464,1,0,0:0:0:70:bassdrum.wav
109,192,140788,1,0,0:0:0:50:hihat01.wav
329,192,140788,1,0,0:0:0:70:snare.wav
109,192,141112,1,0,0:0:0:50:hihat01.wav
475,192,141112,1,0,0:0:0:70:bassdrum.wav
402,192,141274,1,0,0:0:0:70:bassdrum.wav
256,192,141437,1,0,0:0:0:70:snare.wav
109,192,141437,1,0,0:0:0:50:hihat01.wav
109,192,141761,1,0,0:0:0:50:hihat01.wav
402,192,141761,1,0,0:0:0:70:bassdrum.wav
402,192,141923,1,0,0:0:0:70:bassdrum.wav
109,192,142085,1,0,0:0:0:50:hihat01.wav
475,192,142085,1,0,0:0:0:70:snare.wav
109,192,142410,1,0,0:0:0:50:hihat01.wav
402,192,142572,1,0,0:0:0:70:bassdrum.wav
475,192,142734,1,0,0:0:0:70:snare.wav
109,192,142734,1,0,0:0:0:50:hihat01.wav
402,192,142896,1,0,0:0:0:70:bassdrum.wav
109,192,143058,1,0,0:0:0:50:hihat01.wav
329,192,143058,1,0,0:0:0:70:bassdrum.wav
475,192,143383,1,0,0:0:0:70:snare.wav
109,192,143383,1,0,0:0:0:50:hihat01.wav
329,192,143545,1,0,0:0:0:70:bassdrum.wav
109,192,143707,1,0,0:0:0:50:hihat01.wav
475,192,143869,1,0,0:0:0:70:snare.wav
402,192,144031,1,0,0:0:0:70:bassdrum.wav
109,192,144031,1,0,0:0:0:50:hihat01.wav
109,192,144355,1,0,0:0:0:50:hihat01.wav
475,192,144355,1,0,0:0:0:70:snare.wav
402,192,144518,1,0,0:0:0:70:bassdrum.wav
109,192,144680,1,0,0:0:0:50:hihat01.wav
475,192,144842,1,0,0:0:0:70:snare.wav
109,192,145004,1,0,0:0:0:50:hihat01.wav
402,192,145166,1,0,0:0:0:70:bassdrum.wav
182,192,145328,1,0,0:0:0:50:snare.wav
329,192,145410,1,0,0:0:0:50:snare.wav
182,192,145491,1,0,0:0:0:50:snare.wav
329,192,145572,1,0,0:0:0:50:snare.wav
256,192,145653,1,4,0:0:0:70:cymbol.wav
475,192,145653,1,0,0:0:0:70:bassdrum.wav
36,192,145653,1,0,0:0:0:70:bassdrum.wav
329,192,145977,1,0,0:0:0:70:bassdrum.wav
475,192,145977,1,0,0:0:0:70:snare.wav
109,192,145977,1,0,0:0:0:50:hihat01.wav
109,192,146301,1,0,0:0:0:50:hihat01.wav
329,192,146301,1,0,0:0:0:70:bassdrum.wav
402,192,146464,1,0,0:0:0:70:bassdrum.wav
109,192,146626,1,0,0:0:0:50:hihat01.wav
475,192,146626,1,0,0:0:0:70:snare.wav
109,192,146950,1,0,0:0:0:50:hihat01.wav
329,192,146950,1,0,0:0:0:70:bassdrum.wav
402,192,147112,1,0,0:0:0:70:bassdrum.wav
109,192,147274,1,0,0:0:0:50:hihat01.wav
475,192,147274,1,0,0:0:0:70:snare.wav
109,192,147599,1,0,0:0:0:50:hihat01.wav
329,192,147761,1,0,0:0:0:70:bassdrum.wav
109,192,147923,1,0,0:0:0:50:hihat01.wav
475,192,147923,1,0,0:0:0:70:snare.wav
109,192,148247,1,0,0:0:0:50:hihat01.wav
329,192,148247,1,0,0:0:0:70:bassdrum.wav
402,192,148410,1,0,0:0:0:70:bassdrum.wav
109,192,148572,1,0,0:0:0:50:hihat01.wav
475,192,148572,1,0,0:0:0:70:snare.wav
402,192,148734,1,0,0:0:0:70:bassdrum.wav
109,192,148896,1,0,0:0:0:50:hihat01.wav
256,192,149058,1,0,0:0:0:70:bassdrum.wav
109,192,149220,1,0,0:0:0:50:hihat01.wav
475,192,149220,1,0,0:0:0:70:snare.wav
402,192,149383,1,0,0:0:0:70:bassdrum.wav
329,192,149464,1,0,0:0:0:70:bassdrum.wav
475,192,149545,1,0,0:0:0:70:snare.wav
109,192,149545,1,0,0:0:0:50:hihat01.wav
256,192,149707,1,0,0:0:0:70:bassdrum.wav
329,192,149869,1,0,0:0:0:70:bassdrum.wav
109,192,150031,1,0,0:0:0:50:hihat01.wav
402,192,150031,1,0,0:0:0:70:snare.wav
256,192,150193,1,0,0:0:0:70:bassdrum.wav
182,192,150355,1,0,0:0:0:70:bassdrum.wav
109,192,150518,1,0,0:0:0:50:hihat01.wav
402,192,150518,1,0,0:0:0:70:snare.wav
475,192,150680,1,0,0:0:0:70:snare.wav
329,192,150761,1,0,0:0:0:70:snare.wav
182,192,150842,1,0,0:0:0:30:bassdrum.wav
36,192,150842,1,0,0:0:0:70:cymbol.wav
402,192,151166,1,0,0:0:0:70:snare.wav
182,192,151166,1,0,0:0:0:70:bassdrum.wav
36,192,151166,1,0,0:0:0:30:cymbol.wav
402,192,151491,1,0,0:0:0:70:bassdrum.wav
36,192,151491,1,0,0:0:0:30:cymbol.wav
402,192,151815,1,0,0:0:0:70:snare.wav
182,192,151815,1,0,0:0:0:70:bassdrum.wav
36,192,151815,1,0,0:0:0:30:cymbol.wav
402,192,152139,1,0,0:0:0:70:bassdrum.wav
36,192,152139,1,0,0:0:0:30:cymbol.wav
402,192,152464,1,0,0:0:0:70:snare.wav
182,192,152464,1,0,0:0:0:70:bassdrum.wav
36,192,152464,1,0,0:0:0:30:cymbol.wav
402,192,152788,1,0,0:0:0:70:bassdrum.wav
36,192,152788,1,0,0:0:0:30:cymbol.wav
182,192,153112,1,0,0:0:0:70:bassdrum.wav
402,192,153112,1,0,0:0:0:70:snare.wav
36,192,153112,1,0,0:0:0:30:cymbol.wav
256,192,153437,1,0,0:0:0:70:cymbol.wav
402,192,153437,1,0,0:0:0:70:snare.wav
182,192,153599,1,0,0:0:0:70:bassdrum.wav
109,192,153680,1,0,0:0:0:70:bassdrum.wav
36,192,153761,1,0,0:0:0:70:bassdrum.wav
329,192,153923,1,0,0:0:0:70:hihat01.wav
475,192,153923,1,0,0:0:0:70:snare.wav
109,192,154085,1,0,0:0:0:70:bassdrum.wav
402,192,154166,1,0,0:0:0:70:bassdrum.wav
36,192,154247,1,0,0:0:0:70:bassdrum.wav
329,192,154410,1,0,0:0:0:70:hihat01.wav
475,192,154410,1,0,0:0:0:70:snare.wav
109,192,154572,1,0,0:0:0:70:bassdrum.wav
475,192,154653,1,0,0:0:0:70:bassdrum.wav
182,192,154734,1,0,0:0:0:70:snare.wav
402,192,154815,1,0,0:0:0:70:snare.wav
329,192,154896,1,0,0:0:0:70:snare.wav
182,192,155058,1,0,0:0:0:70:tom01.wav
256,192,155220,1,0,0:0:0:70:tom02.wav
475,192,155383,1,0,0:0:0:70:snare.wav
329,192,155383,1,0,0:0:0:50:snare.wav
36,192,155545,1,0,0:0:0:70:snare.wav
182,192,155626,1,0,0:0:0:70:snare.wav
329,192,155707,1,0,0:0:0:70:snare.wav
475,192,155788,1,0,0:0:0:70:snare.wav
402,192,155869,1,0,0:0:0:50:tom01.wav
329,192,155950,1,0,0:0:0:50:tom02.wav
36,192,156031,1,0,0:0:0:70:snare.wav
256,192,156031,1,0,0:0:0:70:cymbol.wav
182,192,156031,1,0,0:0:0:70:bassdrum.wav
329,192,156193,1,0,0:0:0:70:bassdrum.wav
475,192,156193,1,0,0:0:0:70:snare.wav
109,192,156355,1,0,0:0:0:70:bassdrum.wav
475,192,156680,1,0,0:0:0:70:bassdrum.wav
109,192,157004,1,0,0:0:0:70:bassdrum.wav
329,192,157166,1,0,0:0:0:70:snare.wav
475,192,157166,1,0,0:0:0:50:hihat02.wav
402,192,157328,1,0,0:0:0:70:bassdrum.wav
182,192,157491,1,0,0:0:0:50:hihat02.wav
36,192,157491,1,0,0:0:0:70:snare.wav
109,192,157653,1,0,0:0:0:70:bassdrum.wav
402,192,157977,1,0,0:0:0:70:bassdrum.wav
182,192,158301,1,0,0:0:0:70:bassdrum.wav
329,192,158626,1,0,0:0:0:70:snare.wav
475,192,158626,1,0,0:0:0:50:tom02.wav
109,192,158626,1,0,0:0:0:70:bassdrum.wav
329,192,158788,1,0,0:0:0:70:snare.wav
475,192,158788,1,0,0:0:0:50:tom02.wav
109,192,158788,1,0,0:0:0:70:bassdrum.wav
402,192,158950,1,0,0:0:0:70:bassdrum.wav
109,192,159274,1,0,0:0:0:70:bassdrum.wav
475,192,159599,1,0,0:0:0:70:bassdrum.wav
36,192,159761,1,0,0:0:0:50:hihat02.wav
182,192,159761,1,0,0:0:0:70:snare.wav
256,192,159923,1,0,0:0:0:70:bassdrum.wav
402,192,159923,1,0,0:0:0:70:bassdrum.wav
329,192,160085,1,0,0:0:0:70:snare.wav
182,192,160085,1,0,0:0:0:50:hihat02.wav
36,192,160247,1,0,0:0:0:70:bassdrum.wav
475,192,160247,1,0,0:0:0:70:bassdrum.wav
182,192,160355,1,0,0:0:0:30:snare.wav
329,192,160464,1,0,0:0:0:40:snare.wav
109,192,160572,1,0,0:0:0:50:snare.wav
475,192,160680,1,0,0:0:0:60:snare.wav
182,192,160788,1,0,0:0:0:70:snare.wav
329,192,160896,1,0,0:0:0:40:tom01.wav
109,192,161004,1,0,0:0:0:40:tom02.wav
402,192,161112,1,0,0:0:0:40:tom02.wav
36,192,161220,1,4,0:0:0:50:cymbol.wav
182,192,161220,1,0,0:0:0:70:bassdrum.wav
36,192,161545,1,0,0:0:0:70:hihat01.wav
329,192,161707,1,0,0:0:0:70:bassdrum.wav
256,192,161869,1,0,0:0:0:70:snare.wav
36,192,161869,1,0,0:0:0:70:hihat01.wav
475,192,162031,1,0,0:0:0:70:bassdrum.wav
36,192,162193,1,0,0:0:0:70:hihat01.wav
182,192,162355,1,0,0:0:0:70:bassdrum.wav
36,192,162518,1,0,0:0:0:70:hihat01.wav
475,192,162518,1,0,0:0:0:70:bassdrum.wav
329,192,162680,1,0,0:0:0:70:bassdrum.wav
36,192,162842,1,0,0:0:0:70:hihat01.wav
36,192,163166,1,0,0:0:0:70:hihat01.wav
402,192,163166,1,0,0:0:0:70:snare.wav
109,192,163166,1,0,0:0:0:70:snare.wav
329,192,163328,1,0,0:0:0:70:bassdrum.wav
109,192,163491,1,0,0:0:0:70:snare.wav
475,192,163491,1,0,0:0:0:70:snare.wav
256,192,163491,1,0,0:0:0:50:tom01.wav
402,192,163653,1,0,0:0:0:50:tom02.wav
182,192,163653,1,0,0:0:0:70:snare.wav
109,192,163815,1,0,0:0:0:70:bassdrum.wav
475,192,163815,1,0,0:0:0:70:bassdrum.wav
475,192,164139,1,0,0:0:0:70:bassdrum.wav
109,192,164139,1,0,0:0:0:70:bassdrum.wav
475,192,164464,1,0,0:0:0:70:snare.wav
329,192,164464,1,0,0:0:0:70:bassdrum.wav
109,192,164626,1,0,0:0:0:70:snare.wav
402,192,164707,1,0,0:0:0:70:snare.wav
182,192,164788,1,0,0:0:0:70:snare.wav
256,192,164869,1,0,0:0:0:70:snare.wav
475,192,164950,1,0,0:0:0:40:tom01.wav
329,192,165031,1,0,0:0:0:40:tom02.wav
329,192,166410,1,0,0:0:0:70:cymbol.wav
182,192,166410,1,0,0:0:0:70:cymbol.wav
36,192,166410,1,0,0:0:0:70:bassdrum.wav
475,192,176788,5,0,0:0:0:70:cymbol.wav
109,192,176788,1,0,0:0:0:70:cymbol.wav
256,192,176788,1,0,0:0:0:70:bassdrum.wav
329,192,177112,1,0,0:0:0:70:bassdrum.wav
36,192,177112,1,0,0:0:0:70:bassdrum.wav
475,192,177274,1,0,0:0:0:70:hihat.wav
36,192,177437,1,0,0:0:0:70:bassdrum.wav
329,192,177437,1,0,0:0:0:70:bassdrum.wav
475,192,177599,1,0,0:0:0:70:hihat.wav
402,192,177680,1,0,0:0:0:70:hihat.wav
109,192,177761,1,0,0:0:0:70:bassdrum.wav
329,192,177761,1,0,0:0:0:70:bassdrum.wav
182,192,177923,1,0,0:0:0:70:hihat.wav
36,192,178085,1,0,0:0:0:70:bassdrum.wav
182,192,178085,1,0,0:0:0:70:bassdrum.wav
329,192,178247,1,0,0:0:0:70:hihat.wav
402,192,178328,1,0,0:0:0:70:hihat.wav
109,192,178410,1,0,0:0:0:70:bassdrum.wav
475,192,178410,1,0,0:0:0:70:bassdrum.wav
182,192,178572,1,0,0:0:0:70:hihat.wav
36,192,178734,1,0,0:0:0:70:bassdrum.wav
329,192,178734,1,0,0:0:0:70:bassdrum.wav
475,192,178896,1,0,0:0:0:70:hihat.wav
402,192,178977,1,0,0:0:0:70:hihat.wav
329,192,179058,1,0,0:0:0:70:bassdrum.wav
36,192,179058,1,0,0:0:0:70:bassdrum.wav
182,192,179220,1,0,0:0:0:70:hihat.wav
475,192,179383,1,0,0:0:0:70:bassdrum.wav
36,192,179383,1,0,0:0:0:70:bassdrum.wav
329,192,179545,1,0,0:0:0:70:hihat.wav
402,192,179626,1,0,0:0:0:70:hihat.wav
109,192,179707,1,0,0:0:0:70:bassdrum.wav
475,192,179707,1,0,0:0:0:70:bassdrum.wav
182,192,179869,1,0,0:0:0:70:hihat.wav
36,192,180031,1,0,0:0:0:70:bassdrum.wav
402,192,180031,1,0,0:0:0:70:bassdrum.wav
329,192,180193,1,0,0:0:0:70:hihat.wav
402,192,180274,1,0,0:0:0:70:hihat.wav
182,192,180355,1,0,0:0:0:70:bassdrum.wav
475,192,180355,1,0,0:0:0:70:bassdrum.wav
256,192,180518,1,0,0:0:0:70:hihat.wav
109,192,180680,1,0,0:0:0:70:bassdrum.wav
402,192,180680,1,0,0:0:0:70:bassdrum.wav
36,192,180842,1,0,0:0:0:70:hihat.wav
109,192,180923,1,0,0:0:0:70:hihat.wav
402,192,181004,1,0,0:0:0:70:bassdrum.wav
182,192,181004,1,0,0:0:0:70:bassdrum.wav
475,192,181166,1,0,0:0:0:70:hihat.wav
402,192,181247,1,0,0:0:0:70:hihat.wav
36,192,181328,1,0,0:0:0:70:bassdrum.wav
329,192,181328,1,0,0:0:0:70:bassdrum.wav
256,192,181491,1,0,0:0:0:70:hihat.wav
182,192,181572,1,0,0:0:0:70:hihat.wav
475,192,181653,1,0,0:0:0:70:bassdrum.wav
109,192,181653,1,0,0:0:0:70:bassdrum.wav
182,192,181815,1,0,0:0:0:70:hihat.wav
36,192,181977,1,0,0:0:0:70:bassdrum.wav
109,192,181977,1,0,0:0:0:70:bassdrum.wav
475,192,181977,1,0,0:0:0:50:cymbol.wav
329,192,182139,1,0,0:0:0:30:hihat.wav
475,192,182301,1,0,0:0:0:70:bassdrum.wav
182,192,182301,1,0,0:0:0:70:bassdrum.wav
329,192,182464,1,0,0:0:0:40:hihat.wav
109,192,182626,1,0,0:0:0:70:bassdrum.wav
402,192,182626,1,0,0:0:0:70:bassdrum.wav
182,192,182788,1,0,0:0:0:50:hihat.wav
475,192,182950,1,0,0:0:0:70:bassdrum.wav
36,192,182950,1,0,0:0:0:70:bassdrum.wav
256,192,183112,1,0,0:0:0:60:hihat.wav
36,192,183274,1,0,0:0:0:70:bassdrum.wav
402,192,183274,1,0,0:0:0:70:bassdrum.wav
329,192,183437,1,0,0:0:0:60:hihat.wav
109,192,183599,1,0,0:0:0:70:bassdrum.wav
475,192,183599,1,0,0:0:0:70:bassdrum.wav
402,192,183761,1,0,0:0:0:60:hihat.wav
182,192,183923,1,0,0:0:0:70:bassdrum.wav
329,192,183923,1,0,0:0:0:70:bassdrum.wav
256,192,184085,1,0,0:0:0:50:hihat.wav
402,192,184247,1,0,0:0:0:70:bassdrum.wav
36,192,184247,1,0,0:0:0:70:bassdrum.wav
256,192,184410,1,0,0:0:0:40:hihat.wav
182,192,184572,1,0,0:0:0:70:bassdrum.wav
475,192,184572,1,0,0:0:0:70:bassdrum.wav
36,192,184572,1,0,0:0:0:40:hihat01.wav
182,192,184896,1,0,0:0:0:70:bassdrum.wav
402,192,184896,1,0,0:0:0:70:bassdrum.wav
256,192,185058,1,0,0:0:0:30:snare.wav
36,192,185220,1,0,0:0:0:70:bassdrum.wav
475,192,185220,1,0,0:0:0:30:snare.wav
329,192,185220,1,0,0:0:0:10:snare.wav
475,192,185383,1,0,0:0:0:40:snare.wav
329,192,185383,1,0,0:0:0:20:snare.wav
36,192,185545,1,0,0:0:0:70:bassdrum.wav
329,192,185545,1,0,0:0:0:30:snare.wav
475,192,185545,1,0,0:0:0:50:snare.wav
329,192,185707,1,0,0:0:0:40:snare.wav
475,192,185707,1,0,0:0:0:60:snare.wav
329,192,185869,1,0,0:0:0:50:snare.wav
475,192,185869,1,0,0:0:0:70:snare.wav
109,192,185869,1,0,0:0:0:70:bassdrum.wav
36,192,186031,1,0,0:0:0:50:snare.wav
475,192,186112,1,0,0:0:0:50:snare.wav
256,192,186193,1,0,0:0:0:50:snare.wav
182,192,186355,1,0,0:0:0:50:snare.wav
109,192,186437,1,0,0:0:0:50:snare.wav
36,192,186518,1,0,0:0:0:50:snare.wav
256,192,186680,1,0,0:0:0:30:snare.wav
329,192,186761,1,0,0:0:0:40:snare.wav
402,192,186842,1,0,0:0:0:50:snare.wav
475,192,186923,1,0,0:0:0:40:tom01.wav
402,192,187004,1,0,0:0:0:40:tom01.wav
329,192,187085,1,0,0:0:0:40:tom02.wav
256,192,187166,1,0,0:0:0:70:cymbol.wav
36,192,187166,1,0,0:0:0:70:cymbol.wav
109,192,187166,1,0,0:0:0:70:bassdrum.wav
182,192,187328,1,0,0:0:0:50:hihat02.wav
402,192,187491,1,0,0:0:0:70:snare.wav
109,192,187491,1,0,0:0:0:70:bassdrum.wav
182,192,187653,1,0,0:0:0:50:hihat02.wav
475,192,187815,1,0,0:0:0:70:bassdrum.wav
182,192,187977,1,0,0:0:0:50:hihat02.wav
109,192,188139,1,0,0:0:0:70:bassdrum.wav
402,192,188139,1,0,0:0:0:70:snare.wav
182,192,188301,1,0,0:0:0:50:hihat02.wav
475,192,188464,1,0,0:0:0:70:bassdrum.wav
182,192,188626,1,0,0:0:0:50:hihat02.wav
36,192,188788,1,0,0:0:0:70:bassdrum.wav
329,192,188788,1,0,0:0:0:70:snare.wav
182,192,188950,1,0,0:0:0:50:hihat02.wav
475,192,189112,1,0,0:0:0:70:bassdrum.wav
182,192,189274,1,0,0:0:0:50:hihat02.wav
109,192,189437,1,0,0:0:0:70:bassdrum.wav
402,192,189437,1,0,0:0:0:70:snare.wav
182,192,189599,1,0,0:0:0:50:hihat02.wav
475,192,189761,1,0,0:0:0:70:bassdrum.wav
182,192,189923,1,0,0:0:0:50:hihat02.wav
36,192,190085,1,0,0:0:0:70:bassdrum.wav
256,192,190085,1,0,0:0:0:70:snare.wav
182,192,190247,1,0,0:0:0:50:hihat02.wav
475,192,190410,1,0,0:0:0:70:bassdrum.wav
182,192,190572,1,0,0:0:0:50:hihat02.wav
109,192,190734,1,0,0:0:0:70:bassdrum.wav
402,192,190734,1,0,0:0:0:70:snare.wav
182,192,190896,1,0,0:0:0:50:hihat02.wav
329,192,191058,1,0,0:0:0:70:bassdrum.wav
182,192,191220,1,0,0:0:0:50:hihat02.wav
36,192,191383,1,0,0:0:0:70:bassdrum.wav
256,192,191383,1,0,0:0:0:70:snare.wav
182,192,191545,1,0,0:0:0:50:hihat02.wav
329,192,191707,1,0,0:0:0:70:bassdrum.wav
182,192,191869,1,0,0:0:0:50:hihat02.wav
109,192,192031,1,0,0:0:0:70:bassdrum.wav
402,192,192031,1,0,0:0:0:70:snare.wav
182,192,192193,1,0,0:0:0:50:hihat02.wav
329,192,192355,1,0,0:0:0:70:bassdrum.wav
182,192,192518,1,0,0:0:0:50:hihat02.wav
36,192,192680,1,0,0:0:0:70:bassdrum.wav
402,192,192680,1,0,0:0:0:70:snare.wav
182,192,192842,1,0,0:0:0:50:hihat02.wav
475,192,193004,1,0,0:0:0:70:bassdrum.wav
182,192,193166,1,0,0:0:0:50:hihat02.wav
475,192,193328,1,0,0:0:0:70:bassdrum.wav
329,192,193328,1,0,0:0:0:70:snare.wav
182,192,193491,1,0,0:0:0:50:hihat02.wav
36,192,193653,1,0,0:0:0:70:bassdrum.wav
182,192,193815,1,0,0:0:0:50:hihat02.wav
329,192,193977,1,0,0:0:0:70:snare.wav
475,192,193977,1,0,0:0:0:70:bassdrum.wav
182,192,194139,1,0,0:0:0:50:hihat02.wav
36,192,194301,1,0,0:0:0:70:bassdrum.wav
182,192,194464,1,0,0:0:0:50:hihat02.wav
329,192,194626,1,0,0:0:0:70:snare.wav
475,192,194626,1,0,0:0:0:70:bassdrum.wav
182,192,194788,1,0,0:0:0:50:hihat02.wav
36,192,194950,1,0,0:0:0:70:bassdrum.wav
182,192,195112,1,0,0:0:0:50:hihat02.wav
329,192,195274,1,0,0:0:0:70:snare.wav
475,192,195274,1,0,0:0:0:70:bassdrum.wav
182,192,195437,1,0,0:0:0:50:hihat02.wav
36,192,195599,1,0,0:0:0:70:bassdrum.wav
182,192,195761,1,0,0:0:0:50:hihat02.wav
329,192,195923,1,0,0:0:0:50:tom01.wav
475,192,195923,1,0,0:0:0:70:snare.wav
182,192,196085,1,0,0:0:0:70:snare.wav
109,192,196166,1,0,0:0:0:50:snare.wav
36,192,196247,1,0,0:0:0:40:tom02.wav
402,192,196247,1,0,0:0:0:70:bassdrum.wav
475,192,196410,1,0,0:0:0:70:hihat02.wav
329,192,196410,1,0,0:0:0:70:bassdrum.wav
402,192,196572,1,0,0:0:0:70:snare.wav
182,192,196572,1,0,0:0:0:70:cymbol.wav
329,192,196734,1,0,0:0:0:40:tom01.wav
109,192,196896,1,0,0:0:0:50:snare.wav
329,192,196977,1,0,0:0:0:50:snare.wav
475,192,197058,1,0,0:0:0:60:snare.wav
109,192,197220,1,0,0:0:0:70:snare.wav
402,192,197301,1,0,0:0:0:70:snare.wav
182,192,197383,1,0,0:0:0:70:snare.wav
329,192,197464,1,0,0:0:0:70:snare.wav
36,192,197545,1,4,0:0:0:70:cymbol.wav
475,192,197545,1,0,0:0:0:70:bassdrum.wav
329,192,197707,1,0,0:0:0:50:hihat02.wav
475,192,197869,1,0,0:0:0:70:snare.wav
109,192,197869,1,0,0:0:0:70:bassdrum.wav
329,192,198031,1,0,0:0:0:50:hihat02.wav
109,192,198193,1,0,0:0:0:70:bassdrum.wav
329,192,198355,1,0,0:0:0:50:hihat02.wav
182,192,198518,1,0,0:0:0:70:bassdrum.wav
475,192,198518,1,0,0:0:0:70:snare.wav
329,192,198680,1,0,0:0:0:50:hihat02.wav
109,192,198842,1,0,0:0:0:70:bassdrum.wav
329,192,199004,1,0,0:0:0:50:hihat02.wav
109,192,199166,1,0,0:0:0:70:bassdrum.wav
475,192,199166,1,0,0:0:0:70:snare.wav
329,192,199328,1,0,0:0:0:50:hihat02.wav
109,192,199491,1,0,0:0:0:70:bassdrum.wav
329,192,199653,1,0,0:0:0:50:hihat02.wav
475,192,199815,1,0,0:0:0:70:snare.wav
36,192,199815,1,0,0:0:0:70:bassdrum.wav
329,192,199977,1,0,0:0:0:50:hihat02.wav
36,192,200139,1,0,0:0:0:70:bassdrum.wav
329,192,200301,1,0,0:0:0:50:hihat02.wav
109,192,200464,1,0,0:0:0:70:bassdrum.wav
256,192,200464,1,0,0:0:0:70:snare.wav
329,192,200626,1,0,0:0:0:50:hihat02.wav
475,192,200788,1,0,0:0:0:70:bassdrum.wav
329,192,200950,1,0,0:0:0:50:hihat02.wav
402,192,201112,1,0,0:0:0:50:hihat01.wav
109,192,201112,1,0,0:0:0:70:snare.wav
329,192,201274,1,0,0:0:0:40:tom01.wav
256,192,201355,1,0,0:0:0:40:tom02.wav
182,192,201437,1,0,0:0:0:70:bassdrum.wav
36,192,201437,1,0,0:0:0:70:bassdrum.wav
402,192,201599,1,0,0:0:0:70:snare.wav
475,192,201761,1,0,0:0:0:70:snare.wav
182,192,201923,1,0,0:0:0:70:snare.wav
109,192,202004,1,0,0:0:0:70:snare.wav
329,192,202085,1,0,0:0:0:70:snare.wav
402,192,202247,1,0,0:0:0:70:snare.wav
182,192,202328,1,0,0:0:0:70:snare.wav
329,192,202410,1,0,0:0:0:70:snare.wav
109,192,202491,1,0,0:0:0:50:tom01.wav
402,192,202572,1,0,0:0:0:40:tom01.wav
329,192,202653,1,0,0:0:0:40:tom02.wav
182,192,202734,1,0,0:0:0:70:bassdrum.wav
36,192,202734,1,0,0:0:0:70:cymbol.wav
256,192,202734,1,0,0:0:0:70:cymbol.wav
475,192,203058,1,0,0:0:0:70:bassdrum.wav
109,192,203220,1,0,0:0:0:30:snare.wav
182,192,203220,1,0,0:0:0:70:bassdrum.wav
329,192,203383,1,0,0:0:0:70:bassdrum.wav
109,192,203545,1,0,0:0:0:40:snare.wav
182,192,203545,1,0,0:0:0:70:bassdrum.wav
475,192,203707,1,0,0:0:0:70:bassdrum.wav
109,192,203869,1,0,0:0:0:50:snare.wav
182,192,203869,1,0,0:0:0:70:bassdrum.wav
329,192,204031,1,0,0:0:0:70:bassdrum.wav
109,192,204193,1,0,0:0:0:60:snare.wav
182,192,204193,1,0,0:0:0:70:bassdrum.wav
475,192,204355,1,0,0:0:0:70:bassdrum.wav
109,192,204518,1,0,0:0:0:70:snare.wav
182,192,204518,1,0,0:0:0:70:bassdrum.wav
329,192,204680,1,0,0:0:0:70:bassdrum.wav
109,192,204842,1,0,0:0:0:70:snare.wav
182,192,204842,1,0,0:0:0:70:bassdrum.wav
475,192,205004,1,0,0:0:0:70:bassdrum.wav
182,192,205166,1,0,0:0:0:70:bassdrum.wav
109,192,205166,1,0,0:0:0:70:snare.wav
329,192,205328,1,0,0:0:0:40:bassdrum.wav
109,192,205491,1,0,0:0:0:70:snare.wav
182,192,205491,1,0,0:0:0:40:bassdrum.wav
475,192,205653,1,0,0:0:0:40:bassdrum.wav
182,192,205815,1,0,0:0:0:40:snare.wav
109,192,205815,1,0,0:0:0:40:tom02.wav
329,192,205977,1,0,0:0:0:40:bassdrum.wav
109,192,205977,1,0,0:0:0:40:tom02.wav
182,192,205977,1,0,0:0:0:50:snare.wav
182,192,206139,1,0,0:0:0:60:snare.wav
109,192,206139,1,0,0:0:0:40:tom02.wav
475,192,206301,1,0,0:0:0:40:bassdrum.wav
109,192,206301,1,0,0:0:0:40:tom02.wav
182,192,206301,1,0,0:0:0:70:snare.wav
182,192,206464,1,0,0:0:0:70:snare.wav
109,192,206464,1,0,0:0:0:40:tom02.wav
329,192,206626,1,0,0:0:0:40:bassdrum.wav
109,192,206626,1,0,0:0:0:40:tom02.wav
182,192,206626,1,0,0:0:0:70:snare.wav
109,192,207599,1,0,0:0:0:50:snare.wav
182,192,207680,1,0,0:0:0:50:snare.wav
402,192,207761,1,0,0:0:0:50:snare.wav
329,192,207842,1,0,0:0:0:50:snare.wav
36,192,207923,1,2,0:0:0:70:bassdrum.wav
475,192,207923,1,0,0:0:0:70:cymbol.wav
109,192,208247,1,0,0:0:0:70:hihat01.wav
329,192,208247,1,2,0:0:0:0:
475,192,208247,1,0,0:0:0:70:snare.wav
256,192,208572,1,2,0:0:0:70:bassdrum.wav
36,192,208572,1,0,0:0:0:70:hihat01.wav
109,192,208734,1,0,0:0:0:70:bassdrum.wav
329,192,208896,1,2,0:0:0:0:
475,192,208896,1,0,0:0:0:70:snare.wav
182,192,208896,1,0,0:0:0:70:hihat01.wav
256,192,209220,1,2,0:0:0:70:bassdrum.wav
109,192,209220,1,0,0:0:0:70:hihat01.wav
329,192,209545,1,2,0:0:0:0:
475,192,209545,1,0,0:0:0:70:snare.wav
182,192,209545,1,0,0:0:0:70:hihat01.wav
256,192,209869,1,2,0:0:0:70:bassdrum.wav
109,192,209869,1,0,0:0:0:70:hihat01.wav
36,192,210031,1,0,0:0:0:70:bassdrum.wav
329,192,210193,1,2,0:0:0:0:
475,192,210193,1,0,0:0:0:70:snare.wav
182,192,210193,1,0,0:0:0:70:hihat01.wav
182,192,210518,1,2,0:0:0:70:hihat01.wav
402,192,210518,1,0,0:0:0:70:bassdrum.wav
329,192,210842,1,2,0:0:0:0:
475,192,210842,1,0,0:0:0:70:snare.wav
109,192,210842,1,0,0:0:0:70:hihat01.wav
182,192,211166,1,0,0:0:0:70:bassdrum.wav
36,192,211166,1,0,0:0:0:70:hihat01.wav
109,192,211328,1,0,0:0:0:70:bassdrum.wav
329,192,211491,1,2,0:0:0:0:
475,192,211491,1,0,0:0:0:70:snare.wav
182,192,211491,1,0,0:0:0:70:hihat01.wav
256,192,211815,1,2,0:0:0:70:hihat01.wav
402,192,211815,1,0,0:0:0:70:bassdrum.wav
109,192,211977,1,0,0:0:0:70:bassdrum.wav
329,192,212139,1,2,0:0:0:0:
475,192,212139,1,0,0:0:0:70:snare.wav
182,192,212139,1,0,0:0:0:70:hihat01.wav
402,192,212301,1,0,0:0:0:50:snare.wav
182,192,212383,1,0,0:0:0:60:snare.wav
475,192,212464,1,0,0:0:0:70:snare.wav
36,192,212464,1,0,0:0:0:70:hihat01.wav
329,192,212626,1,0,0:0:0:70:bassdrum.wav
36,192,212788,1,2,0:0:0:70:hihat01.wav
182,192,212788,1,0,0:0:0:70:snare.wav
475,192,212788,1,2,0:0:0:0:
256,192,212950,1,0,0:0:0:50:snare.wav
329,192,213031,1,0,0:0:0:70:snare.wav
475,192,213112,1,0,0:0:0:70:cymbol.wav
109,192,213437,1,0,0:0:0:70:hihat01.wav
402,192,213437,1,2,0:0:0:0:
256,192,213437,1,0,0:0:0:70:snare.wav
36,192,213761,1,0,0:0:0:70:bassdrum.wav
402,192,213761,1,0,0:0:0:70:hihat01.wav
329,192,213923,1,0,0:0:0:70:bassdrum.wav
109,192,214085,1,0,0:0:0:70:hihat01.wav
475,192,214085,1,2,0:0:0:0:
256,192,214085,1,0,0:0:0:70:snare.wav
256,192,214410,1,0,0:0:0:70:hihat01.wav
402,192,214410,1,0,0:0:0:70:bassdrum.wav
36,192,214572,1,0,0:0:0:70:bassdrum.wav
329,192,214734,1,2,0:0:0:0:
475,192,214734,1,0,0:0:0:70:hihat01.wav
182,192,214734,1,0,0:0:0:70:snare.wav
109,192,215058,1,2,0:0:0:70:hihat01.wav
402,192,215058,1,0,0:0:0:70:bassdrum.wav
256,192,215220,1,0,0:0:0:70:bassdrum.wav
329,192,215383,1,2,0:0:0:0:
475,192,215383,1,0,0:0:0:70:snare.wav
36,192,215383,1,0,0:0:0:70:hihat01.wav
182,192,215707,1,2,0:0:0:70:hihat01.wav
402,192,215707,1,0,0:0:0:70:bassdrum.wav
256,192,216031,1,0,0:0:0:70:hihat01.wav
36,192,216031,1,2,0:0:0:0:
475,192,216031,1,0,0:0:0:70:snare.wav
182,192,216355,1,2,0:0:0:70:hihat01.wav
36,192,216355,1,0,0:0:0:70:bassdrum.wav
475,192,216518,1,0,0:0:0:70:snare.wav
402,192,216599,1,0,0:0:0:60:snare.wav
329,192,216680,1,10,0:0:0:0:
256,192,216761,1,0,0:0:0:50:snare.wav
182,192,216842,1,0,0:0:0:60:snare.wav
109,192,216923,1,0,0:0:0:70:snare.wav
36,192,217004,1,2,0:0:0:70:bassdrum.wav
475,192,217004,1,0,0:0:0:70:bassdrum.wav
402,192,217166,1,0,0:0:0:70:cymbol.wav
182,192,217166,1,10,0:0:0:0:
475,192,217328,1,0,0:0:0:70:cymbol.wav
109,192,217328,1,10,0:0:0:0:
256,192,217491,1,2,0:0:0:0:
182,192,217572,1,2,0:0:0:0:
329,192,217653,1,2,0:0:0:0:
36,192,217653,1,8,0:0:0:0:
182,192,217815,1,0,0:0:0:50:snare.wav
256,192,217896,1,0,0:0:0:60:snare.wav
329,192,217977,1,10,0:0:0:0:
402,192,218058,1,0,0:0:0:70:snare.wav
329,192,218139,1,0,0:0:0:60:snare.wav
256,192,218220,1,0,0:0:0:50:snare.wav
109,192,218301,1,0,0:0:0:70:bassdrum.wav
475,192,218301,1,0,0:0:0:70:tom01.wav
256,192,218464,1,0,0:0:0:70:bassdrum.wav
329,192,218545,1,0,0:0:0:70:bassdrum.wav
402,192,218626,1,0,0:0:0:70:cymbol.wav
36,192,218626,1,0,0:0:0:70:bassdrum.wav
109,192,218950,1,2,0:0:0:70:hihat01.wav
475,192,218950,1,0,0:0:0:70:bassdrum.wav
256,192,219112,1,0,0:0:0:70:bassdrum.wav
329,192,219274,1,2,0:0:0:0:
475,192,219274,1,0,0:0:0:70:snare.wav
36,192,219274,1,0,0:0:0:70:hihat01.wav
182,192,219599,1,2,0:0:0:70:hihat01.wav
402,192,219599,1,0,0:0:0:70:bassdrum.wav
36,192,219761,1,0,0:0:0:70:bassdrum.wav
402,192,219923,1,0,0:0:0:70:snare.wav
182,192,219923,1,2,0:0:0:0:
475,192,219923,1,0,0:0:0:70:hihat01.wav
182,192,220247,1,2,0:0:0:70:bassdrum.wav
36,192,220247,1,0,0:0:0:70:hihat01.wav
329,192,220410,1,0,0:0:0:70:bassdrum.wav
256,192,220572,1,2,0:0:0:0:
402,192,220572,1,0,0:0:0:70:snare.wav
109,192,220572,1,0,0:0:0:70:hihat01.wav
475,192,220896,1,0,0:0:0:70:bassdrum.wav
36,192,220896,1,0,0:0:0:70:hihat01.wav
329,192,221220,1,2,0:0:0:0:
475,192,221220,1,0,0:0:0:70:snare.wav
182,192,221220,1,0,0:0:0:70:hihat01.wav
402,192,221545,1,2,0:0:0:70:bassdrum.wav
36,192,221545,1,0,0:0:0:70:hihat01.wav
109,192,221707,1,0,0:0:0:70:bassdrum.wav
329,192,221869,1,2,0:0:0:0:
475,192,221869,1,0,0:0:0:70:snare.wav
182,192,221869,1,0,0:0:0:70:hihat01.wav
475,192,222193,1,2,0:0:0:70:bassdrum.wav
329,192,222193,1,0,0:0:0:70:hihat01.wav
109,192,222355,1,0,0:0:0:70:bassdrum.wav
256,192,222518,1,0,0:0:0:70:cymbol.wav
36,192,222518,1,0,0:0:0:80:snare.wav
402,192,222518,1,0,0:0:0:70:bassdrum.wav
182,192,222680,1,0,0:0:0:70:bassdrum.wav
475,192,222842,1,0,0:0:0:80:snare.wav
329,192,222842,1,2,0:0:0:70:bassdrum.wav
402,192,223004,1,0,0:0:0:70:bassdrum.wav
36,192,223166,1,0,0:0:0:70:snare.wav
182,192,223247,1,0,0:0:0:70:snare.wav
475,192,223328,1,0,0:0:0:70:snare.wav
329,192,223410,1,0,0:0:0:70:snare.wav
182,192,223491,1,4,0:0:0:70:bassdrum.wav
36,192,223491,1,2,0:0:0:70:cymbol.wav
256,192,223491,1,0,0:0:0:70:cymbol.wav
329,192,223815,1,2,0:0:0:0:
475,192,223815,1,0,0:0:0:70:snare.wav
182,192,223815,1,0,0:0:0:70:hihat01.wav
109,192,224139,1,2,0:0:0:70:hihat01.wav
256,192,224139,1,0,0:0:0:70:bassdrum.wav
36,192,224301,1,0,0:0:0:70:bassdrum.wav
475,192,224464,1,0,0:0:0:70:hihat01.wav
329,192,224464,1,2,0:0:0:0:
182,192,224464,1,0,0:0:0:70:snare.wav
109,192,224788,1,2,0:0:0:70:hihat01.wav
402,192,224788,1,0,0:0:0:70:bassdrum.wav
329,192,224950,1,0,0:0:0:70:bassdrum.wav
182,192,225112,1,0,0:0:0:70:snare.wav
402,192,225112,1,2,0:0:0:0:
36,192,225112,1,0,0:0:0:70:cymbol.wav
182,192,225437,1,2,0:0:0:70:hihat01.wav
402,192,225437,1,0,0:0:0:70:bassdrum.wav
329,192,225599,1,0,0:0:0:70:bassdrum.wav
475,192,225761,1,0,0:0:0:70:cymbol.wav
36,192,225761,1,0,0:0:0:70:cymbol.wav
256,192,225761,1,0,0:0:0:70:snare.wav
109,192,226085,1,0,0:0:0:70:cymbol.wav
402,192,226085,1,2,0:0:0:0:
475,192,226085,1,0,0:0:0:70:bassdrum.wav
109,192,226410,1,0,0:0:0:20:bassdrum.wav
36,192,226410,1,0,0:0:0:70:bassdrum.wav
329,192,226572,1,0,0:0:0:20:snare.wav
36,192,226734,1,2,0:0:0:70:bassdrum.wav
109,192,226734,1,0,0:0:0:20:bassdrum.wav
475,192,226734,1,0,0:0:0:30:snare.wav
329,192,226896,1,0,0:0:0:40:snare.wav
109,192,227058,1,0,0:0:0:20:bassdrum.wav
36,192,227058,1,2,0:0:0:70:bassdrum.wav
475,192,227058,1,0,0:0:0:50:snare.wav
329,192,227220,1,0,0:0:0:60:snare.wav
36,192,227383,1,2,0:0:0:70:bassdrum.wav
109,192,227383,1,0,0:0:0:70:bassdrum.wav
475,192,227383,1,0,0:0:0:70:snare.wav
329,192,227545,1,0,0:0:0:70:snare.wav
109,192,227707,1,0,0:0:0:70:bassdrum.wav
36,192,227707,1,2,0:0:0:70:bassdrum.wav
475,192,227707,1,0,0:0:0:70:snare.wav
329,192,227869,1,0,0:0:0:70:snare.wav
36,192,228031,1,2,0:0:0:70:bassdrum.wav
109,192,228031,1,0,0:0:0:70:bassdrum.wav
475,192,228031,1,0,0:0:0:70:snare.wav
329,192,228193,1,0,0:0:0:70:snare.wav
36,192,228355,1,2,0:0:0:70:bassdrum.wav
109,192,228355,1,0,0:0:0:70:bassdrum.wav
475,192,228355,1,0,0:0:0:70:snare.wav
402,192,228518,1,0,0:0:0:70:snare.wav
182,192,228680,1,0,0:0:0:70:snare.wav
329,192,228680,1,0,0:0:0:70:bassdrum.wav
475,192,228680,1,0,0:0:0:70:snare.wav
475,192,228842,1,0,0:0:0:40:tom01.wav
402,192,228923,1,0,0:0:0:40:tom02.wav
182,192,229004,1,0,0:0:0:70:cymbol.wav
36,192,229004,1,0,0:0:0:70:cymbol.wav
329,192,229004,1,0,0:0:0:70:bassdrum.wav
