osu file format v5

[General]
AudioFilename: Dokuro-chan.MP3
AudioLeadIn: 0
PreviewTime: -1
Countdown: 0
SampleSet: Soft
StackLeniency: 0.7
Mode: 0
LetterboxInBreaks: 1
EditorDistanceSpacing: 0.699999988079071

[Metadata]
Title:Bokusatsu Tenshi Dokuro-Chan
Artist:Saeko Chiba
Creator:ztrot
Version:Normal
Source:Bokusatsu Tenshi Dokuro-Chan
Tags:Anime Bokusatsu Tenshi Dokuro-Chan Saeko Chiba

[Difficulty]
HPDrainRate:4
CircleSize:3
OverallDifficulty:3
SliderMultiplier:1.3
SliderTickRate:2

[Events]
//Background and Video events
0,0,"ph-11246.jpg"
//Break Periods
//Storyboard Layer 0 (Background)
//Storyboard Layer 1 (Fail)
//Storyboard Layer 2 (Pass)
//Storyboard Layer 3 (Foreground)
//Storyboard Sound Samples
//Background Colour Transformations
3,100,163,162,255

[TimingPoints]
2900,352.941437125747,4,2,0,59,1,0

[Colours]
Combo1 : 255,255,128
Combo2 : 185,180,235
Combo3 : 206,17,50
Combo4 : 77,77,77

[HitObjects]
40,48,2904,1,0
80,48,3077,1,0
120,48,3253,1,0
120,88,3430,1,0
160,88,3606,1,0
160,128,3783,1,0
240,128,4136,1,2
320,128,4489,1,2
400,128,4842,1,2
440,128,5018,1,2
440,48,5371,1,6
440,200,5900,6,0,B|440:272,1,65
400,264,6252,2,0,B|320:264,1,65
336,224,6605,2,0,B|336:152,1,65
240,160,7136,2,2,B|240:248,2,65
192,160,7665,2,2,C|120:160|56:120|48:72,1,195
184,72,8723,6,0,B|280:72,1,65
296,72,9076,2,0,B|296:168,1,65
344,136,9429,2,0,B|392:88,1,65
480,88,9959,2,2,B|480:16,2,65
480,136,10488,2,2,B|480:240|328:240,1,195,2|2
152,304,11371,5,0
152,216,11724,1,0
152,120,12077,1,0
240,120,12430,1,2
288,120,12606,2,2,B|424:120,1,130
419,211,13312,2,2,B|419:283,1,65
328,280,13842,1,4
192,280,14194,5,0
96,280,14547,1,0
96,232,14724,1,0
96,184,14900,1,0
96,88,15253,1,2
144,88,15430,1,2
280,88,15959,2,4,B|424:88,2,130
424,256,17194,5,0
384,232,17371,1,0
344,256,17547,1,0
304,232,17724,1,0
264,256,17900,1,0
224,232,18077,1,0
128,232,18430,2,2,B|128:152,2,65
80,232,18959,2,2,B|-32:64|88:24,1,195,0|0
248,88,20018,5,0
280,112,20194,1,0
320,88,20371,1,0
352,112,20547,1,0
392,88,20724,1,0
424,112,20900,1,0
464,192,21253,2,2,B|520:256,2,65
416,192,21782,2,0,B|360:288|256:304,1,195
128,280,22665,5,0
128,184,23018,1,0
128,88,23371,1,0
208,48,23724,1,2
256,48,23900,1,2
304,48,24077,2,2,B|384:48,1,65
368,136,24606,1,2
368,184,24783,1,2
440,232,25136,1,6
440,336,25489,5,0
392,336,25665,1,0
344,336,25842,1,0
296,336,26018,2,0,B|208:336,1,65,0|2
232,288,26371,1,2
232,240,26547,1,2
232,192,26724,1,2
232,144,26900,2,0,B|232:32|232:0|368:0|432:0|432:112|80:80,1,520,2|4
424,144,29371,5,0
328,144,29724,1,0
232,144,30077,1,0
136,144,30430,1,0
72,80,30783,1,0
72,200,31136,1,0
72,288,31489,1,2
120,288,31665,1,2
352,224,32547,5,0
384,192,32724,1,2
352,168,32900,1,0
384,136,33077,1,2
80,48,33958,5,0
80,136,34311,1,2
168,136,34664,1,0
168,224,35017,1,2
256,224,35370,1,0
288,192,35547,1,0
320,224,35723,1,2
352,192,35900,1,2
152,80,36782,5,0
56,80,37135,1,0
104,160,37488,1,0
192,160,37841,1,0
280,160,38194,1,2
328,160,38370,1,2
416,160,38723,1,0
40,48,39606,5,0
128,48,39959,1,0
216,48,40312,1,0
216,136,40665,1,0
216,224,41018,1,2
264,224,41194,1,2
216,136,41547,1,2
440,160,42430,5,0
440,64,42783,1,2
392,64,42958,2,0,B|304:64,1,65
280,64,43312,1,0
232,64,43489,1,2
144,64,43841,2,2,B|88:64|80:112,3,65,2|0|2|4
296,168,45253,5,0
296,256,45606,1,0
200,256,45959,1,0
200,168,46312,1,0
120,208,46665,1,2
72,208,46842,1,2
72,120,47194,1,6
296,120,48076,6,0,C|448:120,1,130
424,216,48783,1,0
384,240,48959,1,2
344,216,49136,1,0
256,216,49488,2,0,B|192:216|200:248,3,65,0|2|0|2
432,72,50900,5,0
344,72,51253,1,0
296,72,51430,1,0
248,72,51606,1,0
152,72,51959,1,2
104,72,52136,1,2
104,120,52312,1,2
152,120,52489,1,2
152,208,52842,1,4
368,280,53724,5,0
368,184,54077,1,0
320,184,54253,1,0
320,136,54430,1,0
224,136,54783,1,2
224,184,54959,1,2
224,232,55136,1,2
176,232,55312,1,2
80,232,55665,1,6
184,32,56547,5,0
232,32,56724,1,0
280,32,56900,1,0
328,32,57077,1,0
328,80,57253,1,4
328,168,57606,1,2
280,168,57783,1,2
184,168,58136,1,0
184,216,58312,1,0
184,264,58489,1,0
136,264,58665,1,0
40,264,59018,1,2
40,216,59194,1,2
256,192,59370,12,4,61841
448,72,62195,5,0
360,72,62547,1,0
264,72,62900,1,0
168,72,63253,1,0
168,160,63606,1,2
168,208,63783,1,2
256,208,64136,1,4
424,56,65018,5,0
336,56,65370,2,0,B|256:56,1,65,0|2
240,88,65723,2,0,B|192:144,1,65,0|2
224,168,66076,2,0,B|296:232,1,65,0|2
248,248,66429,2,0,B|200:296,3,65,0|2|2|6
64,288,67489,5,0
64,200,67842,1,0
144,152,68195,1,0
144,64,68547,1,0
232,64,68900,1,0
232,152,69253,1,2
280,152,69430,1,2
304,64,69783,1,4
376,280,70664,6,0,C|296:280,7,65,0|0|0|0|0|0|0|0
264,280,72076,1,0
264,232,72253,1,0
264,184,72430,1,0
264,136,72606,1,4
56,48,73489,5,0
144,48,73842,1,0
232,48,74195,1,0
320,48,74547,1,0
408,48,74900,1,2
408,96,75077,1,2
408,184,75430,1,2
72,280,76312,5,0
160,280,76665,1,0
192,248,76842,1,0
224,280,77018,1,0
312,280,77371,1,2
344,248,77547,1,2
376,280,77724,1,2
408,248,77900,1,2
408,152,78253,1,4
256,320,79136,5,0
168,320,79488,1,0
168,272,79664,1,0
168,224,79842,1,0
168,128,80195,1,2
168,80,80371,1,2
256,80,80724,1,0
304,80,80900,1,0
352,80,81076,1,0
400,80,81253,1,0
400,168,81606,1,0
352,168,81783,1,0
368,208,81958,6,0,C|184:208,1,130
128,216,82664,2,0,C|128:80,1,130
32,88,83370,1,0
80,88,83547,1,0
168,88,83900,2,0,C|376:88,1,195
360,176,84782,5,2
360,224,84958,1,2
360,272,85135,1,2
312,272,85311,1,2
264,272,85488,1,2
216,272,85664,1,2
320,120,86371,5,0
280,104,86547,1,0
240,120,86724,1,0
192,104,86900,1,0
152,120,87077,1,0
112,104,87253,1,0
80,136,87430,1,0
80,184,87605,2,2,C|80:256,3,65
216,248,88665,1,4
