osu file format v12

[General]
AudioFilename: mondaiji.mp3
AudioLeadIn: 1000
PreviewTime: 51320
Countdown: 0
SampleSet: Soft
StackLeniency: 0.7
Mode: 0
LetterboxInBreaks: 0

[Editor]
DistanceSpacing: 1.3
BeatDivisor: 4
GridSize: 4

[Metadata]
Title:To Be Continued? (TV Size)
TitleUnicode:To Be Continued? (TV Size)
Artist:Sadohara Kaori
ArtistUnicode:佐土原かおり
Creator:yanlu
Version:Normal
Source:Mondaiji tachi ga Isekai kara Kuru soudesuyo?
Tags:ending ed kuro usagi black rabbit Problem Children Are Coming from Another World, Aren't They? Studio Barcelona Diomedea
BeatmapID:222262
BeatmapSetID:79698

[Difficulty]
HPDrainRate:4
CircleSize:3
OverallDifficulty:4
ApproachRate:5
SliderMultiplier:1.1
SliderTickRate:2

[Events]
//Background and Video events
0,0,"bg.jpg",0,0
Video,1265,"ED.avi"
//Break Periods
//Storyboard Layer 0 (Background)
//Storyboard Layer 1 (Fail)
//Storyboard Layer 2 (Pass)
//Storyboard Layer 3 (Foreground)
Sprite,Foreground,Centre,"bg.jpg",320,240 F,0,90917,,0
//Storyboard Sound Samples
//Background Colour Transformations
3,100,163,162,255

[TimingPoints]
1397,480,4,2,3,40,1,0
35957,-125,4,2,2,30,0,0
43637,-100,4,2,1,45,0,0
51317,-80,4,2,1,60,0,1
66197,-80,4,2,1,50,0,0
66677,-80,4,2,1,60,0,1
82037,-100,4,2,1,40,0,0

[Colours]
Combo1 : 128,255,128
Combo2 : 243,183,177
Combo3 : 170,194,230
Combo4 : 255,255,128

[HitObjects]
88,132,1397,2,0,L|144:132,1,55,8|8,0:0|0:0,0:0:0:0:
200,192,1877,2,0,L|256:192,1,55
336,192,2357,2,0,P|412:208|456:280,1,165
384,320,3317,6,0,L|328:320,1,55,8|8,0:0|0:0,0:0:0:0:
256,276,3797,2,0,L|200:276,1,55
156,348,4277,2,0,P|116:280|152:208,1,165
104,140,5237,5,12,0:0:0:0:
104,140,5477,2,0,P|156:124|204:148,1,110,0|0,0:0|0:0,0:0:0:0:
256,212,6197,2,0,P|308:240|384:228,1,137.5,8|0,0:0|0:0,0:0:0:0:
384,104,7157,5,8,0:0:0:0:
384,104,7397,2,0,P|329:102|290:139,1,110,0|0,0:0|0:0,0:0:0:0:
256,212,8117,2,0,P|213:253|137:262,1,137.5,8|0,0:0|0:0,0:0:0:0:
13,258,9077,6,0,L|1:314,2,55,2|0|2,0:0|0:0|0:0,0:0:0:0:
12,176,9797,1,0,0:0:0:0:
64,112,10037,2,0,B|144:96|144:96|192:128,1,137.5,8|0,0:0|0:0,0:0:0:0:
256,232,10997,6,0,P|308:248|360:232,1,110,2|8,0:0|0:0,0:0:0:0:
464,104,11957,2,0,P|412:88|360:104,1,110,2|8,0:0|0:0,0:0:0:0:
464,232,12917,5,12,0:0:0:0:
464,232,13157,2,0,L|412:332,1,110,0|0,0:0|0:0,0:0:0:0:
332,328,13877,2,0,P|268:304|204:328,1,137.5,8|0,0:0|0:0,0:0:0:0:
88,288,14837,5,8,0:0:0:0:
88,288,15077,2,0,L|140:188,1,110,0|0,0:0|0:0,0:0:0:0:
220,192,15797,2,0,P|284:216|348:192,1,137.5,8|0,0:0|0:0,0:0:0:0:
281,89,16757,6,0,L|226:89,2,55,2|0|2,0:0|0:0|0:0,0:0:0:0:
320,16,17477,1,0,0:0:0:0:
400,36,17717,2,0,B|448:104|448:104|448:160,1,137.5,8|0,0:0|0:0,0:0:0:0:
444,280,18677,6,0,P|392:296|340:280,1,110,2|8,0:0|0:0,0:0:0:0:
236,152,19637,2,0,P|288:136|340:152,1,110,2|8,0:0|0:0,0:0:0:0:
192,228,20597,5,12,0:0:0:0:
108,228,20837,2,0,L|48:228,2,55,0|2|0,0:0|0:0|0:0,0:0:0:0:
148,300,21557,2,0,P|220:308|268:264,1,137.5,8|0,0:0|0:0,0:0:0:0:
320,156,22517,5,8,0:0:0:0:
404,156,22757,2,0,L|464:156,2,55,0|2|0,0:0|0:0|0:0,0:0:0:0:
364,84,23477,2,0,P|292:76|244:120,1,137.5,8|0,0:0|0:0,0:0:0:0:
224,239,24437,6,0,L|167:239,2,55,2|0|2,0:0|0:0|0:0,0:0:0:0:
296,280,25157,1,0,0:0:0:0:
352,340,25397,2,0,P|288:360|228:328,1,137.5,8|0,0:0|0:0,0:0:0:0:
108,296,26357,6,0,P|92:244|108:192,1,110,2|8,0:0|0:0,0:0:0:0:
236,88,27317,2,0,P|252:140|236:192,1,110,2|8,0:0|0:0,0:0:0:0:
400,192,28277,5,12,0:0:0:0:
400,108,28517,2,0,L|400:52,2,55,0|2|0,0:0|0:0|0:0,0:0:0:0:
472,148,29237,2,0,P|480:216|436:268,1,137.5,8|0,0:0|0:0,0:0:0:0:
328,212,30197,5,8,0:0:0:0:
328,296,30437,2,0,L|328:352,2,55,0|2|0,0:0|0:0|0:0,0:0:0:0:
256,256,31157,2,0,P|248:188|292:136,1,137.5,8|0,0:0|0:0,0:0:0:0:
408,108,32117,6,0,L|464:108,1,55,8|0,0:0|0:0,0:0:0:0:
488,188,32597,2,0,L|432:188,1,55,2|0,0:0|0:0,0:0:0:0:
388,256,33077,2,0,P|312:292|256:288,1,137.5,8|0,0:0|0:0,0:0:0:0:
256,164,34037,6,0,P|216:132|160:132,1,110,2|8,0:0|0:0,0:0:0:0:
56,260,34997,2,0,P|96:292|152:292,1,110,2|8,0:0|0:0,0:0:0:0:
276,244,35957,6,0,B|329:224|329:224|385:281|479:253|486:178,1,264,6|2,0:0|0:0,0:0:0:0:
464,115,37637,1,0,0:0:0:0:
408,80,37877,2,0,P|368:64|324:68,2,88,2|0|8,0:0|0:0|0:0,0:0:0:0:
256,208,39557,5,0,0:0:0:0:
192,192,39797,2,0,P|98:261|189:320,1,264,2|2,0:0|0:0,0:0:0:0:
256,328,41477,1,0,0:0:0:0:
320,347,41717,2,0,P|344:355|384:343,2,66,2|0|0,0:0|0:0|0:0,0:0:0:0:
346,285,42677,2,0,P|324:248|280:232,1,88,8|0,0:0|0:0,0:0:0:0:
256,144,43637,6,0,P|256:92|212:56,1,110,4|8,0:0|0:0,0:0:0:0:
132,40,44357,2,0,P|132:92|176:128,1,110,0|2,0:0|0:0,0:0:0:0:
174,213,45077,2,0,P|150:213|118:225,1,55,8|0,0:0|0:0,0:0:0:0:
160,296,45557,6,0,P|212:296|248:252,1,110,2|8,0:0|0:0,0:0:0:0:
261,171,46277,2,0,P|209:171|173:215,1,110,0|2,0:0|0:0,0:0:0:0:
88,216,46997,2,0,P|84:188|72:164,1,55,8|0,0:0|0:0,0:0:0:0:
132,104,47477,6,0,B|164:100|164:100|164:44|236:20|304:40|304:104|304:104|340:108,1,275,6|2,0:0|0:0,0:0:0:0:
344,192,48917,2,0,L|416:192,1,55,8|0,0:0|0:0,0:0:0:0:
480,192,49397,6,0,P|448:256|360:272,1,165,2|0,0:0|0:0,0:0:0:0:
277,262,50357,2,0,L|225:242,2,55,2|0|8,0:0|0:0|0:0,0:0:0:0:
232,335,51077,1,2,0:0:0:0:
145,335,51317,6,0,P|97:287|73:223,1,137.5,6|8,0:0|0:0,0:0:0:0:
97,136,52037,1,0,0:0:0:0:
160,200,52277,2,0,P|192:260|256:280,1,137.5,2|8,0:0|0:0,0:0:0:0:
256,192,52997,6,0,B|232:140|276:108|256:56,2,137.5,2|0|2,0:0|0:0|0:0,0:0:0:0:
336,152,54197,2,0,P|344:224|300:268,1,137.5,2|8,0:0|0:0,0:0:0:0:
256,344,54917,1,0,0:0:0:0:
210,267,55157,6,0,P|168:224|176:152,1,137.5,2|8,0:0|0:0,0:0:0:0:
220,76,55877,2,0,P|262:119|254:191,1,137.5,2|2,0:0|0:0,0:0:0:0:
300,268,56597,1,8,0:0:0:0:
346,345,56837,1,0,0:0:0:0:
256,344,57077,6,0,B|216:368|164:316|124:344,2,137.5,2|8|2,0:0|0:0|0:0,0:0:0:0:
100,260,58517,2,0,L|32:260,1,68.75,8|0,0:0|0:0,0:0:0:0:
4,176,58997,6,0,B|80:176|80:176|84:144|112:124,1,137.5,2|8,0:0|0:0,0:0:0:0:
280,192,59957,1,2,0:0:0:0:
332,120,60197,1,0,0:0:0:0:
420,104,60437,1,8,0:0:0:0:
496,152,60677,6,0,P|480:264|428:340,1,206.25,2|8,0:0|0:0,0:0:0:0:
340,340,61637,2,0,P|312:324|296:292,1,68.75,2|2,0:0|0:0,0:0:0:0:
332,208,62117,2,0,P|360:224|376:256,2,68.75,0|8|0,0:0|0:0|0:0,0:0:0:0:
244,192,62837,6,0,B|203:137|203:137|204:68,1,137.5,2|8,0:0|0:0,0:0:0:0:
292,54,63557,1,2,0:0:0:0:
348,124,63797,2,0,B|348:193|348:193|308:248,1,137.5,2|8,0:0|0:0,0:0:0:0:
238,303,64517,1,0,0:0:0:0:
320,340,64757,6,0,B|384:328|397:277|397:277|420:256,1,137.5,2|8,0:0|0:0,0:0:0:0:
484,192,65477,1,0,0:0:0:0:
420,128,65717,2,0,B|397:106|397:106|384:56|320:44,1,137.5,2|8,0:0|0:0,0:0:0:0:
144,76,66677,6,0,P|96:120|116:184,1,137.5,4|8,0:0|0:0,0:0:0:0:
202,205,67397,1,2,0:0:0:0:
138,268,67638,2,0,P|104:324|36:328,1,137.5,2|8,0:0|0:0,0:0:0:0:
48,240,68357,6,0,B|8:208|44:152|0:116,2,137.5,2|0|2,0:0|0:0|0:0,0:0:0:0:
124,192,69557,2,0,P|140:124|192:84,1,137.5,2|8,0:0|0:0,0:0:0:0:
256,144,70277,1,0,0:0:0:0:
320,84,70517,6,0,P|372:124|388:192,1,137.5,2|8,0:0|0:0,0:0:0:0:
476,168,71237,2,0,P|461:232|406:275,1,137.5,2|2,0:0|0:0,0:0:0:0:
324,241,71957,1,8,0:0:0:0:
280,164,72197,1,0,0:0:0:0:
320,84,72437,6,0,B|370:52|394:116|450:96,2,137.5,2|8|2,0:0|0:0|0:0,0:0:0:0:
148,128,73877,2,0,L|80:128,1,68.75,8|0,0:0|0:0,0:0:0:0:
56,216,74357,6,0,B|132:216|132:216|140:248|172:264,1,137.5,2|8,0:0|0:0,0:0:0:0:
338,200,75317,1,2,0:0:0:0:
418,242,75557,1,0,0:0:0:0:
459,162,75797,1,8,0:0:0:0:
382,114,76037,6,0,B|250:122|250:122|182:94,1,206.25,2|8,0:0|0:0,0:0:0:0:
176,184,76997,2,0,P|140:187|114:208,1,68.75,2|2,0:0|0:0,0:0:0:0:
176,277,77477,2,0,P|210:272|236:251,2,68.75,0|8|0,0:0|0:0|0:0,0:0:0:0:
88,296,78197,6,0,B|44:272|44:272|4:192,1,137.5,2|8,0:0|0:0,0:0:0:0:
4,104,78917,1,2,0:0:0:0:
84,144,79157,2,0,B|116:208|116:208|177:233,1,137.5,2|8,0:0|0:0,0:0:0:0:
256,192,79877,1,0,0:0:0:0:
336,232,80117,6,0,B|356:170|319:133|319:133|312:103,1,137.5,2|8,0:0|0:0,0:0:0:0:
256,36,80837,1,0,0:0:0:0:
199,103,81077,2,0,B|192:133|192:133|155:170|176:232,2,137.5,2|8|6,0:0|0:0|0:0,0:0:0:0:
