osu file format v12

[General]
AudioFilename: Sadohara Kaori - To Be Continued (TV Size).mp3
AudioLeadIn: 0
PreviewTime: 51315
Countdown: 0
SampleSet: Soft
StackLeniency: 0.7
Mode: 0
LetterboxInBreaks: 0

[Editor]
DistanceSpacing: 0.7
BeatDivisor: 4
GridSize: 4

[Metadata]
Title:To Be Continued? (TV Size)
TitleUnicode:To Be Continued? (TV Size)
Artist:Sadohara Kaori
ArtistUnicode:佐土原かおり
Creator:Kirino Kousaka
Version:Saten
Source:Mondaiji-tachi ga Isekai kara Kuru Sou Desu yo?
Tags:ending saten-san Kuro Usagi Problem Children Are Coming from Another World, Aren't They? Studio Barcelona Diomedea
BeatmapID:230976
BeatmapSetID:81223

[Difficulty]
HPDrainRate:7
CircleSize:4
OverallDifficulty:7
ApproachRate:8
SliderMultiplier:2
SliderTickRate:2

[Events]
//Background and Video events
0,0,"BG.jpg",0,0
Video,966,"video.avi"
//Break Periods
//Storyboard Layer 0 (Background)
//Storyboard Layer 1 (Fail)
//Storyboard Layer 2 (Pass)
//Storyboard Layer 3 (Foreground)
//Storyboard Sound Samples
//Background Colour Transformations
3,100,163,162,255

[TimingPoints]
5235,480,4,2,1,65,1,0
35955,-133.333333333333,4,2,1,65,0,0
43635,-100,4,2,1,65,0,0
50355,-100,4,2,1,65,0,0
51315,-83.3333333333333,4,2,1,65,0,1
66435,-83.3333333333333,4,2,1,65,0,0
66675,-83.3333333333333,4,2,1,65,0,1
80115,-83.3333333333333,4,2,1,35,0,1
82035,-100,4,2,1,65,0,0

[Colours]
Combo1 : 91,91,255
Combo2 : 255,179,255
Combo3 : 255,255,215
Combo4 : 218,61,61

[HitObjects]
256,60,5235,2,0,L|356:76,1,100,4|0,0:0|0:0,0:0:0:0:
256,176,5715,2,0,L|156:192,1,100,8|0,0:0|0:0,0:0:0:0:
184,328,6195,1,2,0:0:0:0:
328,328,6435,1,0,0:0:0:0:
328,328,6555,1,0,0:0:0:0:
328,328,6675,1,0,0:0:0:0:
328,328,6795,2,0,P|384:294|400:216,1,150,8|4,0:0|0:0,0:0:0:0:
304,112,7395,5,0,0:0:0:0:
399,215,7635,1,8,0:0:0:0:
256,192,7875,1,0,0:0:0:0:
399,215,8115,2,0,L|448:128,1,100,2|0,0:0|0:0,0:0:0:0:
448,127,8475,2,0,L|416:32,1,100,0|8,0:0|0:0,0:0:0:0:
95,32,9075,5,4,0:0:0:0:
176,148,9315,1,0,0:0:0:0:
68,52,9555,1,8,0:0:0:0:
149,168,9795,1,0,0:0:0:0:
41,72,10035,2,0,L|40:172,1,100,2|0,0:0|0:0,0:0:0:0:
52,180,10395,1,0,0:0:0:0:
64,188,10515,1,0,0:0:0:0:
76,196,10635,2,0,L|228:196,1,150,8|8,0:0|0:0,0:0:0:0:
332,108,11235,5,0,0:0:0:0:
332,108,11355,1,0,0:0:0:0:
332,108,11475,1,8,0:0:0:0:
180,276,11715,1,0,0:0:0:0:
180,276,11835,1,0,0:0:0:0:
180,276,11955,2,0,P|139:249|117:201,1,100,8|0,0:0|0:0,0:0:0:0:
256,236,12435,1,8,0:0:0:0:
256,236,12915,6,0,P|308:224|348:200,1,100,4|0,0:0|0:0,0:0:0:0:
256,96,13395,2,0,L|156:96,1,100,8|0,0:0|0:0,0:0:0:0:
80,212,13875,1,2,0:0:0:0:
120,348,14115,1,0,0:0:0:0:
120,348,14235,1,0,0:0:0:0:
120,348,14355,1,0,0:0:0:0:
120,348,14475,2,0,P|200:356|256:320,1,150,8|4,0:0|0:0,0:0:0:0:
256,180,15075,5,0,0:0:0:0:
256,319,15315,1,8,0:0:0:0:
256,180,15555,1,0,0:0:0:0:
256,319,15795,1,2,0:0:0:0:
392,348,16035,2,0,L|420:304,1,50
336,193,16395,2,0,L|256:320,1,150,8|4,0:0|0:0,0:0:0:0:
116,340,16995,5,0,0:0:0:0:
200,228,17235,1,8,0:0:0:0:
88,144,17475,1,0,0:0:0:0:
196,56,17715,2,0,L|296:56,1,100,2|0,0:0|0:0,0:0:0:0:
308,64,18075,1,0,0:0:0:0:
320,72,18195,1,0,0:0:0:0:
332,80,18315,2,0,P|328:132|256:192,1,150,8|8,0:0|0:0,0:0:0:0:
123,237,18915,6,0,L|88:144,1,100,0|8,0:0|0:0,0:0:0:0:
168,32,19395,1,0,0:0:0:0:
256,142,19635,2,0,L|256:192,1,50,8|8,0:0|0:0,0:0:0:0:
372,272,19995,2,0,L|400:228,2,50,8|8|8,0:0|0:0|0:0,0:0:0:0:
256,352,20475,5,8,0:0:0:0:
256,352,20595,2,0,P|200:352|160:336,1,100,4|0,0:0|0:0,0:0:0:0:
256,232,21075,2,0,P|216:192|199:152,1,100,8|0,0:0|0:0,0:0:0:0:
256,24,21555,1,8,0:0:0:0:
396,48,21795,1,8,0:0:0:0:
428,84,21915,1,8,0:0:0:0:
436,132,22035,1,0,0:0:0:0:
424,180,22155,2,0,L|324:200,1,100,8|8,0:0|0:0,0:0:0:0:
256,192,22515,6,0,L|256:92,1,100,4|0,0:0|0:0,0:0:0:0:
120,124,22995,2,0,L|120:224,1,100,8|0,0:0|0:0,0:0:0:0:
248,280,23475,2,0,P|300:272|332:240,1,100,8|8,0:0|0:0,0:0:0:0:
384,288,23835,2,0,P|360:328|316:356,1,100,8|8,0:0|0:0,0:0:0:0:
268,364,24195,1,0,0:0:0:0:
220,360,24315,1,0,0:0:0:0:
180,332,24435,6,0,L|180:232,1,100,4|0,0:0|0:0,0:0:0:0:
256,116,24915,1,8,0:0:0:0:
332,232,25155,1,0,0:0:0:0:
368,196,25275,1,0,0:0:0:0:
404,160,25395,2,0,L|372:64,1,100,8|8,0:0|0:0,0:0:0:0:
440,44,25755,2,0,L|472:140,1,100,8|8,0:0|0:0,0:0:0:0:
472,280,26235,6,0,L|436:316,1,50,8|8,0:0|0:0,0:0:0:0:
304,356,26595,1,0,0:0:0:0:
256,344,26715,1,0,0:0:0:0:
224,308,26835,1,8,0:0:0:0:
256,172,27075,2,0,L|256:120,2,50,0|0|8,0:0|0:0|0:0,0:0:0:0:
328,292,27555,1,8,0:0:0:0:
400,172,27795,1,8,0:0:0:0:
472,292,28035,5,8,0:0:0:0:
472,292,28155,1,8,0:0:0:0:
472,292,28275,2,0,P|440:336|396:352,1,100,4|0,0:0|0:0,0:0:0:0:
256,312,28755,1,8,0:0:0:0:
113,351,28995,1,0,0:0:0:0:
256,312,29235,2,0,P|284:272|284:220,1,100,8|8,0:0|0:0,0:0:0:0:
252,184,29595,1,8,0:0:0:0:
204,180,29715,1,0,0:0:0:0:
160,200,29835,2,0,P|108:188|72:156,1,100,8|8,0:0|0:0,0:0:0:0:
116,100,30195,6,0,L|208:60,1,100,4|0,0:0|0:0,0:0:0:0:
396,100,30675,2,0,L|304:60,1,100,8|0,0:0|0:0,0:0:0:0:
304,60,31035,1,8,0:0:0:0:
304,60,31155,1,8,0:0:0:0:
256,192,31395,1,8,0:0:0:0:
256,192,31515,2,0,L|344:240,1,100,8|8,0:0|0:0,0:0:0:0:
256,348,31995,5,8,0:0:0:0:
256,348,32115,2,0,P|204:328|172:292,1,100,4|0,0:0|0:0,0:0:0:0:
80,192,32595,2,0,P|132:172|164:136,1,100,8|0,0:0|0:0,0:0:0:0:
72,32,33075,2,0,L|0:100,1,100,8|8,0:0|0:0,0:0:0:0:
8,152,33435,1,8,0:0:0:0:
16,200,33555,1,0,0:0:0:0:
28,248,33675,2,0,P|72:276|120:280,1,100,8|0,0:0|0:0,0:0:0:0:
172,232,34035,6,0,P|152:188|160:136,1,100,8|0,0:0|0:0,0:0:0:0:
340,232,34515,2,0,P|360:188|352:136,1,100,8|0,0:0|0:0,0:0:0:0:
256,36,34995,1,8,0:0:0:0:
120,76,35235,1,8,0:0:0:0:
76,104,35355,1,8,0:0:0:0:
60,152,35475,1,8,0:0:0:0:
72,200,35595,1,8,0:0:0:0:
112,228,35715,1,0,0:0:0:0:
160,232,35835,1,0,0:0:0:0:
204,208,35955,6,0,L|256:152,1,75.0000028610231,6|0,0:0|0:0,0:0:0:0:
348,200,36435,2,0,P|328:264|256:292,2,150.000005722046,0|2|0,0:0|0:0|0:0,0:0:0:0:
256,152,37635,5,0,0:0:0:0:
164,200,37875,2,0,L|132:268,1,75.0000028610231,2|0,0:0|0:0,0:0:0:0:
52,200,38355,2,0,L|84:132,1,75.0000028610231
160,60,38835,2,0,P|229:86|256:152,1,150.000005722046,2|0,0:0|0:0,0:0:0:0:
256,260,39555,5,0,0:0:0:0:
332,332,39795,2,0,P|372:328|404:316,1,75.0000028610231,2|0,0:0|0:0,0:0:0:0:
376,216,40275,2,0,P|340:152|344:76,2,150.000005722046,0|2|0,0:0|0:0|0:0,0:0:0:0:
256,260,41475,5,0,0:0:0:0:
136,216,41715,2,0,P|86:243|64:292,1,112.500004291535,2|0,0:0|0:0,0:0:0:0:
63,292,42195,2,0,L|124:336,1,75.0000028610231
256,348,42675,6,0,L|296:316,2,50.0000019073487,8|8|8,0:0|0:0|0:0,0:0:0:0:
192,288,43155,2,0,L|152:256,2,50.0000019073487,8|8|8,0:0|0:0|0:0,0:0:0:0:
256,192,43635,6,0,L|360:192,1,100,4|0,0:0|0:0,0:0:0:0:
392,56,44115,1,8,0:0:0:0:
256,16,44355,1,0,0:0:0:0:
120,56,44595,2,0,L|92:100,1,50,8|8,0:0|0:0,0:0:0:0:
128,136,44835,2,0,L|116:184,1,50,0|8,0:0|0:0,0:0:0:0:
160,208,45075,2,0,L|160:260,1,50,8|0,0:0|0:0,0:0:0:0:
200,288,45315,2,0,P|236:320|284:340,1,100,8|8,0:0|0:0,0:0:0:0:
400,260,45795,5,0,0:0:0:0:
280,192,46035,1,8,0:0:0:0:
400,124,46275,2,0,L|384:76,1,50,8|0,0:0|0:0,0:0:0:0:
381,59,46515,2,0,L|328:36,1,50,8|8,0:0|0:0,0:0:0:0:
319,36,46755,2,0,L|272:52,1,50,0|8,0:0|0:0,0:0:0:0:
256,60,46995,2,0,L|256:160,1,100,8|8,0:0|0:0,0:0:0:0:
352,264,47475,5,8,0:0:0:0:
160,264,47715,1,2,0:0:0:0:
364,284,47955,1,8,0:0:0:0:
148,284,48195,1,2,0:0:0:0:
376,304,48435,1,8,0:0:0:0:
136,304,48675,1,2,0:0:0:0:
388,324,48915,1,8,0:0:0:0:
124,324,49155,1,2,0:0:0:0:
256,372,49395,5,8,0:0:0:0:
168,200,49635,1,8,0:0:0:0:
256,372,49875,1,8,0:0:0:0:
344,200,50115,1,8,0:0:0:0:
120,76,50355,5,8,0:0:0:0:
160,48,50475,1,8,0:0:0:0:
208,32,50595,1,8,0:0:0:0:
256,24,50715,1,8,0:0:0:0:
304,32,50835,1,8,0:0:0:0:
352,48,50955,1,8,0:0:0:0:
392,76,51075,1,8,0:0:0:0:
256,192,51315,5,4,0:0:0:0:
120,308,51555,1,0,0:0:0:0:
120,308,51675,1,8,0:0:0:0:
120,308,51795,2,0,P|72:268|52:216,1,119.999996337891,0|8,0:0|0:0,0:0:0:0:
116,116,52275,5,8,0:0:0:0:
144,148,52395,1,0,0:0:0:0:
184,156,52515,1,0,0:0:0:0:
224,164,52635,1,8,0:0:0:0:
256,192,52755,1,8,0:0:0:0:
256,312,52995,1,8,0:0:0:0:
364,360,53235,6,0,P|420:336|444:284,1,119.999996337891,8|0,0:0|0:0,0:0:0:0:
443,284,53595,1,8,0:0:0:0:
443,284,53715,1,0,0:0:0:0:
376,184,53955,1,8,0:0:0:0:
256,192,54195,2,0,P|192:192|144:164,1,119.999996337891,8|0,0:0|0:0,0:0:0:0:
141,159,54555,1,8,0:0:0:0:
138,153,54675,2,0,L|138:33,1,119.999996337891,0|8,0:0|0:0,0:0:0:0:
256,64,55155,5,8,0:0:0:0:
374,33,55395,1,0,0:0:0:0:
256,64,55635,1,8,0:0:0:0:
140,32,55875,1,8,0:0:0:0:
256,64,56115,2,0,P|302:134|256:208,1,179.999994506836,8|8,0:0|0:0,0:0:0:0:
256,207,56595,2,0,P|231:260|256:312,1,119.999996337891,0|8,0:0|0:0,0:0:0:0:
372,344,57075,5,8,0:0:0:0:
476,288,57315,1,0,0:0:0:0:
484,248,57435,1,8,0:0:0:0:
476,208,57555,1,0,0:0:0:0:
456,172,57675,1,0,0:0:0:0:
416,156,57795,2,0,L|296:156,1,119.999996337891,8|8,0:0|0:0,0:0:0:0:
180,192,58275,2,0,L|144:240,2,59.9999981689454,0|8|0,0:0|0:0|0:0,0:0:0:0:
256,100,58755,1,8,0:0:0:0:
152,40,58995,6,0,P|92:52|48:88,1,119.999996337891,10|0,0:0|0:0,0:0:0:0:
47,88,59355,1,8,0:0:0:0:
47,88,59475,1,0,0:0:0:0:
28,208,59715,2,0,L|48:264,1,59.9999981689454,8|0,0:0|0:0,0:0:0:0:
88,272,59955,2,0,L|140:300,1,59.9999981689454,8|0,0:0|0:0,0:0:0:0:
371,300,60315,5,8,0:0:0:0:
371,300,60435,2,0,P|408:248|412:192,1,119.999996337891,0|8,0:0|0:0,0:0:0:0:
308,132,60915,1,8,0:0:0:0:
188,140,61155,1,0,0:0:0:0:
188,140,61275,1,8,0:0:0:0:
188,140,61395,2,0,P|156:88|156:28,1,119.999996337891,0|8,0:0|0:0,0:0:0:0:
276,16,61875,5,8,0:0:0:0:
316,28,61995,1,0,0:0:0:0:
348,56,62115,1,0,0:0:0:0:
360,96,62235,1,8,0:0:0:0:
348,136,62355,1,0,0:0:0:0:
256,252,62595,1,8,0:0:0:0:
164,136,62835,5,8,0:0:0:0:
56,192,63075,1,0,0:0:0:0:
164,136,63315,1,8,0:0:0:0:
56,192,63555,1,8,0:0:0:0:
56,192,63675,2,0,P|63:252|100:296,1,119.999996337891,8|8,0:0|0:0,0:0:0:0:
220,312,64155,1,8,0:0:0:0:
220,312,64275,2,0,L|220:192,1,119.999996337891,8|8,0:0|0:0,0:0:0:0:
256,76,64755,5,8,0:0:0:0:
372,100,64995,2,0,L|424:132,1,59.9999981689454,0|8,0:0|0:0,0:0:0:0:
420,172,65235,2,0,L|440:228,1,59.9999981689454,8|8,0:0|0:0,0:0:0:0:
412,260,65475,2,0,L|384:312,1,59.9999981689454
344,324,65715,1,8,0:0:0:0:
256,240,65955,1,0,0:0:0:0:
256,240,66075,1,0,0:0:0:0:
256,240,66195,2,0,P|192:224|140:232,1,119.999996337891,8|0,0:0|0:0,0:0:0:0:
84,124,66675,6,0,P|128:80|184:64,1,119.999996337891,4|0,0:0|0:0,0:0:0:0:
182,64,67035,1,8,0:0:0:0:
182,64,67155,1,0,0:0:0:0:
256,156,67395,1,8,0:0:0:0:
200,256,67635,2,0,P|135:294|48:253,1,179.999994506836,8|8,0:0|0:0,0:0:0:0:
47,253,68115,2,0,P|88:206|97:150,1,119.999996337891,8|8,0:0|0:0,0:0:0:0:
68,32,68595,5,8,0:0:0:0:
181,64,68835,2,0,L|232:32,2,59.9999981689454,0|8|0,0:0|0:0|0:0,0:0:0:0:
256,156,69315,1,8,0:0:0:0:
196,260,69555,6,0,P|248:288|312:292,1,119.999996337891,8|0,0:0|0:0,0:0:0:0:
307,292,69915,2,0,P|328:236|368:192,1,119.999996337891,8|0,0:0|0:0,0:0:0:0:
367,192,70275,2,0,P|424:220|480:208,1,119.999996337891,8|8,0:0|0:0,0:0:0:0:
468,88,70755,5,0,0:0:0:0:
468,88,70875,1,8,0:0:0:0:
468,88,70995,2,0,L|360:32,1,119.999996337891,0|8,0:0|0:0,0:0:0:0:
256,88,71475,2,0,L|256:208,1,119.999996337891,8|0,0:0|0:0,0:0:0:0:
256,208,71835,1,8,0:0:0:0:
256,208,71955,1,0,0:0:0:0:
164,284,72195,5,8,0:0:0:0:
44,268,72435,2,0,P|24:208|44:156,1,119.999996337891,8|0,0:0|0:0,0:0:0:0:
84,140,72795,1,8,0:0:0:0:
124,124,72915,1,0,0:0:0:0:
164,112,73035,1,0,0:0:0:0:
204,100,73155,1,8,0:0:0:0:
244,88,73275,1,0,0:0:0:0:
284,76,73395,2,0,L|344:96,3,59.9999981689454,8|0|0|8,0:0|0:0|0:0|0:0,0:0:0:0:
372,124,73875,2,0,P|380:188|360:240,1,119.999996337891,0|8,0:0|0:0,0:0:0:0:
256,292,74355,5,10,0:0:0:0:
136,280,74595,2,0,L|80:260,1,59.9999981689454,0|8,0:0|0:0,0:0:0:0:
80,216,74835,2,0,L|136:196,1,59.9999981689454
136,152,75075,2,0,L|80:132,1,59.9999981689454,8|0,0:0|0:0,0:0:0:0:
76,88,75315,2,0,L|196:88,1,119.999996337891,8|0,0:0|0:0,0:0:0:0:
196,88,75675,1,8,0:0:0:0:
196,88,75795,1,0,0:0:0:0:
256,192,76035,1,8,0:0:0:0:
200,296,76275,5,8,0:0:0:0:
220,332,76395,1,0,0:0:0:0:
260,348,76515,1,0,0:0:0:0:
300,344,76635,1,8,0:0:0:0:
336,320,76755,2,0,L|356:264,3,59.9999981689454,0|0|8|0,0:0|0:0|0:0|0:0,0:0:0:0:
364,220,77235,1,8,0:0:0:0:
360,180,77355,1,0,0:0:0:0:
336,144,77475,1,0,0:0:0:0:
296,128,77595,1,8,0:0:0:0:
256,124,77715,2,0,L|136:124,1,119.999996337891,0|8,0:0|0:0,0:0:0:0:
36,192,78195,5,12,0:0:0:0:
120,280,78435,1,0,0:0:0:0:
36,192,78675,1,8,0:0:0:0:
120,280,78915,1,8,0:0:0:0:
120,280,79035,2,0,P|176:268|220:224,1,119.999996337891,8|8,0:0|0:0,0:0:0:0:
392,280,79515,1,8,0:0:0:0:
392,280,79635,2,0,P|336:268|292:224,1,119.999996337891,8|8,0:0|0:0,0:0:0:0:
256,192,80115,12,4,82035,0:0:0:0:
