osu file format v12

[General]
AudioFilename: Sadohara Kaori - To Be Continued (TV Size).mp3
AudioLeadIn: 0
PreviewTime: 51315
Countdown: 0
SampleSet: Soft
StackLeniency: 0.7
Mode: 0
LetterboxInBreaks: 0

[Editor]
DistanceSpacing: 0.8
BeatDivisor: 4
GridSize: 4

[Metadata]
Title:To Be Continued? (TV Size)
TitleUnicode:To Be Continued? (TV Size)
Artist:Sadohara Kaori
ArtistUnicode:佐土原かおり
Creator:Kirino Kousaka
Version:Normal
Source:Mondaiji-tachi ga Isekai kara Kuru Sou Desu yo?
Tags:ending saten-san Kuro Usagi Problem Children Are Coming from Another World, Aren't They? Studio Barcelona Diomedea
BeatmapID:225601
BeatmapSetID:81223

[Difficulty]
HPDrainRate:3
CircleSize:3
OverallDifficulty:4
ApproachRate:4
SliderMultiplier:1.4
SliderTickRate:2

[Events]
//Background and Video events
0,0,"BG.jpg",0,0
Video,966,"video.avi"
//Break Periods
//Storyboard Layer 0 (Background)
//Storyboard Layer 1 (Fail)
//Storyboard Layer 2 (Pass)
//Storyboard Layer 3 (Foreground)
//Storyboard Sound Samples
//Background Colour Transformations
3,100,163,162,255

[TimingPoints]
5235,480,4,2,1,65,1,0
35955,-133.333333333333,4,2,1,65,0,0
43635,-100,4,2,1,65,0,0
51315,-100,4,2,1,65,0,1
66435,-100,4,2,1,65,0,0
66675,-100,4,2,1,65,0,1
82035,-100,4,2,1,65,0,0

[Colours]
Combo1 : 91,91,255
Combo2 : 255,179,255
Combo3 : 255,255,215
Combo4 : 218,61,61

[HitObjects]
256,304,5235,2,0,P|336:320|424:304,1,140,4|8,0:0|0:0,0:0:0:0:
460,228,6195,2,0,P|376:176|280:204,1,175,2|8,0:0|0:0,0:0:0:0:
224,208,7155,5,4,0:0:0:0:
116,244,7635,1,8,0:0:0:0:
60,148,8115,2,0,P|140:84|216:104,1,175,2|8,0:0|0:0,0:0:0:0:
240,172,9075,6,0,L|184:224,2,70,4|0|8,0:0|0:0|0:0,0:0:0:0:
332,232,10035,2,0,P|412:176|392:84,1,175,2|8,0:0|0:0,0:0:0:0:
328,72,10995,6,0,P|284:128|196:140,1,140,4|4,0:0|0:0,0:0:0:0:
216,32,11955,2,0,P|151:48|107:104,1,140,4|4,0:0|0:0,0:0:0:0:
44,196,12915,6,0,P|80:268|160:296,1,140,4|8,0:0|0:0,0:0:0:0:
184,284,13635,1,0,0:0:0:0:
232,252,13875,2,0,P|296:212|368:272,1,175,2|8,0:0|0:0,0:0:0:0:
316,336,14835,6,0,P|428:328|440:312,1,140,4|8,0:0|0:0,0:0:0:0:
456,260,15555,1,0,0:0:0:0:
456,204,15795,2,0,B|432:144|388:144|348:144|320:72,1,175,2|8,0:0|0:0,0:0:0:0:
244,96,16755,5,4,0:0:0:0:
136,72,17235,2,0,L|148:156,1,70,8|0,0:0|0:0,0:0:0:0:
152,196,17715,2,0,P|144:284|236:320,1,175,2|8,0:0|0:0,0:0:0:0:
292,308,18675,6,0,B|340:292|376:316|376:316|396:280|432:260,1,140,4|4,0:0|0:0,0:0:0:0:
444,168,19635,2,0,B|396:152|360:176|360:176|340:140|304:120,1,140,4|4,0:0|0:0,0:0:0:0:
216,116,20595,6,0,L|176:180,1,70,4|0,0:0|0:0,0:0:0:0:
124,176,21075,2,0,L|121:251,1,70,8|0,0:0|0:0,0:0:0:0:
176,260,21555,2,0,B|232:328|232:328|316:364,1,175,2|8,0:0|0:0,0:0:0:0:
396,344,22515,6,0,L|464:280,1,70,4|0,0:0|0:0,0:0:0:0:
416,248,22995,2,0,L|444:172,1,70,8|0,0:0|0:0,0:0:0:0:
424,128,23475,2,0,P|352:96|264:136,1,175,2|8,0:0|0:0,0:0:0:0:
184,144,24435,6,0,P|152:120|108:108,2,70,4|0|8,0:0|0:0|0:0,0:0:0:0:
112,228,25395,2,0,P|164:264|268:244,1,175,2|8,0:0|0:0,0:0:0:0:
256,160,26355,6,0,B|300:140|328:152|328:152|356:140|400:160,1,140,4|4,0:0|0:0,0:0:0:0:
472,236,27315,2,0,B|428:256|400:244|400:244|372:256|328:236,1,140,4|4,0:0|0:0,0:0:0:0:
288,340,28275,6,0,P|176:352|148:340,1,140,4|8,0:0|0:0,0:0:0:0:
176,292,28995,1,0,0:0:0:0:
196,240,29235,2,0,B|120:200|92:240|20:192,1,175,2|8,0:0|0:0,0:0:0:0:
84,132,30195,6,0,P|156:116|204:60,1,140,4|8,0:0|0:0,0:0:0:0:
256,68,30915,1,0,0:0:0:0:
312,55,31155,2,0,P|404:80|400:160,1,175,2|8,0:0|0:0,0:0:0:0:
332,188,32115,5,4,0:0:0:0:
436,228,32595,1,8,0:0:0:0:
396,332,33075,1,2,0:0:0:0:
292,292,33555,1,8,0:0:0:0:
292,292,34035,6,0,P|240:340|160:348,1,140,4|4,0:0|0:0,0:0:0:0:
172,240,34995,2,0,P|109:224|45:184,1,140,4|4,0:0|0:0,0:0:0:0:
24,80,35955,6,0,B|92:68|148:104|124:144|104:104|164:68|224:84,1,210.000008010865,2|0,0:0|0:0,0:0:0:0:
344,68,37635,1,0,0:0:0:0:
344,68,37875,2,0,B|412:132|412:132|412:196|472:232,1,210.000008010865,2|0,0:0|0:0,0:0:0:0:
356,292,39555,5,0,0:0:0:0:
356,292,39795,2,0,B|304:320|256:288|256:288|208:260|152:288,1,210.000008010865,2|0,0:0|0:0,0:0:0:0:
100,172,41475,5,0,0:0:0:0:
100,172,41715,2,0,L|64:248,2,78.7500030040742,2|0|0,0:0|0:0|0:0,0:0:0:0:
112,132,42675,2,0,B|160:92|160:92|180:40,1,105.000004005432,0|8,0:0|0:0,0:0:0:0:
256,132,43635,6,0,P|316:96|412:96,1,140,4|8,0:0|0:0,0:0:0:0:
324,184,44595,2,0,P|412:234|408:251,1,140,0|8,0:0|0:0,0:0:0:0:
308,292,45555,6,0,P|248:328|152:328,1,140,4|8,0:0|0:0,0:0:0:0:
236,236,46515,2,0,P|147:185|151:168,1,140,0|8,0:0|0:0,0:0:0:0:
256,192,47475,12,4,49395,0:0:0:0:
100,320,50355,6,0,L|64:252,1,70,2|0,0:0|0:0,0:0:0:0:
96,208,50835,2,0,L|64:136,1,70,8|0,0:0|0:0,0:0:0:0:
104,104,51315,6,0,P|196:108|248:140,1,140,4|8,0:0|0:0,0:0:0:0:
292,228,52275,2,0,P|200:224|148:192,1,140,2|8,0:0|0:0,0:0:0:0:
88,288,53235,2,0,L|64:364,2,70,2|2|8,0:0|0:0|0:0,0:0:0:0:
196,256,54195,6,0,P|176:208|112:180,2,105,2|8|8,0:0|0:0|0:0,0:0:0:0:
192,312,55155,2,0,B|256:284|300:316|300:316|340:288,1,140,2|8,0:0|0:0,0:0:0:0:
276,200,56115,2,0,B|297:184|297:184|341:216|405:188,1,140,2|8,0:0|0:0,0:0:0:0:
508,144,57075,6,0,P|500:104|480:76,1,70,2|0,0:0|0:0,0:0:0:0:
440,48,57555,2,0,P|392:48|352:76,1,70,8|2,0:0|0:0,0:0:0:0:
312,152,58275,2,0,P|236:136|180:96,1,140,2|0,0:0|0:0,0:0:0:0:
132,80,58995,6,0,P|108:172|132:216,1,140,2|8,0:0|0:0,0:0:0:0:
236,208,59955,2,0,P|260:300|236:344,1,140,2|8,0:0|0:0,0:0:0:0:
188,324,60675,2,0,P|88:316|40:212,1,210,2|8,0:0|0:0,0:0:0:0:
148,196,61875,2,0,L|100:64,1,140,2|8,0:0|0:0,0:0:0:0:
212,72,62835,6,0,P|268:60|304:72,1,70,2|0,0:0|0:0,0:0:0:0:
324,96,63315,1,8,0:0:0:0:
400,176,63795,2,0,P|484:188|492:196,2,70,2|0|8,0:0|0:0|0:0,0:0:0:0:
316,252,64755,6,0,P|228:256|164:216,1,140,2|8,0:0|0:0,0:0:0:0:
208,184,65475,1,2,0:0:0:0:
236,136,65715,2,0,P|191:113|103:117,1,140,4|8,0:0|0:0,0:0:0:0:
72,224,66675,5,4,0:0:0:0:
72,224,67155,2,0,P|96:272|180:296,2,140,8|2|8,0:0|0:0|0:0,0:0:0:0:
180,192,68595,2,0,P|200:156|228:136,2,70,2|2|8,0:0|0:0|0:0,0:0:0:0:
284,232,69555,2,0,P|268:300|228:320,2,105,2|8|8,0:0|0:0|0:0,0:0:0:0:
340,232,70515,6,0,P|320:160|348:80,1,140,2|8,0:0|0:0,0:0:0:0:
416,16,71475,2,0,P|436:88|408:168,1,140,2|8,0:0|0:0,0:0:0:0:
440,264,72435,1,2,0:0:0:0:
336,304,72915,2,0,B|272:312|272:312|252:352|204:356,2,140,8|2|8,0:0|0:0|0:0,0:0:0:0:
376,200,74355,6,0,B|312:180|312:180|224:192,1,140,2|8,0:0|0:0,0:0:0:0:
204,236,75075,1,0,0:0:0:0:
176,284,75315,2,0,B|120:332|120:332|52:336,1,140,2|8,0:0|0:0,0:0:0:0:
48,280,76035,2,0,P|56:160|132:96,1,210,2|8,0:0|0:0,0:0:0:0:
228,116,77235,2,0,L|236:24,2,70,2|2|8,0:0|0:0|0:0,0:0:0:0:
332,156,78195,6,0,P|404:160|428:172,1,70,2|0,0:0|0:0,0:0:0:0:
424,212,78675,1,8,0:0:0:0:
324,260,79155,2,0,P|360:276|384:312,1,70,2|0,0:0|0:0,0:0:0:0:
372,356,79635,1,8,0:0:0:0:
264,328,80115,2,0,P|216:336|172:320,1,70,2|0,0:0|0:0,0:0:0:0:
152,300,80595,2,0,P|132:244|148:216,1,70,8|0,0:0|0:0,0:0:0:0:
172,196,81075,5,8,0:0:0:0:
256,120,81555,1,8,0:0:0:0:
340,196,82035,1,4,0:0:0:0:
