osu file format v12

[General]
AudioFilename: Sadohara Kaori - To Be Continued (TV Size).mp3
AudioLeadIn: 0
PreviewTime: 51315
Countdown: 0
SampleSet: Soft
StackLeniency: 0.7
Mode: 0
LetterboxInBreaks: 0

[Editor]
DistanceSpacing: 1
BeatDivisor: 4
GridSize: 4

[Metadata]
Title:To Be Continued? (TV Size)
TitleUnicode:To Be Continued? (TV Size)
Artist:Sadohara Kaori
ArtistUnicode:佐土原かおり
Creator:Kirino Kousaka
Version:Hard
Source:Mondaiji-tachi ga Isekai kara Kuru Sou Desu yo?
Tags:ending saten-san Kuro Usagi Problem Children Are Coming from Another World, Aren't They? Studio Barcelona Diomedea
BeatmapID:225588
BeatmapSetID:81223

[Difficulty]
HPDrainRate:6
CircleSize:3
OverallDifficulty:6
ApproachRate:7
SliderMultiplier:1.8
SliderTickRate:2

[Events]
//Background and Video events
0,0,"BG.jpg",0,0
Video,966,"video.avi"
//Break Periods
//Storyboard Layer 0 (Background)
//Storyboard Layer 1 (Fail)
//Storyboard Layer 2 (Pass)
//Storyboard Layer 3 (Foreground)
//Storyboard Sound Samples
//Background Colour Transformations
3,100,163,162,255

[TimingPoints]
5235,480,4,2,1,65,1,0
35955,-133.333333333333,4,2,1,65,0,0
43635,-100,4,2,1,65,0,0
51315,-100,4,2,1,65,0,1
66435,-100,4,2,1,65,0,0
66675,-100,4,2,1,65,0,1
82035,-100,4,2,1,65,0,0

[Colours]
Combo1 : 91,91,255
Combo2 : 255,179,255
Combo3 : 255,255,215
Combo4 : 218,61,61

[HitObjects]
56,152,5235,2,0,L|124:80,1,90,4|2,0:0|0:0,0:0:0:0:
208,92,5715,2,0,L|292:48,1,90,8|2,0:0|0:0,0:0:0:0:
328,132,6195,2,0,L|444:188,1,90,0|2,0:0|0:0,0:0:0:0:
424,212,6555,1,0,0:0:0:0:
376,288,6795,2,0,L|228:320,1,135,8|4,0:0|0:0,0:0:0:0:
192,240,7395,6,0,P|148:288|84:296,1,90,2|8,0:0|0:0,0:0:0:0:
76,288,7755,1,0,0:0:0:0:
36,256,7875,1,2,0:0:0:0:
16,160,8115,2,0,P|104:112|128:112,1,90,2|0,0:0|0:0,0:0:0:0:
140,128,8475,1,8,0:0:0:0:
224,152,8715,2,0,P|296:124|352:64,1,135,8|4,0:0|0:0,0:0:0:0:
384,160,9315,6,0,P|428:192|440:244,1,90,2|8,0:0|0:0,0:0:0:0:
352,248,9795,2,0,L|296:332,1,90,2|0,0:0|0:0,0:0:0:0:
204,340,10275,1,0,0:0:0:0:
156,344,10395,2,0,L|32:356,1,90,2|8,0:0|0:0,0:0:0:0:
96,192,10995,5,4,0:0:0:0:
420,192,11475,1,4,0:0:0:0:
256,44,11955,1,4,0:0:0:0:
256,340,12435,1,4,0:0:0:0:
420,192,12915,6,0,B|388:136|388:136|356:116,1,90,4|2,0:0|0:0,0:0:0:0:
332,204,13395,2,0,B|364:260|364:260|396:280,1,90,8|2,0:0|0:0,0:0:0:0:
340,352,13875,2,0,B|280:344|280:344|248:324,1,90,0|2,0:0|0:0,0:0:0:0:
216,308,14235,2,0,B|168:288|168:288|112:288,1,90,0|8,0:0|0:0,0:0:0:0:
364,76,14835,5,4,0:0:0:0:
364,76,15075,1,2,0:0:0:0:
284,120,15315,1,8,0:0:0:0:
284,120,15555,1,2,0:0:0:0:
364,164,15795,2,0,P|364:248|340:288,1,90,0|2,0:0|0:0,0:0:0:0:
340,292,16155,2,0,P|276:304|240:288,1,90,0|8,0:0|0:0,0:0:0:0:
138,120,16755,6,0,L|180:200,1,90,4|2,0:0|0:0,0:0:0:0:
115,259,17235,2,0,L|72:180,1,90,8|2,0:0|0:0,0:0:0:0:
188,312,17715,2,0,L|312:348,1,90,0|2,0:0|0:0,0:0:0:0:
320,348,18075,1,0,0:0:0:0:
408,328,18315,2,0,B|460:268|460:268|468:192,1,135,8|4,0:0|0:0,0:0:0:0:
380,188,18915,1,2,0:0:0:0:
300,144,19155,6,0,B|248:112|216:120|216:120|176:128|132:88,2,180,4|4|4,0:0|0:0|0:0,0:0:0:0:
380,188,20355,1,2,0:0:0:0:
476,188,20595,6,0,P|456:240|416:280,1,90,4|2,0:0|0:0,0:0:0:0:
340,264,21075,2,0,P|360:212|382:187,1,90,8|2,0:0|0:0,0:0:0:0:
264,332,21555,2,0,P|200:320|144:292,1,90,0|2,0:0|0:0,0:0:0:0:
140,288,21915,2,0,P|96:240|80:196,1,90,0|8,0:0|0:0,0:0:0:0:
380,120,22515,6,0,P|408:176|404:232,1,90,4|2,0:0|0:0,0:0:0:0:
320,200,22995,2,0,L|320:248|320:304,1,90,8|2,0:0|0:0,0:0:0:0:
252,352,23475,2,0,P|224:296|228:240,1,90,0|8,0:0|0:0,0:0:0:0:
216,224,23835,2,0,B|164:212|164:212|132:176,1,90,0|8,0:0|0:0,0:0:0:0:
344,304,24435,6,0,L|424:212,1,90,4|2,0:0|0:0,0:0:0:0:
320,200,24915,2,0,L|343:80,1,90,8|2,0:0|0:0,0:0:0:0:
176,200,25395,2,0,L|152:80,1,90,0|2,0:0|0:0,0:0:0:0:
112,104,25755,2,0,P|72:104|44:144,1,90,0|8,0:0|0:0,0:0:0:0:
392,324,26355,6,0,B|320:340|276:272|276:272|240:340,1,180,4|4,0:0|0:0,0:0:0:0:
120,324,27315,2,0,B|192:340|236:272|236:272|272:340,1,180,4|4,0:0|0:0,0:0:0:0:
460,64,28275,6,0,P|436:124|376:152,1,90,4|2,0:0|0:0,0:0:0:0:
364,68,28755,1,8,0:0:0:0:
460,64,28995,1,2,0:0:0:0:
364,68,29235,2,0,L|252:96,1,90,0|2,0:0|0:0,0:0:0:0:
232,88,29595,2,0,L|144:66,1,90,0|8,0:0|0:0,0:0:0:0:
76,240,30195,6,0,P|168:220|260:244,1,180,4|8,0:0|0:0,0:0:0:0:
336,264,30915,1,2,0:0:0:0:
412,220,31155,2,0,P|456:152|456:108,1,90,0|2,0:0|0:0,0:0:0:0:
457,144,31515,2,0,P|404:112|380:72,1,90,0|8,0:0|0:0,0:0:0:0:
256,72,32115,5,4,0:0:0:0:
168,52,32355,1,2,0:0:0:0:
168,140,32595,1,8,0:0:0:0:
80,120,32835,1,2,0:0:0:0:
76,208,33075,2,0,B|124:260|124:260|164:276,1,90,0|8,0:0|0:0,0:0:0:0:
188,268,33435,2,0,B|205:260|205:260|253:208,1,90,0|8,0:0|0:0,0:0:0:0:
460,104,34035,6,0,L|460:288,1,180,4|8,0:0|0:0,0:0:0:0:
52,280,34995,2,0,L|52:100,1,180,4|8,0:0|0:0,0:0:0:0:
392,192,35955,6,0,P|400:136|260:176,1,270.000010299683,2|2,0:0|0:0,0:0:0:0:
432,344,37635,1,0,0:0:0:0:
376,308,37875,1,2,0:0:0:0:
320,348,38115,1,0,0:0:0:0:
268,304,38355,1,0,0:0:0:0:
220,352,38595,2,0,P|120:352|40:288,1,202.500007724762,2|0,0:0|0:0,0:0:0:0:
80,236,39555,1,0,0:0:0:0:
120,180,39795,6,0,P|112:124|252:164,1,270.000010299683,2|2,0:0|0:0,0:0:0:0:
460,324,41475,1,0,0:0:0:0:
460,324,41715,2,0,L|360:368,2,101.250003862381,2|0|0,0:0|0:0|0:0,0:0:0:0:
312,284,42675,6,8,L|360:264,2,45.0000017166138
272,260,43155,2,8,L|224:280,2,45.0000017166138
228,216,43635,6,0,B|156:164|156:164|106:172|68:144,1,180,4|8,0:0|0:0,0:0:0:0:
132,80,44355,2,0,L|244:60,1,90,0|2,0:0|0:0,0:0:0:0:
312,64,44835,2,0,L|400:79,2,90,0|8|0,0:0|0:0|0:0,0:0:0:0:
440,192,45555,5,2,0:0:0:0:
384,264,45795,1,0,0:0:0:0:
328,332,46035,1,8,0:0:0:0:
276,256,46275,2,0,P|232:244|188:256,1,90,0|2,0:0|0:0,0:0:0:0:
144,332,46755,2,0,P|100:344|56:332,2,90,0|8|0,0:0|0:0|0:0,0:0:0:0:
100,244,47475,5,4,0:0:0:0:
256,192,47595,12,4,49395,0:0:0:0:
156,92,50355,6,0,L|156:140,3,45,8|0|8|8,0:0|0:0|0:0|0:0,0:0:0:0:
200,148,50835,2,0,L|200:200,3,45,8|0|8|8,0:0|0:0|0:0|0:0,0:0:0:0:
248,184,51315,6,0,P|304:196|392:260,1,135,4|8,0:0|0:0,0:0:0:0:
384,280,51795,2,0,P|340:320|284:340,1,90,8|8,0:0|0:0,0:0:0:0:
228,300,52275,2,0,P|164:268|72:272,1,135,2|8,0:0|0:0,0:0:0:0:
60,244,52755,2,0,P|36:168|40:128,1,90,8|8,0:0|0:0,0:0:0:0:
84,84,53235,5,2,0:0:0:0:
256,36,53475,1,10,0:0:0:0:
428,84,53715,1,8,0:0:0:0:
352,132,53955,2,0,P|384:164|460:176,1,90,0|2,0:0|0:0,0:0:0:0:
460,308,54555,1,8,0:0:0:0:
460,308,54915,6,0,P|400:304|344:272,1,90,8|4,0:0|0:0,0:0:0:0:
312,228,55395,2,0,P|244:208|196:224,1,90,0|8,0:0|0:0,0:0:0:0:
136,212,55875,2,0,P|72:172|64:140,1,90,8|8,0:0|0:0,0:0:0:0:
84,120,56235,2,0,L|136:40,1,90,0|8,0:0|0:0,0:0:0:0:
180,40,56595,2,0,P|244:56|276:56,1,90,8|8,0:0|0:0,0:0:0:0:
304,140,57075,6,0,B|388:140|388:140|448:156|460:208,1,180,2|8,0:0|0:0,0:0:0:0:
372,228,57795,1,8,0:0:0:0:
284,232,58035,2,0,B|192:232|192:232|112:276,1,180,2|8,0:0|0:0,0:0:0:0:
56,208,58755,1,8,0:0:0:0:
72,120,58995,5,4,0:0:0:0:
144,68,59235,1,2,0:0:0:0:
232,64,59475,1,8,0:0:0:0:
304,116,59715,2,0,L|332:76,2,45,8|8|2,0:0|0:0|0:0,0:0:0:0:
364,184,60195,5,0,0:0:0:0:
420,112,60435,1,8,0:0:0:0:
424,260,60675,2,0,P|256:296|124:276,1,270,2|8,0:0|0:0,0:0:0:0:
200,204,61635,2,0,L|224:112,1,90,2|2,0:0|0:0,0:0:0:0:
312,120,62115,2,0,L|340:80,2,45,0|8|8,0:0|0:0|0:0,0:0:0:0:
260,44,62595,1,8,0:0:0:0:
172,52,62835,6,0,P|100:72|84:92,1,90,4|0,0:0|0:0,0:0:0:0:
60,164,63315,2,0,P|64:228|92:264,1,90,8|8,0:0|0:0,0:0:0:0:
112,276,63675,2,0,P|160:312|224:320,1,90,8|8,0:0|0:0,0:0:0:0:
280,312,64155,1,8,0:0:0:0:
324,320,64275,2,0,P|384:316|432:288,1,90,8|8,0:0|0:0,0:0:0:0:
456,184,64755,6,0,P|376:204|332:192,1,90,12|0,0:0|0:0,0:0:0:0:
324,196,65115,1,0,0:0:0:0:
284,180,65235,2,0,P|212:156|180:120,2,90,8|0|12,0:0|0:0|0:0,0:0:0:0:
60,56,66195,1,8,0:0:0:0:
60,56,66675,6,0,P|72:148|152:172,2,180,4|8|2,0:0|0:0|0:0,0:0:0:0:
240,56,68115,1,8,0:0:0:0:
152,80,68355,2,0,P|225:105|237:197,1,180,2|2,0:0|0:0,0:0:0:0:
304,260,69075,1,8,0:0:0:0:
380,308,69315,1,0,0:0:0:0:
380,308,69555,2,0,B|420:280|420:232|420:232|460:180,2,135,2|8|8,0:0|0:0|0:0,0:0:0:0:
324,236,70515,5,2,0:0:0:0:
240,200,70755,1,0,0:0:0:0:
256,288,70995,2,0,P|220:336|176:344,2,90,8|0|2,0:0|0:0|0:0,0:0:0:0:
172,252,71715,1,0,0:0:0:0:
132,232,71835,1,8,0:0:0:0:
92,212,71955,2,0,P|108:168|152:136,1,90,8|0,0:0|0:0,0:0:0:0:
212,84,72435,6,0,B|260:108|304:92|304:92|344:112|404:92,1,180,2|8,0:0|0:0,0:0:0:0:
448,164,73155,2,0,L|468:256,1,90,0|2,0:0|0:0,0:0:0:0:
376,240,73635,2,0,P|356:288|308:332,2,90,0|8|0,0:0|0:0|0:0,0:0:0:0:
288,228,74355,2,0,P|208:276|132:208,1,180,2|8,0:0|0:0,0:0:0:0:
212,180,75075,1,0,0:0:0:0:
212,180,75315,2,0,P|132:132|56:200,1,180,2|8,0:0|0:0,0:0:0:0:
40,352,76275,5,2,0:0:0:0:
80,272,76515,2,0,P|144:268|184:244,1,90,0|8,0:0|0:0,0:0:0:0:
112,184,76995,1,0,0:0:0:0:
144,100,77235,2,0,P|200:64|244:56,2,90,2|0|8,0:0|0:0|0:0,0:0:0:0:
324,104,78195,5,2,0:0:0:0:
324,104,78435,2,0,B|376:132|376:132|400:200,1,90,0|8,0:0|0:0,0:0:0:0:
304,200,78915,2,0,L|288:260,1,45,2|8,0:0|0:0,0:0:0:0:
384,252,79275,1,8,0:0:0:0:
396,340,79515,2,0,L|320:340,1,45,2|8,0:0|0:0,0:0:0:0:
260,336,79875,1,8,0:0:0:0:
188,280,80115,6,0,L|68:324,2,90,2|0|8,0:0|0:0|0:0,0:0:0:0:
160,192,80835,1,0,0:0:0:0:
72,168,81075,5,8,0:0:0:0:
256,40,81555,1,8,0:0:0:0:
440,168,82035,1,4,0:0:0:0:
