osu file format v13

[General]
AudioFilename: Date A Live II ED - Kaori Sadohara - Day to Story.mp3
AudioLeadIn: 0
PreviewTime: 56905
Countdown: 0
SampleSet: None
StackLeniency: 0.7
Mode: 3
LetterboxInBreaks: 0
SpecialStyle: 0
WidescreenStoryboard: 1

[Editor]
DistanceSpacing: 1
BeatDivisor: 4
GridSize: 8
TimelineZoom: 1.4

[Metadata]
Title:Day to Story (TV Size)
TitleUnicode:Day to Story (TV Size)
Artist:Sadohara Kaori
ArtistUnicode:Sadohara Kaori
Creator:NaxelCL
Version:7K NM+
Source:デート・ア・ライブ Ⅱ
Tags:ending date a live 2 ed kuo_kyoka smallboat beatoifke zzhboy simple_star yuutosan remillion_cross
BeatmapID:449310
BeatmapSetID:183308

[Difficulty]
HPDrainRate:7
CircleSize:7
OverallDifficulty:8
ApproachRate:5
SliderMultiplier:1.4
SliderTickRate:1

[Events]
//Background and Video events
Video,0,"Video.avi"
0,0,"DateALivell.jpg",0,0
//Break Periods
//Storyboard Layer 0 (Background)
//Storyboard Layer 1 (Fail)
//Storyboard Layer 2 (Pass)
//Storyboard Layer 3 (Foreground)
//Storyboard Sound Samples
//Background Colour Transformations
3,100,163,162,255

[TimingPoints]
895,428.571428571429,4,2,0,0,1,0
13323,375,4,2,1,0,1,0
14073,333.333333333333,4,2,1,0,1,0
14239,333.333333333333,4,2,1,0,1,0
56905,-100,4,3,1,0,0,1
66905,-100,4,2,1,0,0,1
67572,-100,4,2,1,0,0,1
83572,-100,4,2,1,0,0,1
84572,-100,4,2,1,0,0,1
88905,-100,4,2,1,0,0,1
89238,-100,4,2,1,0,0,1
89572,-100,4,2,1,0,0,1

[HitObjects]
182,192,680,5,0,0:0:0:0:
329,192,895,1,0,0:0:0:0:
329,192,1752,1,0,0:0:0:0:
182,192,2609,1,0,0:0:0:0:
256,192,3466,1,0,0:0:0:0:
402,192,4323,1,0,0:0:0:0:
109,192,5180,1,0,0:0:0:0:
475,192,6037,1,0,0:0:0:0:
256,192,6895,1,0,0:0:0:0:
329,192,7537,1,0,0:0:0:0:
182,192,7752,1,0,0:0:0:0:
256,192,8609,1,0,0:0:0:0:
109,192,9466,1,0,0:0:0:0:
402,192,10323,1,0,0:0:0:0:
256,192,11180,128,0,12895:0:0:0:0:
475,192,12037,1,0,0:0:0:0:
36,192,12895,1,0,0:0:0:0:
109,192,13323,1,0,0:0:0:0:
329,192,13510,1,0,0:0:0:0:
475,192,13698,1,0,0:0:0:0:
182,192,13979,1,0,0:0:0:0:
402,192,14239,1,0,0:0:0:70:bassdrum.wav
36,192,14239,1,0,0:0:0:70:cymbol.wav
109,192,14572,1,0,0:0:0:70:hihat01.wav
256,192,14572,1,0,0:0:0:70:snare.wav
475,192,14739,1,0,0:0:0:70:bassdrum.wav
329,192,15072,1,0,0:0:0:70:bassdrum.wav
182,192,15238,1,0,0:0:0:70:hihat01.wav
36,192,15238,1,0,0:0:0:70:snare.wav
256,192,15572,1,0,0:0:0:70:bassdrum.wav
402,192,15572,1,0,0:0:0:70:hihat01.wav
182,192,15905,1,0,0:0:0:70:hihat01.wav
36,192,16072,1,0,0:0:0:70:bassdrum.wav
475,192,16238,1,0,0:0:0:70:hihat01.wav
109,192,16405,128,0,16905:0:0:0:70:bassdrum.wav
402,192,16572,1,0,0:0:0:70:hihat01.wav
329,192,16738,1,0,0:0:0:0:
256,192,16905,1,0,0:0:0:70:bassdrum.wav
36,192,17238,1,0,0:0:0:70:hihat01.wav
475,192,17238,1,0,0:0:0:70:snare.wav
256,192,17405,128,0,17738:0:0:0:70:bassdrum.wav
402,192,17572,1,0,0:0:0:70:hihat01.wav
109,192,17738,1,0,0:0:0:70:bassdrum.wav
182,192,17905,1,0,0:0:0:70:hihat01.wav
329,192,17905,1,0,0:0:0:70:snare.wav
36,192,18238,1,0,0:0:0:70:bassdrum.wav
475,192,18238,128,0,18572:0:0:0:70:hihat01.wav
256,192,18238,1,0,0:0:0:70:cymbol.wav
182,192,18572,1,0,0:0:0:70:hihat01.wav
329,192,18738,1,0,0:0:0:70:bassdrum.wav
109,192,19072,128,0,19405:0:0:0:70:bassdrum.wav
475,192,19238,1,0,0:0:0:70:hihat01.wav
182,192,19405,1,0,0:0:0:70:bassdrum.wav
256,192,19488,1,0,0:0:0:0:
36,192,19572,1,0,0:0:0:70:bassdrum.wav
402,192,19572,128,0,20905:0:0:0:70:cymbol.wav
182,192,19905,1,0,0:0:0:70:hihat01.wav
329,192,20072,1,0,0:0:0:70:bassdrum.wav
109,192,20072,1,0,0:0:0:0:
256,192,20405,1,0,0:0:0:70:bassdrum.wav
36,192,20572,128,0,20905:0:0:0:70:hihat01.wav
182,192,20572,1,0,0:0:0:70:snare.wav
475,192,20905,1,0,0:0:0:70:bassdrum.wav
182,192,21238,1,0,0:0:0:70:hihat01.wav
329,192,21238,1,0,0:0:0:70:snare.wav
109,192,21405,1,0,0:0:0:70:bassdrum.wav
109,192,21738,1,0,0:0:0:70:bassdrum.wav
182,192,21905,1,0,0:0:0:70:hihat01.wav
329,192,21905,1,0,0:0:0:70:snare.wav
109,192,22072,1,0,0:0:0:0:
182,192,22155,1,0,0:0:0:70:snare.wav
475,192,22238,1,0,0:0:0:70:bassdrum.wav
329,192,22238,1,0,0:0:0:70:hihat01.wav
256,192,22572,1,0,0:0:0:70:hihat01.wav
109,192,22572,1,0,0:0:0:70:snare.wav
402,192,22738,1,0,0:0:0:70:bassdrum.wav
402,192,23072,1,0,0:0:0:70:bassdrum.wav
256,192,23238,1,0,0:0:0:70:hihat01.wav
109,192,23238,1,0,0:0:0:70:snare.wav
329,192,23322,1,0,0:0:0:0:
475,192,23405,1,0,0:0:0:70:snare.wav
402,192,23488,1,0,0:0:0:70:snare.wav
36,192,23572,128,0,23905:0:0:0:0:
182,192,23572,1,0,0:0:0:0:
256,192,23905,1,0,0:0:0:70:bassdrum.wav
109,192,24072,1,0,0:0:0:70:bassdrum.wav
402,192,24072,1,0,0:0:0:70:cymbol.wav
475,192,24405,128,0,24905:0:0:0:70:bassdrum.wav
182,192,24405,1,0,0:0:0:70:cymbol.wav
256,192,24905,1,0,0:0:0:70:bassdrum.wav
182,192,25072,1,0,0:0:0:0:
109,192,25238,1,0,0:0:0:70:snare.wav
256,192,25405,1,0,0:0:0:70:hihat.wav
256,192,25738,1,0,0:0:0:70:bassdrum.wav
36,192,25905,1,0,0:0:0:70:snare.wav
475,192,25905,1,0,0:0:0:70:hihat.wav
329,192,26238,1,0,0:0:0:70:bassdrum.wav
182,192,26572,1,0,0:0:0:70:hihat.wav
402,192,26572,1,0,0:0:0:70:snare.wav
109,192,26738,1,0,0:0:0:70:bassdrum.wav
109,192,27072,1,0,0:0:0:70:bassdrum.wav
182,192,27238,1,0,0:0:0:70:hihat.wav
402,192,27238,1,0,0:0:0:0:
256,192,27405,1,0,0:0:0:70:hihat.wav
329,192,27488,1,0,0:0:0:70:hihat.wav
402,192,27572,1,0,0:0:0:70:bassdrum.wav
109,192,27738,1,0,0:0:0:70:hihat.wav
329,192,27905,1,0,0:0:0:70:hihat.wav
475,192,27905,1,0,0:0:0:70:snare.wav
256,192,28072,1,0,0:0:0:70:hihat.wav
256,192,28405,1,0,0:0:0:70:bassdrum.wav
36,192,28572,1,0,0:0:0:70:hihat.wav
475,192,28572,1,0,0:0:0:70:snare.wav
329,192,28738,1,0,0:0:0:70:hihat.wav
256,192,28822,1,0,0:0:0:0:
182,192,28905,1,0,0:0:0:70:bassdrum.wav
109,192,29238,1,0,0:0:0:70:hihat.wav
402,192,29238,1,0,0:0:0:70:snare.wav
36,192,29405,1,0,0:0:0:70:bassdrum.wav
36,192,29738,1,0,0:0:0:70:bassdrum.wav
182,192,29905,1,0,0:0:0:70:hihat.wav
475,192,29905,1,0,0:0:0:70:snare.wav
256,192,30072,1,0,0:0:0:70:hihat.wav
329,192,30155,1,0,0:0:0:70:hihat.wav
402,192,30238,1,0,0:0:0:70:bassdrum.wav
109,192,30572,1,0,0:0:0:70:hihat.wav
256,192,30572,1,0,0:0:0:70:snare.wav
329,192,30738,1,0,0:0:0:70:hihat.wav
329,192,31072,1,0,0:0:0:70:bassdrum.wav
109,192,31238,1,0,0:0:0:70:hihat.wav
475,192,31238,1,0,0:0:0:0:
256,192,31405,1,0,0:0:0:70:hihat.wav
182,192,31488,1,0,0:0:0:0:
109,192,31572,1,0,0:0:0:70:bassdrum.wav
402,192,31905,1,0,0:0:0:70:hihat.wav
329,192,31905,1,0,0:0:0:70:snare.wav
36,192,32072,1,0,0:0:0:70:bassdrum.wav
182,192,32405,1,0,0:0:0:70:bassdrum.wav
109,192,32572,1,0,0:0:0:70:hihat.wav
36,192,32572,1,0,0:0:0:70:snare.wav
402,192,32738,1,0,0:0:0:70:hihat.wav
329,192,32822,1,0,0:0:0:70:hihat.wav
256,192,32905,1,0,0:0:0:70:bassdrum.wav
182,192,33072,1,0,0:0:0:70:hihat.wav
182,192,33238,1,0,0:0:0:70:hihat.wav
475,192,33405,1,0,0:0:0:70:hihat.wav
329,192,33572,1,0,0:0:0:70:bassdrum.wav
109,192,33738,1,0,0:0:0:70:bassdrum.wav
36,192,33905,1,0,0:0:0:70:hihat.wav
402,192,33905,1,0,0:0:0:70:snare.wav
109,192,34238,1,0,0:0:0:70:snare.wav
256,192,34238,1,0,0:0:0:0:
475,192,34238,1,0,0:0:0:0:
329,192,34572,1,0,0:0:0:70:bassdrum.wav
402,192,34572,1,0,0:0:0:0:
256,192,34738,1,0,0:0:0:70:snare.wav
182,192,34738,1,0,0:0:0:0:
36,192,34738,1,0,0:0:0:0:
109,192,35072,1,0,0:0:0:70:bassdrum.wav
475,192,35072,1,0,0:0:0:0:
329,192,35238,1,0,0:0:0:40:tom01.wav
182,192,35405,1,0,0:0:0:40:tom02.wav
36,192,35572,128,0,37905:0:0:0:70:bassdrum.wav
475,192,35572,1,0,0:0:0:70:cymbol.wav
182,192,35905,1,0,0:0:0:70:snare.wav
329,192,36072,1,0,0:0:0:70:hihat.wav
402,192,36238,1,0,0:0:0:70:bassdrum.wav
256,192,36405,1,0,0:0:0:70:bassdrum.wav
475,192,36572,1,0,0:0:0:70:snare.wav
329,192,36738,1,0,0:0:0:70:hihat.wav
256,192,36905,1,0,0:0:0:70:bassdrum.wav
402,192,37238,1,0,0:0:0:70:snare.wav
329,192,37405,1,0,0:0:0:70:bassdrum.wav
256,192,37738,1,0,0:0:0:70:bassdrum.wav
182,192,37905,1,0,0:0:0:70:snare.wav
475,192,37905,1,0,0:0:0:70:hihat.wav
256,192,38072,1,0,0:0:0:70:hihat.wav
109,192,38238,128,0,39572:0:0:0:70:bassdrum.wav
402,192,38238,1,0,0:0:0:0:
329,192,38572,1,0,0:0:0:70:snare.wav
256,192,38905,1,0,0:0:0:70:bassdrum.wav
402,192,39072,1,0,0:0:0:70:bassdrum.wav
329,192,39238,1,0,0:0:0:70:hihat.wav
475,192,39405,1,0,0:0:0:70:hihat.wav
182,192,39572,1,0,0:0:0:70:bassdrum.wav
329,192,39905,1,0,0:0:0:70:snare.wav
402,192,39905,1,0,0:0:0:70:hihat.wav
36,192,39905,1,0,0:0:0:0:
256,192,40072,1,0,0:0:0:70:bassdrum.wav
109,192,40072,1,0,0:0:0:40:hihat01.wav
182,192,40405,1,0,0:0:0:70:bassdrum.wav
329,192,40405,1,0,0:0:0:0:
475,192,40572,1,0,0:0:0:70:snare.wav
256,192,40738,128,0,41905:0:0:0:70:snare.wav
36,192,40738,1,0,0:0:0:0:
402,192,40905,1,0,0:0:0:70:bassdrum.wav
109,192,41238,1,0,0:0:0:70:snare.wav
329,192,41405,1,0,0:0:0:70:hihat.wav
182,192,41572,1,0,0:0:0:70:bassdrum.wav
402,192,41738,1,0,0:0:0:70:bassdrum.wav
109,192,41905,1,0,0:0:0:70:snare.wav
182,192,42072,1,0,0:0:0:70:hihat.wav
475,192,42238,128,0,43572:0:0:0:70:bassdrum.wav
402,192,42238,1,0,0:0:0:70:hihat.wav
182,192,42572,1,0,0:0:0:70:snare.wav
329,192,42572,1,0,0:0:0:70:hihat.wav
109,192,42738,1,0,0:0:0:70:bassdrum.wav
256,192,43072,1,0,0:0:0:70:bassdrum.wav
182,192,43238,1,0,0:0:0:70:hihat.wav
329,192,43238,1,0,0:0:0:0:
109,192,43405,1,0,0:0:0:70:hihat.wav
36,192,43572,1,0,0:0:0:70:bassdrum.wav
256,192,43572,128,0,44905:0:0:0:70:cymbol.wav
109,192,43905,1,0,0:0:0:70:snare.wav
402,192,43905,1,0,0:0:0:70:hihat.wav
36,192,44238,1,0,0:0:0:70:bassdrum.wav
109,192,44405,1,0,0:0:0:70:bassdrum.wav
475,192,44572,128,0,44905:0:0:0:70:snare.wav
329,192,44905,1,0,0:0:0:70:bassdrum.wav
36,192,44905,1,0,0:0:0:70:cymbol.wav
109,192,45072,1,0,0:0:0:70:bassdrum.wav
402,192,45238,1,0,0:0:0:70:snare.wav
36,192,45238,1,0,0:0:0:0:
256,192,45405,1,0,0:0:0:40:tom01.wav
109,192,45572,1,0,0:0:0:70:bassdrum.wav
329,192,45738,1,0,0:0:0:40:tom02.wav
182,192,45905,1,0,0:0:0:70:snare.wav
475,192,45905,1,0,0:0:0:0:
109,192,46072,1,0,0:0:0:40:tom02.wav
36,192,46238,1,0,0:0:0:70:bassdrum.wav
402,192,46238,128,0,46905:0:0:0:70:cymbol.wav
182,192,46572,1,0,0:0:0:70:bassdrum.wav
109,192,46905,1,0,0:0:0:70:snare.wav
329,192,46905,1,0,0:0:0:0:
182,192,47238,1,0,0:0:0:70:bassdrum.wav
256,192,47238,1,0,0:0:0:0:
475,192,47405,1,0,0:0:0:70:snare.wav
329,192,47572,1,0,0:0:0:0:
402,192,47738,1,0,0:0:0:70:bassdrum.wav
256,192,47905,1,0,0:0:0:70:bassdrum.wav
182,192,48238,1,0,0:0:0:70:cymbol.wav
475,192,48238,1,0,0:0:0:70:snare.wav
109,192,48572,128,0,48905:0:0:0:70:bassdrum.wav
402,192,48572,1,0,0:0:0:70:cymbol.wav
329,192,48905,1,0,0:0:0:70:bassdrum.wav
256,192,48905,128,0,49238:0:0:0:70:cymbol.wav
475,192,49238,1,0,0:0:0:40:tom01.wav
36,192,49238,1,0,0:0:0:0:
182,192,49405,1,0,0:0:0:40:tom02.wav
109,192,49572,1,0,0:0:0:70:snare.wav
402,192,49572,1,0,0:0:0:0:
256,192,49738,1,0,0:0:0:0:
329,192,49905,1,0,0:0:0:70:snare.wav
36,192,50072,128,0,51572:0:0:0:70:bassdrum.wav
182,192,50072,1,0,0:0:0:0:
256,192,50405,1,0,0:0:0:70:snare.wav
475,192,50405,1,0,0:0:0:0:
182,192,50572,1,0,0:0:0:70:bassdrum.wav
329,192,50905,1,0,0:0:0:70:cymbol.wav
402,192,50905,1,0,0:0:0:70:snare.wav
256,192,51072,1,0,0:0:0:70:bassdrum.wav
182,192,51238,1,0,0:0:0:70:cymbol.wav
475,192,51405,1,0,0:0:0:0:
256,192,51572,1,0,0:0:0:70:bassdrum.wav
329,192,51572,1,0,0:0:0:70:cymbol.wav
402,192,51572,128,0,51905:0:0:0:0:
182,192,51905,1,0,0:0:0:70:bassdrum.wav
109,192,52072,1,0,0:0:0:0:
256,192,52238,128,0,52572:0:0:0:70:bassdrum.wav
329,192,52572,1,0,0:0:0:70:snare.wav
402,192,52738,1,0,0:0:0:0:
182,192,52905,128,0,53238:0:0:0:70:bassdrum.wav
256,192,53238,1,0,0:0:0:70:bassdrum.wav
329,192,53405,1,0,0:0:0:0:
36,192,53572,1,0,0:0:0:70:snare.wav
475,192,53572,1,0,0:0:0:0:
402,192,53572,1,0,0:0:0:0:
182,192,53738,1,0,0:0:0:40:tom02.wav
329,192,53905,1,0,0:0:0:70:snare.wav
402,192,54072,1,0,0:0:0:0:
256,192,54238,1,0,0:0:0:70:bassdrum.wav
36,192,54238,1,0,0:0:0:0:
109,192,54238,1,0,0:0:0:0:
329,192,54572,1,0,0:0:0:70:snare.wav
475,192,54572,1,0,0:0:0:0:
182,192,54738,128,0,55072:0:0:0:70:bassdrum.wav
109,192,54738,1,0,0:0:0:0:
329,192,55072,128,0,55405:0:0:0:70:bassdrum.wav
402,192,55072,1,0,0:0:0:0:
256,192,55405,1,0,0:0:0:70:bassdrum.wav
182,192,55738,1,0,0:0:0:70:bassdrum.wav
109,192,55738,1,0,0:0:0:70:snare.wav
402,192,55905,1,0,0:0:0:70:bassdrum.wav
475,192,55905,1,0,0:0:0:70:snare.wav
256,192,55905,128,0,56238:0:0:0:0:
109,192,56738,1,0,0:0:0:0:
182,192,56905,1,0,0:0:0:70:bassdrum.wav
475,192,56905,1,0,0:0:0:70:cymbol.wav
329,192,56905,1,0,0:0:0:0:
256,192,57238,1,0,0:0:0:70:hihat01.wav
109,192,57238,1,0,0:0:0:70:snare.wav
402,192,57405,1,0,0:0:0:70:bassdrum.wav
182,192,57572,1,0,0:0:0:70:hihat01.wav
329,192,57738,1,0,0:0:0:70:bassdrum.wav
36,192,57738,128,0,58072:0:0:0:0:
109,192,58072,1,0,0:0:0:0:
256,192,58238,1,0,0:0:0:70:bassdrum.wav
475,192,58238,1,0,0:0:0:70:hihat01.wav
329,192,58572,1,0,0:0:0:70:hihat01.wav
182,192,58738,1,0,0:0:0:70:bassdrum.wav
109,192,58738,128,0,59572:0:0:0:0:
402,192,59238,1,0,0:0:0:70:hihat01.wav
256,192,59238,128,0,59572:0:0:0:70:snare.wav
475,192,59572,128,0,60905:0:0:0:70:bassdrum.wav
329,192,59905,1,0,0:0:0:70:hihat01.wav
182,192,60072,1,0,0:0:0:70:bassdrum.wav
256,192,60405,1,0,0:0:0:70:bassdrum.wav
36,192,60572,1,0,0:0:0:70:hihat01.wav
182,192,60738,1,0,0:0:0:0:
329,192,60905,128,0,61238:0:0:0:70:bassdrum.wav
109,192,60905,1,0,0:0:0:70:cymbol.wav
256,192,61238,128,0,61572:0:0:0:70:hihat01.wav
36,192,61572,128,0,61905:0:0:0:70:hihat01.wav
475,192,61905,1,0,0:0:0:70:hihat01.wav
182,192,61905,1,0,0:0:0:70:snare.wav
256,192,62072,1,0,0:0:0:70:snare.wav
402,192,62238,1,0,0:0:0:70:bassdrum.wav
329,192,62238,1,0,0:0:0:70:cymbol.wav
109,192,62238,1,0,0:0:0:0:
182,192,62572,1,0,0:0:0:70:hihat01.wav
475,192,62572,1,0,0:0:0:70:snare.wav
256,192,62738,1,0,0:0:0:70:bassdrum.wav
109,192,63072,1,0,0:0:0:70:bassdrum.wav
402,192,63238,128,0,63572:0:0:0:70:hihat01.wav
329,192,63238,1,0,0:0:0:70:snare.wav
182,192,63572,1,0,0:0:0:70:bassdrum.wav
256,192,63905,1,0,0:0:0:70:hihat01.wav
329,192,63905,1,0,0:0:0:70:snare.wav
36,192,64072,1,0,0:0:0:70:bassdrum.wav
109,192,64405,1,0,0:0:0:70:bassdrum.wav
182,192,64572,1,0,0:0:0:70:hihat01.wav
329,192,64738,1,0,0:0:0:0:
475,192,64905,1,0,0:0:0:70:bassdrum.wav
109,192,64905,128,0,65238:0:0:0:70:cymbol.wav
256,192,65238,1,0,0:0:0:70:hihat01.wav
402,192,65405,1,0,0:0:0:70:bassdrum.wav
329,192,65738,1,0,0:0:0:70:bassdrum.wav
182,192,65905,1,0,0:0:0:70:hihat01.wav
475,192,65905,1,0,0:0:0:70:snare.wav
109,192,66072,128,0,66405:0:0:0:70:bassdrum.wav
256,192,66072,1,0,0:0:0:0:
329,192,66405,1,0,0:0:0:70:bassdrum.wav
402,192,66572,1,0,0:0:0:70:snare.wav
256,192,66738,1,0,0:0:0:70:bassdrum.wav
36,192,66905,1,0,0:0:0:70:snare.wav
475,192,66905,1,0,0:0:0:0:
402,192,67072,1,0,0:0:0:70:snare.wav
329,192,67238,1,0,0:0:0:40:tom01.wav
182,192,67405,1,0,0:0:0:70:bassdrum.wav
36,192,67572,128,0,69072:0:0:0:70:bassdrum.wav
475,192,67572,1,0,0:0:0:70:cymbol.wav
256,192,67572,1,0,0:0:0:0:
402,192,67905,1,0,0:0:0:70:hihat01.wav
182,192,67905,1,0,0:0:0:70:snare.wav
329,192,68072,1,0,0:0:0:70:bassdrum.wav
256,192,68238,1,0,0:0:0:70:hihat01.wav
475,192,68405,1,0,0:0:0:70:bassdrum.wav
402,192,68572,1,0,0:0:0:70:hihat01.wav
182,192,68738,1,0,0:0:0:0:
329,192,68905,1,0,0:0:0:70:bassdrum.wav
109,192,69072,1,0,0:0:0:70:bassdrum.wav
256,192,69238,1,0,0:0:0:70:hihat01.wav
475,192,69238,1,0,0:0:0:70:snare.wav
329,192,69405,1,0,0:0:0:70:bassdrum.wav
329,192,69738,1,0,0:0:0:70:bassdrum.wav
109,192,69905,1,0,0:0:0:70:hihat01.wav
256,192,69905,1,0,0:0:0:70:snare.wav
329,192,70072,1,0,0:0:0:0:
475,192,70238,1,0,0:0:0:70:bassdrum.wav
109,192,70238,128,0,71572:0:0:0:70:hihat01.wav
256,192,70572,1,0,0:0:0:70:hihat01.wav
402,192,70572,1,0,0:0:0:70:snare.wav
475,192,70738,1,0,0:0:0:70:bassdrum.wav
329,192,71072,1,0,0:0:0:70:bassdrum.wav
182,192,71238,1,0,0:0:0:70:hihat01.wav
402,192,71238,1,0,0:0:0:70:snare.wav
256,192,71405,1,0,0:0:0:0:
329,192,71572,1,0,0:0:0:70:bassdrum.wav
402,192,71738,1,0,0:0:0:70:bassdrum.wav
182,192,71905,1,0,0:0:0:70:hihat01.wav
475,192,71905,1,0,0:0:0:0:
36,192,72072,1,0,0:0:0:70:bassdrum.wav
256,192,72238,1,0,0:0:0:70:hihat01.wav
402,192,72405,1,0,0:0:0:70:bassdrum.wav
109,192,72572,1,0,0:0:0:70:hihat01.wav
329,192,72738,1,0,0:0:0:70:snare.wav
475,192,72905,1,0,0:0:0:70:bassdrum.wav
402,192,72905,1,0,0:0:0:70:cymbol.wav
256,192,72905,1,0,0:0:0:0:
182,192,72905,128,0,74238:0:0:0:0:
329,192,73238,1,0,0:0:0:70:hihat01.wav
36,192,73238,1,0,0:0:0:70:snare.wav
402,192,73405,1,0,0:0:0:70:bassdrum.wav
329,192,73738,1,0,0:0:0:70:bassdrum.wav
256,192,73905,1,0,0:0:0:70:hihat01.wav
475,192,73905,1,0,0:0:0:70:snare.wav
402,192,74072,1,0,0:0:0:0:
36,192,74238,128,0,74572:0:0:0:70:bassdrum.wav
329,192,74405,1,0,0:0:0:70:bassdrum.wav
475,192,74572,1,0,0:0:0:70:hihat01.wav
256,192,74572,1,0,0:0:0:70:snare.wav
109,192,74738,1,0,0:0:0:70:bassdrum.wav
329,192,74738,1,0,0:0:0:0:
182,192,75072,1,0,0:0:0:70:bassdrum.wav
402,192,75072,1,0,0:0:0:0:
256,192,75238,1,0,0:0:0:70:hihat01.wav
475,192,75238,1,0,0:0:0:70:snare.wav
182,192,75405,128,0,75738:0:0:0:70:bassdrum.wav
109,192,75738,1,0,0:0:0:0:
36,192,75905,1,0,0:0:0:70:hihat01.wav
329,192,76072,128,0,76405:0:0:0:0:
256,192,76405,1,0,0:0:0:70:bassdrum.wav
182,192,76572,1,0,0:0:0:70:hihat01.wav
402,192,76738,128,0,77072:0:0:0:0:
109,192,76905,1,0,0:0:0:70:bassdrum.wav
329,192,77072,1,0,0:0:0:70:bassdrum.wav
256,192,77238,1,0,0:0:0:70:cymbol.wav
475,192,77238,1,0,0:0:0:70:snare.wav
109,192,77405,1,0,0:0:0:70:bassdrum.wav
182,192,77572,1,0,0:0:0:70:hihat01.wav
329,192,77738,1,0,0:0:0:70:bassdrum.wav
256,192,77905,1,0,0:0:0:40:tom01.wav
182,192,78072,1,0,0:0:0:40:tom02.wav
109,192,78238,1,0,0:0:0:70:bassdrum.wav
329,192,78238,1,0,0:0:0:70:hihat01.wav
182,192,78572,1,0,0:0:0:70:hihat01.wav
329,192,78572,1,0,0:0:0:70:snare.wav
402,192,78905,1,0,0:0:0:70:hihat01.wav
256,192,78905,1,0,0:0:0:70:snare.wav
329,192,79072,1,0,0:0:0:70:bassdrum.wav
182,192,79238,1,0,0:0:0:70:hihat01.wav
475,192,79238,1,0,0:0:0:70:snare.wav
256,192,79405,1,0,0:0:0:70:bassdrum.wav
36,192,79572,1,0,0:0:0:70:hihat01.wav
329,192,79572,1,0,0:0:0:70:snare.wav
182,192,79905,1,0,0:0:0:70:hihat01.wav
329,192,79905,1,0,0:0:0:70:snare.wav
256,192,80238,1,0,0:0:0:70:hihat01.wav
402,192,80238,1,0,0:0:0:70:snare.wav
329,192,80405,1,0,0:0:0:70:bassdrum.wav
182,192,80572,1,0,0:0:0:70:hihat01.wav
402,192,80572,1,0,0:0:0:70:snare.wav
109,192,80738,1,0,0:0:0:70:bassdrum.wav
36,192,80905,128,0,83572:0:0:0:70:hihat01.wav
256,192,80905,1,0,0:0:0:70:snare.wav
182,192,81238,1,0,0:0:0:70:hihat01.wav
402,192,81238,1,0,0:0:0:70:snare.wav
256,192,81572,1,0,0:0:0:70:hihat01.wav
402,192,81572,1,0,0:0:0:70:snare.wav
182,192,81738,1,0,0:0:0:70:bassdrum.wav
329,192,81905,1,0,0:0:0:70:hihat01.wav
475,192,81905,1,0,0:0:0:70:snare.wav
256,192,82072,1,0,0:0:0:70:bassdrum.wav
182,192,82238,1,0,0:0:0:70:bassdrum.wav
402,192,82238,1,0,0:0:0:70:hihat01.wav
256,192,82572,1,0,0:0:0:70:hihat01.wav
329,192,82572,1,0,0:0:0:70:snare.wav
256,192,82905,1,0,0:0:0:70:snare.wav
182,192,82905,1,0,0:0:0:0:
329,192,83238,1,0,0:0:0:70:snare.wav
402,192,83238,1,0,0:0:0:0:
475,192,83405,1,0,0:0:0:40:tom02.wav
256,192,83572,1,0,0:0:0:70:bassdrum.wav
109,192,83572,128,0,84572:0:0:0:70:cymbol.wav
182,192,84572,1,0,0:0:0:70:hihat01.wav
256,192,84905,1,0,0:0:0:70:bassdrum.wav
402,192,84905,128,0,85238:0:0:0:70:cymbol.wav
182,192,85238,1,0,0:0:0:0:
109,192,85405,1,0,0:0:0:0:
256,192,85738,1,0,0:0:0:40:tom01.wav
182,192,85905,1,0,0:0:0:40:tom01.wav
329,192,85905,1,0,0:0:0:0:
182,192,86072,1,0,0:0:0:40:tom02.wav
402,192,86072,1,0,0:0:0:0:
36,192,86238,1,0,0:0:0:70:bassdrum.wav
256,192,86238,1,0,0:0:0:70:snare.wav
109,192,86238,1,0,0:0:0:0:
109,192,86405,1,0,0:0:0:70:bassdrum.wav
329,192,86405,1,0,0:0:0:70:snare.wav
402,192,86405,1,0,0:0:0:0:
475,192,86738,1,0,0:0:0:40:tom01.wav
402,192,86738,1,0,0:0:0:0:
256,192,86738,1,0,0:0:0:0:
329,192,86905,1,0,0:0:0:70:bassdrum.wav
402,192,86905,1,0,0:0:0:70:cymbol.wav
182,192,86905,1,0,0:0:0:0:
109,192,87072,1,0,0:0:0:70:bassdrum.wav
36,192,87238,1,0,0:0:0:70:bassdrum.wav
256,192,87238,1,0,0:0:0:70:cymbol.wav
182,192,87405,1,0,0:0:0:70:bassdrum.wav
475,192,87405,128,0,89572:0:0:0:70:cymbol.wav
