osu file format v13

[General]
AudioFilename: Date A Live II ED - Kaori Sadohara - Day to Story.mp3
AudioLeadIn: 0
PreviewTime: 56905
Countdown: 0
SampleSet: None
StackLeniency: 0.7
Mode: 3
LetterboxInBreaks: 0
SpecialStyle: 0
WidescreenStoryboard: 1

[Editor]
DistanceSpacing: 1
BeatDivisor: 8
GridSize: 8
TimelineZoom: 1.4

[Metadata]
Title:Day to Story (TV Size)
TitleUnicode:Day to Story (TV Size)
Artist:Sadohara Kaori
ArtistUnicode:Sadohara Kaori
Creator:NaxelCL
Version:4K HD
Source:デート・ア・ライブ Ⅱ
Tags:ending date a live 2 ed kuo_kyoka smallboat beatoifke zzhboy simple_star yuutosan remillion_cross
BeatmapID:448382
BeatmapSetID:183308

[Difficulty]
HPDrainRate:7
CircleSize:4
OverallDifficulty:7
ApproachRate:5
SliderMultiplier:1.4
SliderTickRate:1

[Events]
//Background and Video events
Video,0,"Video.avi"
0,0,"DateALivell.jpg",0,0
//Break Periods
//Storyboard Layer 0 (Background)
//Storyboard Layer 1 (Fail)
//Storyboard Layer 2 (Pass)
//Storyboard Layer 3 (Foreground)
//Storyboard Sound Samples
//Background Colour Transformations
3,100,163,162,255

[TimingPoints]
895,428.571428571429,4,2,0,0,1,0
13323,375,4,2,1,0,1,0
14073,333.333333333333,4,2,1,0,1,0
14239,333.333333333333,4,2,1,0,1,0
56905,-100,4,3,1,0,0,1
66905,-100,4,2,1,0,0,1
67572,-100,4,2,1,0,0,1
83572,-100,4,2,1,0,0,1
84572,-100,4,2,1,0,0,1
88905,-100,4,2,1,0,0,1
89238,-100,4,2,1,0,0,1
89572,-100,4,2,1,0,0,1

[HitObjects]
64,192,787,5,0,0:0:0:0:
192,192,841,1,0,0:0:0:0:
448,192,895,128,0,1752:0:0:0:0:
320,192,895,1,0,0:0:0:0:
192,192,1752,128,0,2609:0:0:0:0:
448,192,2609,128,0,3466:0:0:0:0:
64,192,3466,128,0,4323:0:0:0:0:
320,192,4323,128,0,5180:0:0:0:0:
192,192,5180,128,0,6895:0:0:0:0:
448,192,6895,128,0,7752:0:0:0:0:
64,192,7645,1,0,0:0:0:0:
192,192,7698,1,0,0:0:0:0:
320,192,7752,128,0,8609:0:0:0:0:
64,192,8609,128,0,9466:0:0:0:0:
192,192,9466,128,0,10323:0:0:0:0:
448,192,10323,128,0,11180:0:0:0:0:
64,192,11180,128,0,12895:0:0:0:0:
320,192,12037,128,0,12895:0:0:0:0:
448,192,12895,128,0,14239:0:0:0:0:
320,192,14239,1,0,0:0:0:70:bassdrum.wav
64,192,14239,1,0,0:0:0:70:cymbol.wav
192,192,14405,1,0,0:0:0:0:
448,192,14572,1,0,0:0:0:70:hihat01.wav
64,192,14572,1,0,0:0:0:70:snare.wav
320,192,14739,128,0,15072:0:0:0:70:bassdrum.wav
64,192,15072,128,0,15572:0:0:0:70:bassdrum.wav
448,192,15238,1,0,0:0:0:70:hihat01.wav
320,192,15572,1,0,0:0:0:70:bassdrum.wav
448,192,15572,128,0,15905:0:0:0:70:hihat01.wav
192,192,15905,1,0,0:0:0:70:hihat01.wav
64,192,16072,1,0,0:0:0:70:bassdrum.wav
320,192,16238,1,0,0:0:0:70:hihat01.wav
192,192,16405,128,0,16905:0:0:0:70:bassdrum.wav
448,192,16572,1,0,0:0:0:70:hihat01.wav
320,192,16738,1,0,0:0:0:0:
64,192,16905,1,0,0:0:0:70:bassdrum.wav
448,192,16905,1,0,0:0:0:70:hihat01.wav
320,192,17072,1,0,0:0:0:70:bassdrum.wav
64,192,17238,1,0,0:0:0:70:hihat01.wav
448,192,17238,1,0,0:0:0:70:snare.wav
192,192,17405,128,0,17738:0:0:0:70:bassdrum.wav
320,192,17405,1,0,0:0:0:0:
448,192,17738,128,0,18238:0:0:0:70:bassdrum.wav
64,192,17738,1,0,0:0:0:0:
320,192,17905,1,0,0:0:0:70:hihat01.wav
64,192,18238,1,0,0:0:0:70:bassdrum.wav
192,192,18238,128,0,18572:0:0:0:70:hihat01.wav
64,192,18572,1,0,0:0:0:70:hihat01.wav
320,192,18572,1,0,0:0:0:70:snare.wav
448,192,18738,1,0,0:0:0:70:bassdrum.wav
192,192,18738,1,0,0:0:0:70:cymbol.wav
320,192,19072,1,0,0:0:0:70:bassdrum.wav
64,192,19072,1,0,0:0:0:70:cymbol.wav
448,192,19072,128,0,19572:0:0:0:0:
192,192,19238,1,0,0:0:0:70:hihat01.wav
64,192,19405,1,0,0:0:0:70:bassdrum.wav
320,192,19572,1,0,0:0:0:70:bassdrum.wav
192,192,19905,1,0,0:0:0:70:hihat01.wav
64,192,19905,1,0,0:0:0:70:snare.wav
320,192,20072,1,0,0:0:0:70:bassdrum.wav
448,192,20072,128,0,20405:0:0:0:0:
64,192,20405,128,0,20738:0:0:0:70:bassdrum.wav
192,192,20405,1,0,0:0:0:0:
320,192,20572,1,0,0:0:0:70:hihat01.wav
192,192,20738,1,0,0:0:0:0:
320,192,20822,1,0,0:0:0:0:
448,192,20905,1,0,0:0:0:70:bassdrum.wav
192,192,20905,1,0,0:0:0:70:hihat01.wav
320,192,21238,1,0,0:0:0:70:hihat01.wav
64,192,21238,1,0,0:0:0:70:snare.wav
448,192,21405,1,0,0:0:0:70:bassdrum.wav
320,192,21572,1,0,0:0:0:70:hihat01.wav
64,192,21572,1,0,0:0:0:0:
320,192,21738,1,0,0:0:0:70:bassdrum.wav
192,192,21905,1,0,0:0:0:70:hihat01.wav
448,192,21905,1,0,0:0:0:70:snare.wav
64,192,21905,128,0,22238:0:0:0:0:
320,192,22238,1,0,0:0:0:70:bassdrum.wav
192,192,22238,1,0,0:0:0:70:hihat01.wav
448,192,22405,1,0,0:0:0:70:bassdrum.wav
192,192,22572,1,0,0:0:0:70:hihat01.wav
64,192,22572,1,0,0:0:0:70:snare.wav
320,192,22738,1,0,0:0:0:70:bassdrum.wav
448,192,22738,1,0,0:0:0:0:
192,192,22905,1,0,0:0:0:70:hihat01.wav
192,192,23072,1,0,0:0:0:70:bassdrum.wav
320,192,23238,1,0,0:0:0:70:hihat01.wav
64,192,23238,1,0,0:0:0:70:snare.wav
448,192,23322,1,0,0:0:0:0:
320,192,23405,1,0,0:0:0:70:snare.wav
192,192,23488,1,0,0:0:0:70:snare.wav
64,192,23572,1,0,0:0:0:0:
448,192,23572,1,0,0:0:0:0:
320,192,23738,1,0,0:0:0:70:bassdrum.wav
192,192,23905,1,0,0:0:0:70:bassdrum.wav
64,192,24072,1,0,0:0:0:70:bassdrum.wav
448,192,24072,1,0,0:0:0:70:cymbol.wav
320,192,24072,1,0,0:0:0:0:
64,192,24405,1,0,0:0:0:70:bassdrum.wav
448,192,24405,1,0,0:0:0:70:cymbol.wav
192,192,24405,128,0,24905:0:0:0:0:
64,192,24905,1,0,0:0:0:70:bassdrum.wav
320,192,25072,1,0,0:0:0:0:
448,192,25238,1,0,0:0:0:70:snare.wav
64,192,25238,1,0,0:0:0:70:hihat.wav
192,192,25405,1,0,0:0:0:70:hihat.wav
320,192,25572,1,0,0:0:0:70:bassdrum.wav
64,192,25738,1,0,0:0:0:70:bassdrum.wav
192,192,25905,1,0,0:0:0:70:snare.wav
448,192,25905,1,0,0:0:0:70:hihat.wav
320,192,26072,1,0,0:0:0:70:hihat.wav
64,192,26238,1,0,0:0:0:70:bassdrum.wav
320,192,26405,1,0,0:0:0:70:hihat.wav
192,192,26572,1,0,0:0:0:70:hihat.wav
448,192,26572,1,0,0:0:0:70:snare.wav
64,192,26738,1,0,0:0:0:70:bassdrum.wav
320,192,26905,1,0,0:0:0:70:hihat.wav
192,192,27072,1,0,0:0:0:70:bassdrum.wav
448,192,27238,1,0,0:0:0:70:hihat.wav
64,192,27238,1,0,0:0:0:0:
320,192,27405,1,0,0:0:0:70:hihat.wav
192,192,27488,1,0,0:0:0:70:hihat.wav
64,192,27572,128,0,28905:0:0:0:70:bassdrum.wav
448,192,27572,1,0,0:0:0:70:hihat.wav
320,192,27738,1,0,0:0:0:70:hihat.wav
192,192,27905,1,0,0:0:0:70:hihat.wav
448,192,27905,1,0,0:0:0:70:snare.wav
320,192,28072,1,0,0:0:0:70:hihat.wav
448,192,28238,1,0,0:0:0:70:bassdrum.wav
320,192,28405,1,0,0:0:0:70:bassdrum.wav
192,192,28572,1,0,0:0:0:70:hihat.wav
448,192,28572,1,0,0:0:0:70:snare.wav
448,192,28738,1,0,0:0:0:70:hihat.wav
320,192,28905,1,0,0:0:0:70:bassdrum.wav
192,192,29072,1,0,0:0:0:70:hihat.wav
64,192,29238,1,0,0:0:0:70:hihat.wav
448,192,29238,1,0,0:0:0:70:snare.wav
320,192,29405,1,0,0:0:0:70:bassdrum.wav
192,192,29572,1,0,0:0:0:70:hihat.wav
448,192,29738,1,0,0:0:0:70:bassdrum.wav
64,192,29905,1,0,0:0:0:70:hihat.wav
320,192,29905,1,0,0:0:0:70:snare.wav
192,192,30072,1,0,0:0:0:70:hihat.wav
320,192,30155,1,0,0:0:0:70:hihat.wav
448,192,30238,128,0,30572:0:0:0:70:bassdrum.wav
64,192,30405,1,0,0:0:0:70:hihat.wav
192,192,30572,1,0,0:0:0:70:hihat.wav
64,192,30738,128,0,31072:0:0:0:70:hihat.wav
320,192,30738,1,0,0:0:0:0:
448,192,30905,1,0,0:0:0:70:bassdrum.wav
192,192,31072,1,0,0:0:0:70:bassdrum.wav
320,192,31238,1,0,0:0:0:70:hihat.wav
448,192,31238,128,0,31572:0:0:0:0:
64,192,31405,1,0,0:0:0:70:hihat.wav
192,192,31488,1,0,0:0:0:0:
320,192,31572,1,0,0:0:0:70:bassdrum.wav
192,192,31738,1,0,0:0:0:70:hihat.wav
64,192,31905,1,0,0:0:0:70:hihat.wav
320,192,31905,1,0,0:0:0:70:snare.wav
448,192,32072,1,0,0:0:0:70:bassdrum.wav
320,192,32238,1,0,0:0:0:70:hihat.wav
64,192,32405,1,0,0:0:0:70:bassdrum.wav
192,192,32405,1,0,0:0:0:70:hihat.wav
192,192,32572,1,0,0:0:0:70:hihat.wav
448,192,32572,1,0,0:0:0:70:snare.wav
320,192,32572,1,0,0:0:0:0:
64,192,32738,1,0,0:0:0:70:hihat.wav
192,192,32822,1,0,0:0:0:70:hihat.wav
320,192,32905,1,0,0:0:0:70:bassdrum.wav
448,192,33072,1,0,0:0:0:70:hihat.wav
64,192,33238,1,0,0:0:0:70:hihat.wav
192,192,33238,1,0,0:0:0:70:snare.wav
320,192,33238,1,0,0:0:0:0:
448,192,33405,1,0,0:0:0:70:hihat.wav
192,192,33572,1,0,0:0:0:70:bassdrum.wav
320,192,33738,1,0,0:0:0:70:bassdrum.wav
64,192,33905,1,0,0:0:0:70:hihat.wav
448,192,33905,1,0,0:0:0:70:snare.wav
192,192,33988,1,0,0:0:0:0:
320,192,34072,1,0,0:0:0:70:hihat.wav
64,192,34155,1,0,0:0:0:0:
192,192,34238,1,0,0:0:0:70:snare.wav
448,192,34238,1,0,0:0:0:0:
320,192,34405,1,0,0:0:0:70:bassdrum.wav
64,192,34572,1,0,0:0:0:70:bassdrum.wav
192,192,34572,1,0,0:0:0:0:
192,192,34738,1,0,0:0:0:70:snare.wav
448,192,34738,1,0,0:0:0:0:
320,192,34738,1,0,0:0:0:0:
448,192,35072,1,0,0:0:0:70:bassdrum.wav
192,192,35072,1,0,0:0:0:0:
64,192,35072,128,0,35572:0:0:0:0:
448,192,35405,1,0,0:0:0:40:tom02.wav
320,192,35488,1,0,0:0:0:70:bassdrum.wav
448,192,35572,1,0,0:0:0:70:bassdrum.wav
192,192,35572,1,0,0:0:0:70:cymbol.wav
448,192,35738,1,0,0:0:0:70:hihat.wav
320,192,35905,1,0,0:0:0:70:snare.wav
64,192,35905,128,0,37905:0:0:0:70:hihat.wav
192,192,35905,1,0,0:0:0:0:
448,192,36072,1,0,0:0:0:70:hihat.wav
192,192,36238,1,0,0:0:0:70:bassdrum.wav
320,192,36405,1,0,0:0:0:70:bassdrum.wav
448,192,36572,1,0,0:0:0:70:snare.wav
192,192,36572,1,0,0:0:0:70:hihat.wav
448,192,36738,1,0,0:0:0:70:hihat.wav
320,192,36905,1,0,0:0:0:70:bassdrum.wav
192,192,37072,1,0,0:0:0:70:hihat.wav
320,192,37238,1,0,0:0:0:70:snare.wav
448,192,37238,1,0,0:0:0:0:
192,192,37405,1,0,0:0:0:70:bassdrum.wav
320,192,37572,1,0,0:0:0:70:hihat.wav
448,192,37738,1,0,0:0:0:70:bassdrum.wav
448,192,37905,1,0,0:0:0:70:snare.wav
192,192,37905,1,0,0:0:0:70:hihat.wav
448,192,38072,1,0,0:0:0:70:hihat.wav
320,192,38155,1,0,0:0:0:70:hihat.wav
192,192,38238,128,0,39572:0:0:0:70:bassdrum.wav
64,192,38238,1,0,0:0:0:0:
448,192,38572,1,0,0:0:0:70:snare.wav
64,192,38572,1,0,0:0:0:70:hihat.wav
320,192,38905,1,0,0:0:0:70:bassdrum.wav
320,192,39072,1,0,0:0:0:70:bassdrum.wav
448,192,39238,1,0,0:0:0:70:hihat.wav
64,192,39238,1,0,0:0:0:0:
320,192,39405,1,0,0:0:0:70:hihat.wav
64,192,39572,1,0,0:0:0:70:bassdrum.wav
448,192,39572,128,0,39905:0:0:0:70:hihat.wav
320,192,39905,1,0,0:0:0:70:snare.wav
64,192,39905,1,0,0:0:0:70:hihat.wav
448,192,40072,1,0,0:0:0:70:bassdrum.wav
192,192,40072,1,0,0:0:0:40:hihat01.wav
320,192,40405,1,0,0:0:0:70:bassdrum.wav
64,192,40405,1,0,0:0:0:0:
192,192,40572,1,0,0:0:0:70:snare.wav
448,192,40572,1,0,0:0:0:0:
320,192,40572,1,0,0:0:0:0:
64,192,40738,1,0,0:0:0:70:snare.wav
192,192,40822,1,0,0:0:0:70:snare.wav
448,192,40905,128,0,41905:0:0:0:70:bassdrum.wav
320,192,40905,1,0,0:0:0:70:cymbol.wav
192,192,41238,1,0,0:0:0:70:snare.wav
64,192,41238,1,0,0:0:0:0:
320,192,41405,1,0,0:0:0:70:hihat.wav
64,192,41572,1,0,0:0:0:70:bassdrum.wav
192,192,41738,1,0,0:0:0:70:bassdrum.wav
320,192,41905,1,0,0:0:0:70:snare.wav
64,192,41905,1,0,0:0:0:0:
192,192,41988,1,0,0:0:0:0:
448,192,42072,1,0,0:0:0:70:hihat.wav
192,192,42155,1,0,0:0:0:0:
64,192,42238,128,0,43238:0:0:0:70:bassdrum.wav
448,192,42238,1,0,0:0:0:70:hihat.wav
320,192,42572,1,0,0:0:0:70:snare.wav
192,192,42572,1,0,0:0:0:70:hihat.wav
448,192,42738,128,0,43238:0:0:0:70:bassdrum.wav
320,192,42905,1,0,0:0:0:70:hihat.wav
192,192,43072,1,0,0:0:0:70:bassdrum.wav
320,192,43238,1,0,0:0:0:70:hihat.wav
320,192,43405,1,0,0:0:0:70:hihat.wav
192,192,43488,1,0,0:0:0:0:
64,192,43572,1,0,0:0:0:70:bassdrum.wav
448,192,43572,128,0,44905:0:0:0:70:cymbol.wav
320,192,43905,1,0,0:0:0:70:snare.wav
64,192,43905,1,0,0:0:0:70:hihat.wav
192,192,44072,1,0,0:0:0:70:hihat.wav
320,192,44238,1,0,0:0:0:70:bassdrum.wav
192,192,44405,1,0,0:0:0:70:bassdrum.wav
64,192,44572,1,0,0:0:0:70:snare.wav
320,192,44572,1,0,0:0:0:0:
192,192,44905,1,0,0:0:0:70:bassdrum.wav
64,192,44905,128,0,46238:0:0:0:70:cymbol.wav
320,192,45072,1,0,0:0:0:70:bassdrum.wav
448,192,45238,1,0,0:0:0:70:snare.wav
320,192,45405,1,0,0:0:0:40:tom01.wav
320,192,45572,128,0,46238:0:0:0:70:bassdrum.wav
192,192,45572,1,0,0:0:0:0:
448,192,45905,128,0,46238:0:0:0:70:snare.wav
192,192,45905,1,0,0:0:0:0:
192,192,46238,1,0,0:0:0:70:bassdrum.wav
64,192,46572,1,0,0:0:0:70:bassdrum.wav
448,192,46905,1,0,0:0:0:70:snare.wav
320,192,46905,1,0,0:0:0:0:
192,192,46905,1,0,0:0:0:0:
64,192,47238,1,0,0:0:0:70:bassdrum.wav
320,192,47322,1,0,0:0:0:0:
448,192,47405,1,0,0:0:0:70:snare.wav
192,192,47572,128,0,48238:0:0:0:0:
448,192,47738,1,0,0:0:0:70:bassdrum.wav
320,192,47905,1,0,0:0:0:70:bassdrum.wav
64,192,48238,1,0,0:0:0:70:cymbol.wav
448,192,48238,128,0,48905:0:0:0:70:snare.wav
192,192,48572,1,0,0:0:0:70:bassdrum.wav
64,192,48905,1,0,0:0:0:70:bassdrum.wav
320,192,48905,128,0,50072:0:0:0:70:cymbol.wav
192,192,49238,1,0,0:0:0:40:tom01.wav
64,192,49572,1,0,0:0:0:70:snare.wav
448,192,49572,1,0,0:0:0:0:
192,192,49738,128,0,50072:0:0:0:0:
448,192,49905,1,0,0:0:0:70:snare.wav
64,192,50072,1,0,0:0:0:70:bassdrum.wav
64,192,50405,1,0,0:0:0:70:snare.wav
448,192,50405,1,0,0:0:0:0:
192,192,50572,1,0,0:0:0:70:bassdrum.wav
320,192,50572,1,0,0:0:0:0:
448,192,50905,1,0,0:0:0:70:cymbol.wav
64,192,50905,1,0,0:0:0:70:snare.wav
192,192,50905,1,0,0:0:0:0:
320,192,51072,1,0,0:0:0:70:bassdrum.wav
320,192,51238,1,0,0:0:0:70:cymbol.wav
192,192,51405,1,0,0:0:0:0:
64,192,51572,1,0,0:0:0:70:bassdrum.wav
448,192,51572,1,0,0:0:0:70:cymbol.wav
320,192,51905,1,0,0:0:0:70:bassdrum.wav
192,192,52072,1,0,0:0:0:0:
64,192,52238,1,0,0:0:0:70:bassdrum.wav
448,192,52572,1,0,0:0:0:70:snare.wav
320,192,52572,1,0,0:0:0:0:
192,192,52905,1,0,0:0:0:70:bassdrum.wav
64,192,52905,1,0,0:0:0:0:
448,192,53238,1,0,0:0:0:70:bassdrum.wav
192,192,53238,1,0,0:0:0:0:
320,192,53405,1,0,0:0:0:0:
64,192,53572,1,0,0:0:0:70:snare.wav
448,192,53572,1,0,0:0:0:0:
192,192,53738,1,0,0:0:0:40:tom02.wav
320,192,53905,1,0,0:0:0:70:snare.wav
192,192,54072,1,0,0:0:0:0:
64,192,54238,1,0,0:0:0:70:bassdrum.wav
448,192,54238,1,0,0:0:0:0:
320,192,54238,1,0,0:0:0:0:
64,192,54405,1,0,0:0:0:70:bassdrum.wav
192,192,54572,1,0,0:0:0:70:snare.wav
448,192,54572,1,0,0:0:0:0:
320,192,54572,1,0,0:0:0:0:
64,192,54738,128,0,55072:0:0:0:70:bassdrum.wav
320,192,54738,1,0,0:0:0:0:
320,192,55072,128,0,55405:0:0:0:70:bassdrum.wav
448,192,55072,1,0,0:0:0:0:
192,192,55238,1,0,0:0:0:70:snare.wav
192,192,55405,128,0,56238:0:0:0:70:bassdrum.wav
64,192,55405,1,0,0:0:0:0:
320,192,55738,1,0,0:0:0:70:bassdrum.wav
64,192,55738,1,0,0:0:0:70:snare.wav
448,192,55905,128,0,56572:0:0:0:70:bassdrum.wav
192,192,56738,1,0,0:0:0:0:
64,192,56905,1,0,0:0:0:70:bassdrum.wav
192,192,56905,1,0,0:0:0:70:cymbol.wav
320,192,56905,128,0,58238:0:0:0:0:
64,192,57238,1,0,0:0:0:70:hihat01.wav
192,192,57572,1,0,0:0:0:70:hihat01.wav
448,192,57738,1,0,0:0:0:70:bassdrum.wav
192,192,58072,1,0,0:0:0:0:
64,192,58238,1,0,0:0:0:70:bassdrum.wav
448,192,58238,128,0,59572:0:0:0:70:hihat01.wav
192,192,58572,1,0,0:0:0:70:hihat01.wav
320,192,58738,1,0,0:0:0:70:bassdrum.wav
64,192,59072,1,0,0:0:0:70:bassdrum.wav
192,192,59238,1,0,0:0:0:70:hihat01.wav
320,192,59238,1,0,0:0:0:70:snare.wav
64,192,59405,1,0,0:0:0:0:
192,192,59572,1,0,0:0:0:70:bassdrum.wav
320,192,59572,128,0,60905:0:0:0:70:hihat01.wav
64,192,59905,1,0,0:0:0:70:hihat01.wav
192,192,60072,1,0,0:0:0:70:bassdrum.wav
448,192,60405,1,0,0:0:0:70:bassdrum.wav
192,192,60572,1,0,0:0:0:70:hihat01.wav
64,192,60572,1,0,0:0:0:70:snare.wav
448,192,60738,1,0,0:0:0:0:
64,192,60905,1,0,0:0:0:70:bassdrum.wav
192,192,60905,128,0,62238:0:0:0:70:cymbol.wav
320,192,61238,128,0,61572:0:0:0:70:hihat01.wav
64,192,61238,1,0,0:0:0:0:
448,192,61405,1,0,0:0:0:70:bassdrum.wav
448,192,61572,128,0,62238:0:0:0:70:hihat01.wav
64,192,61738,1,0,0:0:0:70:cymbol.wav
320,192,62072,1,0,0:0:0:70:snare.wav
64,192,62238,128,0,63572:0:0:0:70:bassdrum.wav
320,192,62405,1,0,0:0:0:0:
192,192,62572,1,0,0:0:0:70:hihat01.wav
448,192,62572,1,0,0:0:0:70:snare.wav
320,192,62738,1,0,0:0:0:70:bassdrum.wav
448,192,63072,1,0,0:0:0:70:bassdrum.wav
320,192,63238,1,0,0:0:0:70:hihat01.wav
192,192,63238,1,0,0:0:0:70:snare.wav
448,192,63405,1,0,0:0:0:0:
320,192,63572,128,0,64905:0:0:0:70:bassdrum.wav
192,192,63738,1,0,0:0:0:70:bassdrum.wav
64,192,63905,1,0,0:0:0:70:hihat01.wav
448,192,64072,1,0,0:0:0:70:bassdrum.wav
192,192,64405,1,0,0:0:0:70:bassdrum.wav
64,192,64572,1,0,0:0:0:70:hihat01.wav
192,192,64738,1,0,0:0:0:0:
64,192,64822,1,0,0:0:0:0:
192,192,64905,1,0,0:0:0:70:bassdrum.wav
448,192,64905,128,0,66072:0:0:0:70:cymbol.wav
64,192,65238,1,0,0:0:0:70:hihat01.wav
320,192,65238,1,0,0:0:0:70:snare.wav
192,192,65405,1,0,0:0:0:70:bassdrum.wav
320,192,65405,1,0,0:0:0:0:
192,192,65738,1,0,0:0:0:70:bassdrum.wav
64,192,65738,1,0,0:0:0:0:
320,192,65905,1,0,0:0:0:70:hihat01.wav
192,192,66072,1,0,0:0:0:70:bassdrum.wav
64,192,66072,1,0,0:0:0:0:
64,192,66405,1,0,0:0:0:70:bassdrum.wav
320,192,66405,1,0,0:0:0:0:
192,192,66488,1,0,0:0:0:0:
448,192,66572,1,0,0:0:0:70:snare.wav
64,192,66572,1,0,0:0:0:0:
320,192,66655,1,0,0:0:0:0:
192,192,66738,1,0,0:0:0:70:bassdrum.wav
64,192,66905,1,0,0:0:0:70:snare.wav
448,192,66905,1,0,0:0:0:0:
192,192,66988,1,0,0:0:0:70:snare.wav
320,192,67072,1,0,0:0:0:70:snare.wav
64,192,67155,1,0,0:0:0:70:snare.wav
448,192,67238,1,0,0:0:0:40:tom01.wav
320,192,67405,1,0,0:0:0:70:bassdrum.wav
192,192,67405,1,0,0:0:0:0:
64,192,67572,128,0,70238:0:0:0:70:bassdrum.wav
448,192,67572,1,0,0:0:0:70:cymbol.wav
320,192,67905,1,0,0:0:0:70:hihat01.wav
448,192,68072,1,0,0:0:0:70:bassdrum.wav
320,192,68405,1,0,0:0:0:70:bassdrum.wav
192,192,68572,1,0,0:0:0:70:hihat01.wav
320,192,68738,1,0,0:0:0:0:
448,192,68905,128,0,70238:0:0:0:70:bassdrum.wav
192,192,68905,1,0,0:0:0:70:hihat01.wav
320,192,69238,1,0,0:0:0:70:hihat01.wav
192,192,69405,1,0,0:0:0:70:bassdrum.wav
320,192,69738,1,0,0:0:0:70:bassdrum.wav
192,192,69905,1,0,0:0:0:70:hihat01.wav
320,192,70072,1,0,0:0:0:0:
192,192,70155,1,0,0:0:0:70:snare.wav
320,192,70238,1,0,0:0:0:70:bassdrum.wav
64,192,70572,1,0,0:0:0:70:hihat01.wav
448,192,70572,1,0,0:0:0:70:snare.wav
192,192,70738,1,0,0:0:0:70:bassdrum.wav
320,192,71072,1,0,0:0:0:70:bassdrum.wav
64,192,71238,1,0,0:0:0:70:hihat01.wav
448,192,71238,1,0,0:0:0:70:snare.wav
192,192,71405,1,0,0:0:0:0:
320,192,71572,1,0,0:0:0:70:bassdrum.wav
448,192,71572,128,0,72905:0:0:0:70:cymbol.wav
192,192,71738,1,0,0:0:0:70:bassdrum.wav
64,192,71905,1,0,0:0:0:70:hihat01.wav
320,192,72072,1,0,0:0:0:70:bassdrum.wav
192,192,72238,128,0,72572:0:0:0:70:hihat01.wav
64,192,72405,128,0,72738:0:0:0:70:bassdrum.wav
320,192,72572,128,0,72905:0:0:0:70:hihat01.wav
192,192,72905,128,0,74238:0:0:0:70:bassdrum.wav
448,192,73238,1,0,0:0:0:70:hihat01.wav
64,192,73238,1,0,0:0:0:70:snare.wav
320,192,73405,1,0,0:0:0:70:bassdrum.wav
448,192,73572,1,0,0:0:0:70:hihat01.wav
64,192,73738,1,0,0:0:0:70:bassdrum.wav
448,192,73905,1,0,0:0:0:70:hihat01.wav
320,192,73988,1,0,0:0:0:0:
64,192,74072,1,0,0:0:0:0:
320,192,74238,1,0,0:0:0:70:bassdrum.wav
448,192,74238,1,0,0:0:0:70:hihat01.wav
64,192,74238,128,0,75405:0:0:0:0:
320,192,74405,1,0,0:0:0:70:bassdrum.wav
448,192,74572,1,0,0:0:0:70:hihat01.wav
320,192,74738,128,0,75072:0:0:0:70:bassdrum.wav
192,192,74738,1,0,0:0:0:0:
448,192,75072,128,0,75405:0:0:0:70:bassdrum.wav
192,192,75072,1,0,0:0:0:0:
320,192,75238,1,0,0:0:0:70:hihat01.wav
192,192,75405,1,0,0:0:0:70:bassdrum.wav
320,192,75405,128,0,78238:0:0:0:70:cymbol.wav
192,192,75738,1,0,0:0:0:0:
64,192,75905,1,0,0:0:0:70:hihat01.wav
192,192,76072,1,0,0:0:0:0:
64,192,76238,1,0,0:0:0:70:bassdrum.wav
448,192,76405,1,0,0:0:0:70:bassdrum.wav
192,192,76572,1,0,0:0:0:70:hihat01.wav
64,192,76738,1,0,0:0:0:0:
192,192,76905,1,0,0:0:0:70:bassdrum.wav
448,192,76905,1,0,0:0:0:70:cymbol.wav
448,192,77238,1,0,0:0:0:70:cymbol.wav
64,192,77238,1,0,0:0:0:70:snare.wav
192,192,77405,1,0,0:0:0:70:bassdrum.wav
448,192,77572,1,0,0:0:0:70:hihat01.wav
192,192,77738,1,0,0:0:0:70:bassdrum.wav
64,192,77905,1,0,0:0:0:40:tom01.wav
192,192,78072,1,0,0:0:0:40:tom02.wav
64,192,78238,1,0,0:0:0:70:bassdrum.wav
448,192,78238,128,0,78572:0:0:0:70:hihat01.wav
192,192,78572,128,0,78905:0:0:0:70:hihat01.wav
64,192,78572,1,0,0:0:0:70:snare.wav
320,192,78738,1,0,0:0:0:0:
448,192,78905,128,0,79238:0:0:0:70:hihat01.wav
320,192,78905,1,0,0:0:0:70:snare.wav
320,192,79072,1,0,0:0:0:70:bassdrum.wav
64,192,79238,128,0,79572:0:0:0:70:hihat01.wav
192,192,79238,1,0,0:0:0:70:snare.wav
320,192,79405,1,0,0:0:0:70:bassdrum.wav
320,192,79572,128,0,79905:0:0:0:70:hihat01.wav
448,192,79572,1,0,0:0:0:70:snare.wav
64,192,79905,128,0,80238:0:0:0:70:hihat01.wav
192,192,79905,1,0,0:0:0:70:snare.wav
448,192,80072,1,0,0:0:0:0:
192,192,80238,128,0,80572:0:0:0:70:hihat01.wav
320,192,80238,1,0,0:0:0:70:snare.wav
64,192,80405,1,0,0:0:0:70:bassdrum.wav
448,192,80572,128,0,80905:0:0:0:70:hihat01.wav
320,192,80572,1,0,0:0:0:70:snare.wav
192,192,80738,1,0,0:0:0:70:bassdrum.wav
64,192,80905,128,0,83572:0:0:0:70:hihat01.wav
320,192,80905,1,0,0:0:0:70:snare.wav
192,192,81238,1,0,0:0:0:70:hihat01.wav
448,192,81238,1,0,0:0:0:70:snare.wav
320,192,81405,1,0,0:0:0:0:
192,192,81572,1,0,0:0:0:70:hihat01.wav
448,192,81572,1,0,0:0:0:70:snare.wav
448,192,81738,1,0,0:0:0:70:bassdrum.wav
320,192,81905,1,0,0:0:0:70:hihat01.wav
192,192,81905,1,0,0:0:0:70:snare.wav
448,192,82072,1,0,0:0:0:70:bassdrum.wav
192,192,82238,1,0,0:0:0:70:bassdrum.wav
320,192,82238,128,0,82905:0:0:0:70:hihat01.wav
448,192,82572,1,0,0:0:0:70:hihat01.wav
192,192,82905,1,0,0:0:0:70:snare.wav
448,192,82988,1,0,0:0:0:70:snare.wav
320,192,83072,1,0,0:0:0:70:snare.wav
192,192,83155,1,0,0:0:0:70:snare.wav
320,192,83238,1,0,0:0:0:70:snare.wav
448,192,83405,1,0,0:0:0:40:tom02.wav
192,192,83572,1,0,0:0:0:70:bassdrum.wav
320,192,83572,128,0,84572:0:0:0:70:cymbol.wav
192,192,84572,1,0,0:0:0:70:hihat01.wav
448,192,84905,1,0,0:0:0:70:bassdrum.wav
320,192,84905,1,0,0:0:0:70:cymbol.wav
64,192,84905,128,0,86238:0:0:0:0:
192,192,85238,1,0,0:0:0:0:
320,192,85405,1,0,0:0:0:0:
448,192,85738,1,0,0:0:0:40:tom01.wav
320,192,85905,1,0,0:0:0:40:tom01.wav
320,192,86072,1,0,0:0:0:40:tom02.wav
192,192,86238,1,0,0:0:0:70:bassdrum.wav
448,192,86238,1,0,0:0:0:70:snare.wav
320,192,86405,1,0,0:0:0:70:bassdrum.wav
64,192,86405,1,0,0:0:0:70:snare.wav
192,192,86738,1,0,0:0:0:40:tom01.wav
448,192,86822,1,0,0:0:0:40:tom02.wav
320,192,86905,1,0,0:0:0:70:bassdrum.wav
64,192,86905,1,0,0:0:0:70:cymbol.wav
192,192,87072,1,0,0:0:0:70:bassdrum.wav
448,192,87072,1,0,0:0:0:70:cymbol.wav
320,192,87238,1,0,0:0:0:70:bassdrum.wav
64,192,87238,1,0,0:0:0:70:cymbol.wav
320,192,87405,1,0,0:0:0:70:bassdrum.wav
448,192,87405,1,0,0:0:0:70:cymbol.wav
192,192,87405,128,0,89572:0:0:0:0:
