osu file format v14

[General]
AudioFilename: Day to Story (TV Size).mp3
AudioLeadIn: 0
PreviewTime: 57214
Countdown: 0
SampleSet: Soft
StackLeniency: 0.7
Mode: 3
LetterboxInBreaks: 0
SpecialStyle: 0
WidescreenStoryboard: 0

[Editor]
DistanceSpacing: 0.8
BeatDivisor: 4
GridSize: 8
TimelineZoom: 1

[Metadata]
Title:Day to Story (TV Size)
TitleUnicode:Day to Story (TV Size)
Artist:Sadohara Kaori
ArtistUnicode:佐土原かおり
Creator:-[ AmiShici ]-
Version:HD
Source:デート・ア・ライブII
Tags:ending ED DATE A LIVE 2 S2 Kyousuke-
BeatmapID:752155
BeatmapSetID:340050

[Difficulty]
HPDrainRate:7
CircleSize:4
OverallDifficulty:8
ApproachRate:5
SliderMultiplier:1.4
SliderTickRate:1

[Events]
//Background and Video events
0,0,"BG.jpg",0,0
Video,0,"ED.avi"
//Break Periods
//Storyboard Layer 0 (Background)
//Storyboard Layer 1 (Fail)
//Storyboard Layer 2 (Pass)
//Storyboard Layer 3 (Foreground)
//Storyboard Sound Samples

[TimingPoints]
1547,428.571428571429,4,2,2,40,1,0
14881,333.333333333333,4,2,1,40,1,0
57547,-100,4,2,1,40,0,1
84214,-100,4,2,1,40,0,0

[HitObjects]
64,192,1547,5,0,0:0:0:0:
448,192,1547,1,2,0:0:0:0:
192,192,1975,1,0,0:0:0:0:
320,192,2404,1,2,0:0:0:0:
64,192,2832,1,0,0:0:0:0:
192,192,3261,1,2,0:0:0:0:
320,192,3689,1,0,0:0:0:0:
448,192,4118,1,2,0:0:0:0:
192,192,4547,1,0,0:0:0:0:
64,192,4975,1,2,0:0:0:0:
192,192,5404,1,0,0:0:0:0:
320,192,5832,1,2,0:0:0:0:
448,192,6261,1,0,0:0:0:0:
192,192,6689,1,2,0:0:0:0:
448,192,7118,1,0,0:0:0:0:
320,192,7547,1,2,0:0:0:0:
192,192,7975,1,0,0:0:0:0:
448,192,8404,1,2,0:0:0:0:
64,192,8404,1,2,0:0:0:0:
192,192,8832,1,0,0:0:0:0:
320,192,9261,1,2,0:0:0:0:
64,192,9689,1,0,0:0:0:0:
192,192,10118,1,2,0:0:0:0:
320,192,10547,1,0,0:0:0:0:
448,192,10975,1,2,0:0:0:0:
192,192,11404,1,0,0:0:0:0:
64,192,11832,1,2,0:0:0:0:
192,192,12261,1,0,0:0:0:0:
320,192,12689,1,2,0:0:0:0:
448,192,13118,1,0,0:0:0:0:
192,192,13547,1,2,0:0:0:0:
320,192,14881,128,2,15214:0:0:0:0:
192,192,14881,1,4,0:0:0:0:
64,192,15214,128,8,15381:0:0:0:0:
448,192,15381,128,2,15547:0:0:0:0:
64,192,15714,128,2,16214:0:0:0:0:
320,192,15880,1,8,0:0:0:0:
320,192,16214,128,2,16380:0:0:0:0:
192,192,16380,128,0,16547:0:0:0:0:
448,192,16547,1,8,0:0:0:0:
64,192,16714,128,2,16880:0:0:0:0:
448,192,17047,128,2,17547:0:0:0:0:
192,192,17214,1,8,0:0:0:0:
64,192,17547,128,2,17714:0:0:0:0:
320,192,17714,128,0,17880:0:0:0:0:
192,192,17880,1,8,0:0:0:0:
448,192,18047,128,2,18214:0:0:0:0:
192,192,18380,128,2,18880:0:0:0:0:
320,192,18547,1,8,0:0:0:0:
320,192,18880,128,2,19214:0:0:0:0:
64,192,18880,1,4,0:0:0:0:
448,192,19214,128,8,19380:0:0:0:0:
64,192,19380,128,2,19547:0:0:0:0:
192,192,19380,1,4,0:0:0:0:
320,192,19714,128,2,20214:0:0:0:0:
448,192,19714,1,4,0:0:0:0:
192,192,19880,1,8,0:0:0:0:
64,192,19880,1,4,0:0:0:0:
448,192,20214,1,2,0:0:0:0:
64,192,20214,128,0,20380:0:0:0:0:
320,192,20380,128,0,20547:0:0:0:0:
192,192,20547,1,8,0:0:0:0:
448,192,20714,128,2,20880:0:0:0:0:
64,192,21047,128,2,21547:0:0:0:0:
320,192,21214,1,8,0:0:0:0:
448,192,21547,128,2,21714:0:0:0:0:
192,192,21714,128,0,21880:0:0:0:0:
64,192,21880,1,8,0:0:0:0:
320,192,22047,128,2,22214:0:0:0:0:
64,192,22380,128,2,22880:0:0:0:0:
448,192,22547,1,8,0:0:0:0:
192,192,22880,128,2,23047:0:0:0:0:
320,192,22880,1,4,0:0:0:0:
448,192,23047,128,0,23214:0:0:0:0:
64,192,23214,1,8,0:0:0:0:
320,192,23380,128,2,23547:0:0:0:0:
64,192,23714,128,2,24214:0:0:0:0:
320,192,23880,1,8,0:0:0:0:
448,192,24214,128,2,24547:0:0:0:0:
192,192,24547,128,8,24714:0:0:0:0:
64,192,24714,128,2,25047:0:0:0:0:
320,192,24714,1,4,0:0:0:0:
448,192,25047,128,8,25547:0:0:0:0:
192,192,25047,1,4,0:0:0:0:
320,192,25547,1,2,0:0:0:0:
64,192,25547,1,0,0:0:0:0:
192,192,25714,1,2,0:0:0:0:
64,192,25880,1,8,0:0:0:0:
448,192,25880,1,0,0:0:0:0:
320,192,26047,1,2,0:0:0:0:
64,192,26214,1,2,0:0:0:0:
320,192,26380,1,2,0:0:0:0:
192,192,26547,1,8,0:0:0:0:
448,192,26547,1,0,0:0:0:0:
320,192,26714,1,2,0:0:0:0:
448,192,26880,1,2,0:0:0:0:
64,192,26880,1,0,0:0:0:0:
64,192,27214,1,8,0:0:0:0:
448,192,27214,1,0,0:0:0:0:
192,192,27380,1,2,0:0:0:0:
320,192,27380,1,0,0:0:0:0:
320,192,27714,1,2,0:0:0:0:
192,192,27714,1,0,0:0:0:0:
64,192,27880,1,8,0:0:0:0:
448,192,27880,1,0,0:0:0:0:
320,192,28047,1,2,0:0:0:0:
192,192,28130,1,2,0:0:0:0:
64,192,28214,1,2,0:0:0:0:
448,192,28214,1,0,0:0:0:0:
192,192,28380,1,2,0:0:0:0:
448,192,28547,1,8,0:0:0:0:
64,192,28547,1,0,0:0:0:0:
320,192,28714,1,2,0:0:0:0:
63,192,28880,1,2,0:0:0:0:
191,192,29047,1,2,0:0:0:0:
448,192,29214,1,8,0:0:0:0:
64,192,29214,1,0,0:0:0:0:
192,192,29547,1,2,0:0:0:0:
448,192,29547,1,0,0:0:0:0:
64,192,29880,1,8,0:0:0:0:
320,192,29880,1,0,0:0:0:0:
448,192,30047,1,2,0:0:0:0:
192,192,30047,1,0,0:0:0:0:
192,192,30380,1,2,0:0:0:0:
448,192,30380,1,0,0:0:0:0:
320,192,30547,1,0,0:0:0:0:
64,192,30547,1,8,0:0:0:0:
192,192,30714,1,2,0:0:0:0:
320,192,30797,1,2,0:0:0:0:
448,192,30880,1,2,0:0:0:0:
64,192,30880,1,0,0:0:0:0:
192,192,31047,1,2,0:0:0:0:
64,192,31214,1,8,0:0:0:0:
448,192,31214,1,0,0:0:0:0:
320,192,31380,1,2,0:0:0:0:
192,192,31547,1,0,0:0:0:0:
320,192,31714,1,2,0:0:0:0:
64,192,31880,1,8,0:0:0:0:
448,192,31880,1,0,0:0:0:0:
192,192,32047,1,2,0:0:0:0:
448,192,32214,1,2,0:0:0:0:
64,192,32214,1,0,0:0:0:0:
448,192,32547,1,8,0:0:0:0:
320,192,32547,1,0,0:0:0:0:
64,192,32714,1,2,0:0:0:0:
192,192,32714,1,0,0:0:0:0:
192,192,33047,1,2,0:0:0:0:
64,192,33047,1,0,0:0:0:0:
448,192,33214,1,0,0:0:0:0:
320,192,33214,1,8,0:0:0:0:
192,192,33380,1,2,0:0:0:0:
320,192,33464,1,2,0:0:0:0:
64,192,33547,1,2,0:0:0:0:
448,192,33547,1,0,0:0:0:0:
320,192,33714,1,2,0:0:0:0:
448,192,33880,1,8,0:0:0:0:
192,192,33880,1,0,0:0:0:0:
64,192,34047,1,2,0:0:0:0:
448,192,34214,1,2,0:0:0:0:
192,192,34380,1,2,0:0:0:0:
64,192,34547,1,8,0:0:0:0:
320,192,34547,1,0,0:0:0:0:
448,192,34714,1,2,0:0:0:0:
64,192,34880,1,8,0:0:0:0:
320,192,34880,128,0,35214:0:0:0:0:
448,192,35214,1,8,0:0:0:0:
64,192,35214,128,0,35380:0:0:0:0:
320,192,35380,1,8,0:0:0:0:
192,192,35380,128,0,35714:0:0:0:0:
64,192,35714,1,8,0:0:0:0:
448,192,35714,128,0,36047:0:0:0:0:
320,192,35880,1,2,0:0:0:0:
192,192,36047,1,2,0:0:0:0:
448,192,36214,1,2,0:0:0:0:
64,192,36214,1,0,0:0:0:0:
448,192,36547,1,8,0:0:0:0:
64,192,36547,1,0,0:0:0:0:
192,192,36714,1,2,0:0:0:0:
448,192,36880,1,2,0:0:0:0:
64,192,37047,1,2,0:0:0:0:
192,192,37214,1,8,0:0:0:0:
448,192,37214,1,0,0:0:0:0:
320,192,37380,1,2,0:0:0:0:
64,192,37547,1,2,0:0:0:0:
448,192,37547,1,0,0:0:0:0:
64,192,37880,1,8,0:0:0:0:
448,192,37880,1,0,0:0:0:0:
192,192,38047,1,2,0:0:0:0:
320,192,38047,1,0,0:0:0:0:
192,192,38380,1,2,0:0:0:0:
320,192,38380,1,0,0:0:0:0:
64,192,38547,1,8,0:0:0:0:
448,192,38547,1,0,0:0:0:0:
320,192,38714,1,2,0:0:0:0:
192,192,38797,1,2,0:0:0:0:
448,192,38880,1,2,0:0:0:0:
64,192,38880,1,0,0:0:0:0:
192,192,39047,1,2,0:0:0:0:
320,192,39214,1,8,0:0:0:0:
64,192,39214,1,0,0:0:0:0:
192,192,39380,1,2,0:0:0:0:
320,192,39547,1,2,0:0:0:0:
448,192,39714,1,2,0:0:0:0:
64,192,39880,1,8,0:0:0:0:
320,192,39880,1,0,0:0:0:0:
192,192,40047,1,2,0:0:0:0:
64,192,40214,1,2,0:0:0:0:
448,192,40214,128,0,40547:0:0:0:0:
320,192,40547,1,8,0:0:0:0:
64,192,40547,128,0,40714:0:0:0:0:
448,192,40714,1,8,0:0:0:0:
192,192,40714,128,0,40880:0:0:0:0:
448,192,41047,128,8,41214:0:0:0:0:
64,192,41047,1,0,0:0:0:0:
320,192,41214,1,2,0:0:0:0:
192,192,41380,1,2,0:0:0:0:
320,192,41464,1,2,0:0:0:0:
448,192,41547,1,2,0:0:0:0:
64,192,41547,1,0,0:0:0:0:
320,192,41714,1,2,0:0:0:0:
448,192,41880,1,8,0:0:0:0:
64,192,41880,1,0,0:0:0:0:
320,192,42047,1,2,0:0:0:0:
192,192,42214,1,0,0:0:0:0:
320,192,42380,1,2,0:0:0:0:
448,192,42547,1,8,0:0:0:0:
64,192,42547,1,0,0:0:0:0:
320,192,42714,1,2,0:0:0:0:
448,192,42880,1,2,0:0:0:0:
192,192,42880,1,0,0:0:0:0:
320,192,43214,1,8,0:0:0:0:
64,192,43214,1,0,0:0:0:0:
192,192,43380,1,2,0:0:0:0:
448,192,43380,1,0,0:0:0:0:
448,192,43714,1,2,0:0:0:0:
192,192,43714,1,0,0:0:0:0:
64,192,43880,1,8,0:0:0:0:
320,192,43880,1,0,0:0:0:0:
192,192,44047,1,2,0:0:0:0:
448,192,44214,1,2,0:0:0:0:
64,192,44214,1,0,0:0:0:0:
320,192,44380,1,2,0:0:0:0:
192,192,44547,1,0,0:0:0:0:
448,192,44547,1,8,0:0:0:0:
320,192,44714,1,2,0:0:0:0:
64,192,44880,1,2,0:0:0:0:
320,192,45047,1,2,0:0:0:0:
448,192,45214,1,8,0:0:0:0:
64,192,45214,1,0,0:0:0:0:
320,192,45547,1,8,0:0:0:0:
192,192,45547,128,0,46214:0:0:0:0:
448,192,45714,1,0,0:0:0:0:
64,192,45880,1,0,0:0:0:0:
320,192,46047,1,8,0:0:0:0:
448,192,46214,128,8,46880:0:0:0:0:
64,192,46214,1,0,0:0:0:0:
320,192,46380,1,0,0:0:0:0:
64,192,46547,1,8,0:0:0:0:
192,192,46714,1,0,0:0:0:0:
64,192,46880,128,2,47547:0:0:0:0:
320,192,46880,1,0,0:0:0:0:
448,192,47214,1,2,0:0:0:0:
192,192,47547,1,8,0:0:0:0:
320,192,47547,128,4,48214:0:0:0:0:
448,192,47880,1,2,0:0:0:0:
64,192,48047,1,2,0:0:0:0:
448,192,48214,1,2,0:0:0:0:
192,192,48214,128,0,48880:0:0:0:0:
64,192,48380,1,0,0:0:0:0:
320,192,48547,1,2,0:0:0:0:
320,192,48880,1,8,0:0:0:0:
448,192,48880,128,4,49547:0:0:0:0:
192,192,49214,1,2,0:0:0:0:
320,192,49547,1,2,0:0:0:0:
64,192,49547,128,4,50214:0:0:0:0:
192,192,49880,1,2,0:0:0:0:
320,192,50047,1,2,0:0:0:0:
192,192,50214,1,8,0:0:0:0:
448,192,50214,128,4,50714:0:0:0:0:
192,192,50547,1,2,0:0:0:0:
320,192,50714,1,2,0:0:0:0:
64,192,50714,1,4,0:0:0:0:
320,192,51047,1,2,0:0:0:0:
192,192,51214,1,2,0:0:0:0:
64,192,51547,1,4,0:0:0:0:
448,192,51547,1,0,0:0:0:0:
320,192,51714,1,2,0:0:0:0:
448,192,51880,1,2,0:0:0:0:
192,192,51880,1,4,0:0:0:0:
192,192,52214,1,0,0:0:0:0:
64,192,52214,1,2,0:0:0:0:
448,192,52547,1,2,0:0:0:0:
448,192,52880,1,2,0:0:0:0:
448,192,53214,1,8,0:0:0:0:
64,192,53547,1,2,0:0:0:0:
64,192,53880,1,2,0:0:0:0:
448,192,54214,1,2,0:0:0:0:
320,192,54297,1,2,0:0:0:0:
192,192,54380,1,2,0:0:0:0:
64,192,54464,1,2,0:0:0:0:
448,192,54547,1,2,0:0:0:0:
320,192,54547,1,4,0:0:0:0:
192,192,54714,1,0,0:0:0:0:
64,192,54880,1,4,0:0:0:0:
320,192,54880,1,0,0:0:0:0:
448,192,55047,1,0,0:0:0:0:
320,192,55214,1,2,0:0:0:0:
192,192,55380,1,4,0:0:0:0:
64,192,55380,1,0,0:0:0:0:
320,192,55714,1,4,0:0:0:0:
64,192,55714,1,0,0:0:0:0:
192,192,55880,1,0,0:0:0:0:
448,192,56047,128,4,56880:0:0:0:0:
64,192,56047,1,0,0:0:0:0:
320,192,56047,1,0,0:0:0:0:
320,192,56380,128,2,56880:0:0:0:0:
192,192,56547,128,2,56880:0:0:0:0:
448,192,57547,1,8,0:0:0:0:
192,192,57547,1,2,0:0:0:0:
64,192,57547,128,0,58880:0:0:0:0:
448,192,57880,1,0,0:0:0:0:
320,192,57880,1,8,0:0:0:0:
192,192,58047,1,2,0:0:0:0:
192,192,58380,1,2,0:0:0:0:
320,192,58547,1,8,0:0:0:0:
448,192,58547,1,0,0:0:0:0:
192,192,58714,1,2,0:0:0:0:
320,192,58880,1,8,0:0:0:0:
448,192,58880,128,0,60214:0:0:0:0:
192,192,59047,1,2,0:0:0:0:
320,192,59214,1,0,0:0:0:0:
64,192,59214,1,8,0:0:0:0:
192,192,59380,1,2,0:0:0:0:
192,192,59714,1,2,0:0:0:0:
64,192,59880,1,8,0:0:0:0:
320,192,59880,1,0,0:0:0:0:
192,192,60047,1,2,0:0:0:0:
320,192,60214,1,2,0:0:0:0:
64,192,60214,1,0,0:0:0:0:
64,192,60547,1,0,0:0:0:0:
448,192,60547,1,8,0:0:0:0:
320,192,60714,1,2,0:0:0:0:
320,192,61047,1,2,0:0:0:0:
64,192,61214,1,8,0:0:0:0:
448,192,61214,1,0,0:0:0:0:
320,192,61380,1,0,0:0:0:0:
448,192,61547,1,8,0:0:0:0:
64,192,61547,128,0,62047:0:0:0:0:
192,192,61714,1,2,0:0:0:0:
320,192,61880,1,2,0:0:0:0:
192,192,62047,1,8,0:0:0:0:
448,192,62047,128,0,62547:0:0:0:0:
320,192,62214,1,2,0:0:0:0:
192,192,62380,1,2,0:0:0:0:
64,192,62547,1,8,0:0:0:0:
320,192,62547,1,0,0:0:0:0:
192,192,62714,1,2,0:0:0:0:
64,192,62880,1,0,0:0:0:0:
320,192,62880,1,8,0:0:0:0:
448,192,62880,128,0,64214:0:0:0:0:
192,192,63214,1,2,0:0:0:0:
64,192,63214,1,0,0:0:0:0:
320,192,63380,1,8,0:0:0:0:
320,192,63714,1,8,0:0:0:0:
64,192,63880,1,0,0:0:0:0:
192,192,63880,1,2,0:0:0:0:
320,192,64047,1,2,0:0:0:0:
192,192,64214,1,8,0:0:0:0:
64,192,64214,1,0,0:0:0:0:
320,192,64380,1,2,0:0:0:0:
192,192,64547,1,2,0:0:0:0:
64,192,64547,1,0,0:0:0:0:
448,192,64714,1,8,0:0:0:0:
448,192,65047,1,8,0:0:0:0:
64,192,65214,1,0,0:0:0:0:
192,192,65214,1,2,0:0:0:0:
448,192,65380,1,8,0:0:0:0:
192,192,65547,1,8,0:0:0:0:
320,192,65547,128,0,65880:0:0:0:0:
192,192,65880,1,2,0:0:0:0:
448,192,66047,128,8,66214:0:0:0:0:
64,192,66047,128,0,66214:0:0:0:0:
192,192,66380,128,0,66547:0:0:0:0:
320,192,66380,128,8,66547:0:0:0:0:
192,192,66714,1,8,0:0:0:0:
448,192,66714,128,0,67047:0:0:0:0:
64,192,66714,128,0,67047:0:0:0:0:
192,192,67047,128,2,67214:0:0:0:0:
320,192,67214,128,8,67380:0:0:0:0:
192,192,67380,1,0,0:0:0:0:
64,192,67380,128,0,68047:0:0:0:0:
448,192,67547,1,8,0:0:0:0:
320,192,67630,1,8,0:0:0:0:
192,192,67714,1,8,0:0:0:0:
320,192,67797,1,8,0:0:0:0:
448,192,67880,1,8,0:0:0:0:
320,192,68047,1,2,0:0:0:0:
192,192,68214,1,2,0:0:0:0:
448,192,68214,1,0,0:0:0:0:
64,192,68214,128,0,69547:0:0:0:0:
448,192,68547,1,0,0:0:0:0:
192,192,68547,1,8,0:0:0:0:
320,192,68714,1,2,0:0:0:0:
320,192,69047,1,2,0:0:0:0:
192,192,69214,1,8,0:0:0:0:
448,192,69214,1,0,0:0:0:0:
320,192,69380,1,2,0:0:0:0:
192,192,69547,1,2,0:0:0:0:
448,192,69547,128,0,70880:0:0:0:0:
192,192,69714,1,2,0:0:0:0:
320,192,69880,1,0,0:0:0:0:
64,192,69880,1,8,0:0:0:0:
192,192,70047,1,2,0:0:0:0:
192,192,70380,1,2,0:0:0:0:
64,192,70547,1,8,0:0:0:0:
320,192,70547,1,0,0:0:0:0:
192,192,70714,1,2,0:0:0:0:
64,192,70880,1,0,0:0:0:0:
320,192,70880,1,2,0:0:0:0:
320,192,71214,1,8,0:0:0:0:
64,192,71214,1,0,0:0:0:0:
448,192,71380,1,2,0:0:0:0:
192,192,71547,1,2,0:0:0:0:
448,192,71714,1,2,0:0:0:0:
64,192,71880,1,0,0:0:0:0:
320,192,71880,1,8,0:0:0:0:
448,192,72047,1,2,0:0:0:0:
192,192,72214,128,0,72714:0:0:0:0:
320,192,72214,1,8,0:0:0:0:
64,192,72380,1,2,0:0:0:0:
448,192,72547,1,2,0:0:0:0:
320,192,72714,128,0,73547:0:0:0:0:
64,192,72714,1,8,0:0:0:0:
192,192,72880,1,2,0:0:0:0:
448,192,73047,1,2,0:0:0:0:
64,192,73214,1,8,0:0:0:0:
192,192,73380,1,2,0:0:0:0:
448,192,73547,1,2,0:0:0:0:
64,192,73547,128,0,74880:0:0:0:0:
192,192,73714,1,2,0:0:0:0:
320,192,73880,1,0,0:0:0:0:
448,192,73880,1,8,0:0:0:0:
192,192,74047,1,2,0:0:0:0:
192,192,74380,1,2,0:0:0:0:
448,192,74547,1,8,0:0:0:0:
320,192,74547,1,0,0:0:0:0:
192,192,74714,1,2,0:0:0:0:
320,192,74880,1,0,0:0:0:0:
448,192,74880,1,2,0:0:0:0:
192,192,75047,1,2,0:0:0:0:
320,192,75214,1,8,0:0:0:0:
448,192,75380,128,8,75547:0:0:0:0:
64,192,75380,128,0,75547:0:0:0:0:
192,192,75714,128,0,75880:0:0:0:0:
320,192,75714,128,8,75880:0:0:0:0:
64,192,76047,128,0,78880:0:0:0:0:
448,192,76047,128,8,76380:0:0:0:0:
192,192,76380,128,2,76547:0:0:0:0:
320,192,76547,128,8,76714:0:0:0:0:
448,192,76714,128,2,76880:0:0:0:0:
320,192,76880,128,2,77047:0:0:0:0:
192,192,77047,128,2,77214:0:0:0:0:
448,192,77214,128,8,77380:0:0:0:0:
320,192,77380,128,2,77547:0:0:0:0:
192,192,77547,128,8,77714:0:0:0:0:
320,192,77714,128,2,77880:0:0:0:0:
448,192,77880,128,8,78880:0:0:0:0:
192,192,78047,1,2,0:0:0:0:
320,192,78214,1,2,0:0:0:0:
192,192,78380,1,0,0:0:0:0:
320,192,78547,1,2,0:0:0:0:
192,192,78880,1,0,0:0:0:0:
320,192,78880,1,8,0:0:0:0:
192,192,79214,1,0,0:0:0:0:
320,192,79214,1,8,0:0:0:0:
192,192,79547,1,0,0:0:0:0:
320,192,79547,1,8,0:0:0:0:
448,192,79714,1,2,0:0:0:0:
64,192,79880,1,2,0:0:0:0:
448,192,80047,1,2,0:0:0:0:
320,192,80214,1,0,0:0:0:0:
192,192,80214,1,8,0:0:0:0:
320,192,80547,1,0,0:0:0:0:
192,192,80547,1,8,0:0:0:0:
320,192,80880,1,0,0:0:0:0:
192,192,80880,1,8,0:0:0:0:
64,192,81047,1,2,0:0:0:0:
448,192,81214,1,2,0:0:0:0:
64,192,81380,1,2,0:0:0:0:
192,192,81547,1,0,0:0:0:0:
320,192,81547,1,8,0:0:0:0:
192,192,81880,1,0,0:0:0:0:
320,192,81880,1,8,0:0:0:0:
192,192,82214,1,0,0:0:0:0:
320,192,82214,1,8,0:0:0:0:
448,192,82380,1,2,0:0:0:0:
64,192,82547,1,2,0:0:0:0:
448,192,82714,1,2,0:0:0:0:
320,192,82880,1,8,0:0:0:0:
192,192,82880,1,0,0:0:0:0:
320,192,83214,1,8,0:0:0:0:
192,192,83214,1,0,0:0:0:0:
320,192,83547,1,8,0:0:0:0:
192,192,83547,1,0,0:0:0:0:
64,192,83714,1,2,0:0:0:0:
448,192,83880,1,2,0:0:0:0:
64,192,84047,1,2,0:0:0:0:
320,192,84214,128,0,85547:0:0:0:0:
192,192,84214,1,2,0:0:0:0:
64,192,85547,128,0,86880:0:0:0:0:
448,192,85547,1,2,0:0:0:0:
448,192,85880,128,8,86047:0:0:0:0:
320,192,86047,128,2,86380:0:0:0:0:
192,192,86380,128,2,86714:0:0:0:0:
320,192,86547,1,2,0:0:0:0:
448,192,86714,128,2,86880:0:0:0:0:
320,192,86880,1,8,0:0:0:0:
320,192,87047,1,8,0:0:0:0:
64,192,87380,1,8,0:0:0:0:
448,192,87547,1,8,0:0:0:0:
192,192,87714,1,2,0:0:0:0:
320,192,87880,1,8,0:0:0:0:
64,192,88047,128,8,90214:0:0:0:0:
448,192,88047,128,0,90214:0:0:0:0:
