osu file format v12

[General]
AudioFilename: Sade-SmoothOperator.mp3
AudioLeadIn: 0
PreviewTime: 75338
Countdown: 0
SampleSet: Soft
StackLeniency: 0.4
Mode: 0
LetterboxInBreaks: 0
WidescreenStoryboard: 0

[Editor]
Bookmarks: 18301,23179,35312,40065,51323,67333,73337,91348,107359,120368,123620,139380,155390,160894,171401,176404,195435,210426,227437,245448
DistanceSpacing: 1
BeatDivisor: 2
GridSize: 4

[Metadata]
Title:Smooth Operator
TitleUnicode:Smooth Operator
Artist:Sade
ArtistUnicode:Sade
Creator:Alarido
Version:Sade
Source:
Tags:Soul Smooth Jazz 80's eighties 1984 songs cabaret Chicago glamour seduction
BeatmapID:214772
BeatmapSetID:76170

[Difficulty]
HPDrainRate:6
CircleSize:4
OverallDifficulty:6
ApproachRate:7
SliderMultiplier:1.6
SliderTickRate:2

[Events]
//Background and Video events
0,0,"sade-smut-op.jpg",0,0
//Break Periods
2,67521,72676
2,107551,121462
2,171599,176754
//Storyboard Layer 0 (Background)
//Storyboard Layer 1 (Fail)
//Storyboard Layer 2 (Pass)
//Storyboard Layer 3 (Foreground)
//Storyboard Sound Samples
//Background Colour Transformations
3,100,163,162,255

[TimingPoints]
1272,500.375211387402,4,2,0,60,1,0
25915,-100,4,2,0,60,0,0
75327,-100,4,2,0,80,0,1
91339,-100,4,2,0,60,0,0
139125,-100,4,2,0,60,0,0
179405,-100,4,2,0,80,0,1
195417,-100,4,2,0,60,0,0
211429,-100,4,2,0,80,0,1
227191,-100,4,2,0,60,0,0
227441,-100,4,2,0,80,0,1
245455,-100,4,2,0,60,0,0

[Colours]
Combo1 : 165,3,3
Combo2 : 3,135,3
Combo3 : 5,5,240
Combo4 : 45,189,189

[HitObjects]
296,268,19285,2,0,P|260:288|216:288,1,80,2|0,0:0|0:0,0:0:0:0:
164,236,19785,1,8,0:0:0:0:
124,168,20036,2,0,B|176:80|256:152|256:152|336:80|388:168,2,320
288,324,22537,5,0,0:0:0:0:
304,244,22788,1,2,0:0:0:0:
272,172,23038,1,0,0:0:0:0:
216,116,23288,2,0,P|252:96|296:96,1,80,2|0,0:0|0:0,0:0:0:0:
348,148,23788,1,8,0:0:0:0:
388,216,24039,2,0,B|336:304|256:232|256:232|176:304|124:216,2,320
336,68,26540,5,0,0:0:0:0:
260,88,26791,1,8,0:0:0:0:
180,76,27041,1,0,0:0:0:0:
104,96,27291,1,0,0:0:0:0:
40,144,27541,2,0,P|24:105|28:68,2,80,0|8|0,0:0|0:0|0:0,0:0:0:0:
104,192,28292,1,0,0:0:0:0:
40,240,28542,2,0,P|24:278|28:316,2,80,0|8|0,0:0|0:0|0:0,0:0:0:0:
104,288,29293,6,0,P|172:312|256:296,1,160,0|8,0:0|0:0,0:0:0:0:
316,240,30043,2,0,P|328:204|316:164,1,80,0|0,0:0|0:0,0:0:0:0:
256,112,30543,1,0,0:0:0:0:
196,164,30794,2,0,P|184:204|196:240,1,80,8|0,0:0|0:0,0:0:0:0:
256,296,31294,2,0,P|340:312|408:288,1,160,0|8,0:0|0:0,0:0:0:0:
456,224,32045,2,0,P|418:208|380:212,1,80
304,236,32545,6,0,B|213:278|162:169|75:210,1,240
126,318,33546,2,0,B|213:277|162:169|253:126,1,240
328,100,34546,1,0,0:0:0:0:
408,108,34797,1,8,0:0:0:0:
472,152,35047,1,0,0:0:0:0:
484,232,35297,6,0,P|460:308|400:360,1,160,0|8,0:0|0:0,0:0:0:0:
360,292,36048,2,0,P|396:263|407:225,2,80
328,220,36798,1,8,0:0:0:0:
294,144,37048,2,0,P|258:173|248:204,3,80,0|0|0|8,0:0|0:0|0:0|0:0,0:0:0:0:
232,280,38049,2,0,P|221:310|108:340,1,160
48,288,38800,1,8,0:0:0:0:
76,212,39050,1,0,0:0:0:0:
28,152,39300,6,0,P|52:76|112:24,1,160,0|8,0:0|0:0,0:0:0:0:
152,92,40051,2,0,P|115:120|104:158,2,80,0|0|0,0:0|0:0|0:0,0:0:0:0:
184,164,40801,1,8,0:0:0:0:
217,239,41051,2,0,P|253:210|264:180,3,80,0|0|0|8,0:0|0:0|0:0|0:0,0:0:0:0:
280,104,42052,2,0,P|291:74|404:44,1,160
468,96,42803,1,8,0:0:0:0:
468,176,43053,1,0,0:0:0:0:
432,248,43303,6,0,P|358:276|284:252,1,160,0|8,0:0|0:0,0:0:0:0:
212,216,44054,2,0,P|153:268|141:346,2,160
280,172,45305,2,0,P|304:97|268:28,1,160,0|8,0:0|0:0,0:0:0:0:
192,12,46055,1,0,0:0:0:0:
160,84,46305,2,0,P|156:128|180:168,2,80,0|0|8,0:0|0:0|0:0,0:0:0:0:
192,12,47056,1,0,0:0:0:0:
112,20,47306,22,0,B|68:36|56:72|56:72|52:84|40:152,1,160,0|8,0:0|0:0,0:0:0:0:
40,232,48057,2,0,B|52:300|56:312|56:312|68:348|112:364,2,160
124,96,49558,6,0,P|153:75|200:76,1,80,0|2,0:0|0:0,0:0:0:0:
256,128,50058,1,2,0:0:0:0:
260,152,50183,1,0,0:0:0:0:
261,177,50308,2,0,P|253:221|153:289,2,160,2|2|4,0:0|0:0|0:0,0:0:0:0:
448,232,51809,5,8,0:0:0:0:
404,300,52060,1,0,0:0:0:0:
328,324,52310,2,0,P|273:307|260:290,1,80
228,216,52810,1,8,0:0:0:0:
284,156,53060,1,0,0:0:0:0:
252,84,53311,6,0,P|239:67|184:50,1,80
104,64,53811,2,0,P|72:88|56:124,1,80,8|0,0:0|0:0,0:0:0:0:
84,196,54311,2,0,P|120:211|159:207,1,80
208,148,54812,2,0,P|203:108|180:76,1,80,8|0,0:0|0:0,0:0:0:0:
132,136,55312,1,0,0:0:0:0:
224,264,55812,22,0,P|188:288|152:293,2,80,8|0|0,0:0|0:0|0:0,0:0:0:0:
256,192,56563,1,0,0:0:0:0:
288,120,56813,2,0,P|324:96|359:90,2,80,8|0|0,0:0|0:0|0:0,0:0:0:0:
256,192,57564,1,0,0:0:0:0:
312,248,57814,2,0,P|390:253|444:191,1,160,8|0,0:0|0:0,0:0:0:0:
440,116,58564,1,0,0:0:0:0:
392,56,58815,2,0,P|312:46|256:100,1,160,8|4,0:0|0:0,0:0:0:0:
120,192,59815,5,8,0:0:0:0:
132,268,60066,2,0,P|168:255|191:222,1,80
196,148,60566,2,0,P|178:111|184:72,1,80,0|8,0:0|0:0,0:0:0:0:
256,20,61066,2,0,L|256:100,2,80
328,73,61817,2,0,P|333:111|316:148,1,80,8|0,0:0|0:0,0:0:0:0:
321,222,62317,2,0,P|344:255|380:268,1,80
392,192,62818,1,8,0:0:0:0:
328,144,63068,1,0,0:0:0:0:
256,180,63318,1,4,0:0:0:0:
256,192,63443,12,4,67321,0:0:0:0:
348,288,73576,5,0,0:0:0:0:
416,244,73826,1,2,0:0:0:0:
444,168,74076,1,0,0:0:0:0:
416,92,74326,2,0,P|336:76|276:120,1,160,2|0,0:0|0:0,0:0:0:0:
96,296,75327,6,0,P|176:312|236:268,1,160,4|8,0:0|0:0,0:0:0:0:
267,196,76078,2,0,P|223:189|188:203,1,80
236,268,76578,2,0,P|279:274|314:260,1,80,0|8,0:0|0:0,0:0:0:0:
268,196,77078,2,0,B|208:132|228:44,1,160,0|0,0:0|0:0,0:0:0:0:
300,20,77829,1,8,0:0:0:0:
380,28,78079,1,0,0:0:0:0:
444,76,78329,2,0,B|408:144|308:140,1,160,0|8,0:0|0:0,0:0:0:0:
228,136,79080,1,0,0:0:0:0:
148,140,79330,6,0,P|100:158|47:251,1,160,0|8,0:0|0:0,0:0:0:0:
52,328,80081,2,0,P|91:317|116:284,1,80,0|0,0:0|0:0,0:0:0:0:
172,232,80581,1,0,0:0:0:0:
248,212,80831,1,8,0:0:0:0:
324,228,81081,1,0,0:0:0:0:
392,272,81332,2,0,P|439:253|492:160,1,160,0|8,0:0|0:0,0:0:0:0:
484,84,82082,2,0,P|445:95|420:128,1,80,0|0,0:0|0:0,0:0:0:0:
352,84,82582,2,0,P|328:113|289:124,2,80,0|8|0,0:0|0:0|0:0,0:0:0:0:
284,44,83333,6,0,P|204:28|144:72,1,160,0|8,0:0|0:0,0:0:0:0:
136,152,84084,2,0,P|179:145|207:120,1,80
144,72,84584,2,0,P|100:78|72:103,1,80,0|8,0:0|0:0,0:0:0:0:
136,152,85084,2,0,B|212:204|168:292,1,160,0|0,0:0|0:0,0:0:0:0:
104,340,85835,1,8,0:0:0:0:
96,260,86085,1,0,0:0:0:0:
168,292,86335,2,0,P|248:296|320:256,1,160,0|8,0:0|0:0,0:0:0:0:
360,192,87086,1,0,0:0:0:0:
316,124,87336,6,0,P|246:87|168:92,1,160,0|8,0:0|0:0,0:0:0:0:
116,152,88087,2,0,P|149:170|192:168,1,80,0|0,0:0|0:0,0:0:0:0:
168,92,88587,1,0,0:0:0:0:
88,80,88837,1,8,0:0:0:0:
32,136,89087,1,0,0:0:0:0:
24,216,89338,2,0,P|42:263|144:308,1,160,0|8,0:0|0:0,0:0:0:0:
216,304,90088,2,0,P|251:285|270:247,1,80,0|0,0:0|0:0,0:0:0:0:
397,224,90588,2,0,P|361:241|343:276,1,80,0|10,0:0|0:0,0:0:0:0:
452,60,91339,6,0,P|404:120|316:128,1,160,0|8,0:0|0:0,0:0:0:0:
256,76,92090,2,0,P|292:48|332:44,2,80
208,148,92840,1,8,0:0:0:0:
172,68,93090,1,0,0:0:0:0:
208,148,93341,2,0,B|220:208|292:208|304:272,1,160,0|8,0:0|0:0,0:0:0:0:
256,344,94091,1,0,0:0:0:0:
208,270,94341,2,0,B|220:208|292:208|304:148,1,160,0|8,0:0|0:0,0:0:0:0:
256,64,95092,5,0,0:0:0:0:
208,148,95342,1,0,0:0:0:0:
304,148,95592,1,0,0:0:0:0:
256,64,95842,1,8,0:0:0:0:
256,192,96093,12,0,98344,0:0:0:0:
176,192,99095,5,0,0:0:0:0:
196,280,99345,2,0,B|236:268|256:228|256:228|276:268|316:280,1,160,0|8,0:0|0:0,0:0:0:0:
336,192,100096,1,0,0:0:0:0:
313,104,100346,2,0,B|276:116|256:156|256:156|236:116|196:104,1,160,0|8,0:0|0:0,0:0:0:0:
176,192,101096,1,0,0:0:0:0:
120,260,101347,2,0,P|200:276|256:228,1,160,0|8,0:0|0:0,0:0:0:0:
336,192,102097,1,0,0:0:0:0:
391,260,102347,2,0,P|316:277|256:228,1,160,0|8,0:0|0:0,0:0:0:0:
256,140,103098,5,0,0:0:0:0:
188,88,103348,2,0,P|256:52|324:88,2,160,0|8|0,0:0|0:0|0:0,0:0:0:0:
256,192,104599,12,4,107351,0:0:0:0:
128,48,122362,6,0,L|92:72,1,40
68,100,122612,2,0,L|48:140,1,40
60,176,122863,1,0,0:0:0:0:
76,336,123363,6,0,P|152:312|208:256,1,160,4|8,0:0|0:0,0:0:0:0:
256,192,124114,1,0,0:0:0:0:
304,128,124364,2,0,P|360:72|436:48,1,160,0|8,0:0|0:0,0:0:0:0:
440,128,125114,1,0,0:0:0:0:
396,192,125365,1,0,0:0:0:0:
396,192,125865,5,8,0:0:0:0:
440,256,126115,1,0,0:0:0:0:
436,336,126365,2,0,P|360:312|304:256,1,160,0|8,0:0|0:0,0:0:0:0:
256,192,127116,1,0,0:0:0:0:
208,128,127366,2,0,P|152:72|76:48,1,160,0|8,0:0|0:0,0:0:0:0:
72,128,128117,1,0,0:0:0:0:
116,192,128367,1,0,0:0:0:0:
300,288,128867,6,0,P|332:268|352:232,1,80,8|0,0:0|0:0,0:0:0:0:
352,152,129368,2,0,P|336:120|296:96,1,80,0|0,0:0|0:0,0:0:0:0:
220,96,129868,2,0,P|188:116|168:152,1,80,8|0,0:0|0:0,0:0:0:0:
168,232,130368,2,0,P|188:264|224:284,1,80,0|0,0:0|0:0,0:0:0:0:
256,192,130869,1,8,0:0:0:0:
256,192,131119,1,0,0:0:0:0:
256,192,131369,1,0,0:0:0:0:
408,244,131869,6,0,P|406:281|386:317,1,80,8|0,0:0|0:0,0:0:0:0:
332,260,132370,1,0,0:0:0:0:
256,240,132620,1,0,0:0:0:0:
180,260,132870,1,8,0:0:0:0:
123,315,133120,2,0,P|103:281|102:242,1,80
140,128,133871,6,0,P|160:96|200:76,1,80,8|0,0:0|0:0,0:0:0:0:
216,156,134371,2,0,L|300:156,1,80
315,76,134872,2,0,P|352:96|372:128,1,80,8|0,0:0|0:0,0:0:0:0:
368,208,135372,2,0,B|300:280|300:208|232:280,2,160,0|8|0,0:0|0:0|0:0,0:0:0:0:
340,124,136623,1,0,0:0:0:0:
256,92,136873,6,0,P|232:124|144:120,1,120,8|0,0:0|0:0,0:0:0:0:
140,164,137374,2,0,P|160:212|188:232,1,80
256,204,137874,1,8,0:0:0:0:
332,228,138124,1,0,0:0:0:0:
404,188,138374,1,0,0:0:0:0:
420,108,138624,1,0,0:0:0:0:
380,36,138875,1,8,0:0:0:0:
256,140,139375,6,0,B|190:217|99:140|37:213,1,240,4|0,0:0|0:0,0:0:0:0:
127,289,140376,2,0,B|188:215|96:138|163:58,1,240
240,36,141377,2,0,P|272:60|313:68,1,80
388,56,141877,1,8,0:0:0:0:
464,32,142127,2,0,P|464:80|440:116,1,80
380,148,142627,1,0,0:0:0:0:
308,184,142878,2,0,P|292:211|292:259,1,80,8|0,0:0|0:0,0:0:0:0:
192,304,143378,6,0,P|207:276|207:228,1,80,0|0,0:0|0:0,0:0:0:0:
156,168,143878,1,8,0:0:0:0:
100,112,144129,2,0,P|100:72|124:32,1,80,0|0,0:0|0:0,0:0:0:0:
156,168,144629,2,0,P|115:190|82:189,2,80,0|8|0,0:0|0:0|0:0,0:0:0:0:
220,120,145380,2,0,P|260:97|293:98,2,80,0|0|8,0:0|0:0|0:0,0:0:0:0:
276,176,146130,2,0,P|276:216|252:252,1,80,0|0,0:0|0:0,0:0:0:0:
196,300,146630,2,0,P|177:334|177:374,2,80,0|8|0,0:0|0:0|0:0,0:0:0:0:
256,248,147381,6,0,P|332:216|416:240,1,160,0|8,0:0|0:0,0:0:0:0:
436,308,148132,1,0,0:0:0:0:
356,304,148382,2,0,P|324:192|356:76,1,240
436,76,149383,1,0,0:0:0:0:
404,151,149633,2,0,P|332:168|256:136,1,160
188,96,150383,2,0,P|143:115|122:144,1,80
188,96,150884,2,0,P|232:76|253:47,1,80,8|0,0:0|0:0,0:0:0:0:
332,56,151384,5,0,0:0:0:0:
360,132,151634,2,0,B|392:200|320:216|344:284,1,160
408,332,152385,1,0,0:0:0:0:
344,284,152635,2,0,B|276:316|260:244|192:268,1,160
140,328,153386,1,0,0:0:0:0:
192,268,153636,2,0,B|160:200|232:184|208:116,1,160
156,56,154386,1,0,0:0:0:0:
208,116,154637,2,0,B|276:84|292:156|360:132,1,160,0|0,0:0|0:0,0:0:0:0:
416,72,155387,1,4,0:0:0:0:
256,92,155887,5,8,0:0:0:0:
256,172,156138,1,0,0:0:0:0:
296,240,156388,2,0,P|364:280|432:244,1,160,0|8,0:0|0:0,0:0:0:0:
440,168,157138,1,0,0:0:0:0:
364,192,157389,1,0,0:0:0:0:
256,92,157889,5,8,0:0:0:0:
256,172,158139,1,0,0:0:0:0:
216,240,158389,2,0,P|148:280|80:244,1,160,0|8,0:0|0:0,0:0:0:0:
72,168,159140,1,0,0:0:0:0:
148,192,159390,1,0,0:0:0:0:
300,244,159890,6,0,P|336:253|379:243,1,80,8|0,0:0|0:0,0:0:0:0:
340,164,160391,1,0,0:0:0:0:
256,136,160641,1,0,0:0:0:0:
212,244,160891,2,0,P|175:253|132:243,1,80,8|0,0:0|0:0,0:0:0:0:
172,164,161392,1,0,0:0:0:0:
256,136,161642,1,0,0:0:0:0:
340,164,161892,2,0,P|376:176|420:176,2,80,8|0|0,0:0|0:0|0:0,0:0:0:0:
256,136,162643,1,0,0:0:0:0:
184,84,162893,2,0,P|148:72|104:72,2,80,8|0|4,0:0|0:0|0:0,0:0:0:0:
376,80,163893,5,8,0:0:0:0:
384,160,164144,1,0,0:0:0:0:
376,240,164394,2,0,P|336:226|307:191,1,80
272,132,164894,1,8,0:0:0:0:
204,92,165144,1,0,0:0:0:0:
124,92,165395,6,0,P|131:127|163:160,1,80
232,192,165895,1,8,0:0:0:0:
280,256,166145,1,0,0:0:0:0:
272,336,166395,2,0,P|236:324|204:284,1,80
280,256,166896,2,0,P|304:228|308:176,1,80,8|0,0:0|0:0,0:0:0:0:
268,120,167396,1,4,0:0:0:0:
256,192,167521,12,4,171399,0:0:0:0:
200,296,177654,6,0,P|240:304|284:296,1,80,0|2,0:0|0:0,0:0:0:0:
356,276,178154,1,0,0:0:0:0:
432,244,178404,1,2,0:0:0:0:
436,84,178905,1,2,0:0:0:0:
360,56,179155,1,0,0:0:0:0:
280,40,179405,6,0,B|240:36|240:36|196:40,1,80,4|0,0:0|0:0,0:0:0:0:
120,56,179905,1,8,0:0:0:0:
56,108,180156,1,0,0:0:0:0:
40,188,180406,1,0,0:0:0:0:
60,264,180656,2,0,P|80:296|120:316,1,80,0|8,0:0|0:0,0:0:0:0:
196,316,181156,2,0,P|236:296|260:264,1,80
332,236,181657,6,0,P|312:204|272:184,1,80,0|8,0:0|0:0,0:0:0:0:
196,184,182157,2,0,P|156:204|132:236,1,80
172,300,182658,1,0,0:0:0:0:
244,332,182908,1,8,0:0:0:0:
324,336,183158,1,0,0:0:0:0:
404,316,183408,6,0,B|464:284|468:264|420:256|376:248|376:220|420:212|468:204|468:192|468:180|420:172|376:164|376:136|420:128|468:120|464:100|404:68,1,320,4|0,0:0|0:0,0:0:0:0:
324,72,184659,1,0,0:0:0:0:
324,72,184909,2,0,B|284:72|256:36|256:36|228:72|184:72,1,160,8|0,0:0|0:0,0:0:0:0:
108,68,185660,2,0,B|48:100|44:120|92:128|136:136|136:164|92:172|44:180|44:192|44:204|92:212|136:220|136:248|92:256|44:264|48:284|108:316,1,320
188,316,186911,1,8,0:0:0:0:
268,316,187161,1,0,0:0:0:0:
348,328,187411,6,0,B|400:308|376:268|376:268|352:228|404:204,1,160,0|8,0:0|0:0,0:0:0:0:
476,172,188162,1,0,0:0:0:0:
464,92,188412,1,0,0:0:0:0:
400,44,188662,2,0,P|360:32|316:36,1,80,0|8,0:0|0:0,0:0:0:0:
216,112,189162,2,0,P|256:115|296:112,1,80
190,36,189663,6,0,P|148:32|106:45,1,80,0|8,0:0|0:0,0:0:0:0:
52,92,190163,1,0,0:0:0:0:
48,172,190413,1,0,0:0:0:0:
52,252,190664,2,0,P|96:240|124:196,1,80,0|8,0:0|0:0,0:0:0:0:
172,156,191164,1,0,0:0:0:0:
232,104,191414,6,0,P|404:120|448:248,1,320,4|0,0:0|0:0,0:0:0:0:
312,328,192915,1,8,0:0:0:0:
268,260,193165,1,0,0:0:0:0:
260,180,193416,1,0,0:0:0:0:
280,104,193666,2,0,P|107:120|64:248,1,320
64,240,194917,1,8,0:0:0:0:
336,244,195417,6,0,P|404:208|424:132,1,160,0|8,0:0|0:0,0:0:0:0:
388,52,196168,2,0,P|351:49|313:67,1,80
251,162,196668,2,0,P|287:164|332:140,1,80,0|8,0:0|0:0,0:0:0:0:
239,83,197168,2,0,P|202:80|160:100,1,80
100,160,197669,5,0,0:0:0:0:
80,244,197919,1,8,0:0:0:0:
84,332,198169,1,0,0:0:0:0:
80,244,198419,2,0,P|160:256|232:228,1,160,0|8,0:0|0:0,0:0:0:0:
300,172,199170,2,0,P|300:130|279:93,1,80
217,153,199670,2,0,P|216:194|232:228,1,80,0|8,0:0|0:0,0:0:0:0:
256,192,200171,12,8,201922,0:0:0:0:
272,100,202422,6,0,P|300:72|340:64,1,80
340,152,202923,2,0,P|312:180|272:188,1,80,8|0,0:0|0:0,0:0:0:0:
184,184,203423,6,0,P|145:192|117:220,1,80
192,268,203923,2,0,P|218:297|256:307,1,80,8|0,0:0|0:0,0:0:0:0:
264,220,204424,2,0,P|272:184|260:144,1,80
260,144,204924,1,8,0:0:0:0:
260,144,205174,2,0,P|336:124|364:52,1,160
276,56,205925,5,8,0:0:0:0:
260,144,206175,1,0,0:0:0:0:
176,124,206425,2,0,P|100:144|72:216,1,160,0|8,0:0|0:0,0:0:0:0:
160,212,207176,1,0,0:0:0:0:
176,124,207426,1,0,0:0:0:0:
260,144,207676,1,0,0:0:0:0:
276,56,207926,1,8,0:0:0:0:
256,192,208177,12,8,209928,0:0:0:0:
152,112,210428,5,0,0:0:0:0:
216,160,210679,1,0,0:0:0:0:
296,160,210929,1,8,0:0:0:0:
360,112,211179,1,0,0:0:0:0:
256,80,211429,6,0,B|204:132|312:168|256:224,1,160,4|8,0:0|0:0,0:0:0:0:
176,220,212180,1,0,0:0:0:0:
216,288,212430,1,0,0:0:0:0:
296,288,212680,1,0,0:0:0:0:
336,220,212930,1,8,0:0:0:0:
256,80,213431,5,0,0:0:0:0:
144,192,213931,1,8,0:0:0:0:
256,80,214431,1,0,0:0:0:0:
368,192,214932,1,8,0:0:0:0:
256,304,215432,6,0,B|187:200|319:173|256:80,1,240
200,32,216433,2,0,P|162:17|120:20,1,80
52,52,216933,1,8,0:0:0:0:
40,132,217183,1,0,0:0:0:0:
76,204,217434,1,0,0:0:0:0:
147,238,217684,2,0,B|267:271|251:137|360:168,1,240
416,316,218935,1,8,0:0:0:0:
256,300,219435,6,0,B|204:248|312:212|256:156,1,160,4|8,0:0|0:0,0:0:0:0:
176,156,220186,1,0,0:0:0:0:
216,84,220436,1,0,0:0:0:0:
296,84,220686,1,0,0:0:0:0:
336,156,220936,1,8,0:0:0:0:
256,300,221437,5,0,0:0:0:0:
140,192,221937,1,8,0:0:0:0:
256,300,222437,1,0,0:0:0:0:
372,192,222938,1,8,0:0:0:0:
256,80,223438,6,0,B|332:164|184:208|256:300,1,240,4|0,0:0|0:0,0:0:0:0:
328,332,224439,2,0,P|368:336|410:326,1,80
476,288,224939,1,8,0:0:0:0:
460,208,225189,1,0,0:0:0:0:
472,128,225440,1,0,0:0:0:0:
420,68,225690,2,0,B|308:16|308:148|192:104,1,240
160,176,226691,1,0,0:0:0:0:
120,244,226941,1,8,0:0:0:0:
76,312,227191,6,0,P|48:280|40:244,1,80,0|4,0:0|0:0,0:0:0:0:
40,164,227691,2,0,P|48:128|76:92,1,80,0|8,0:0|0:0,0:0:0:0:
148,120,228192,2,0,L|172:80,2,40
192,188,228692,2,0,L|172:228,2,40,0|0|8,0:0|0:0|0:0,0:0:0:0:
252,136,229192,2,0,L|272:100,2,40
296,204,229693,2,0,L|276:240,2,40,0|0|8,0:0|0:0|0:0,0:0:0:0:
356,152,230193,2,0,P|400:140|448:164,2,80
396,220,230944,1,8,0:0:0:0:
256,296,231444,5,0,0:0:0:0:
104,248,231944,1,8,0:0:0:0:
92,168,232195,1,0,0:0:0:0:
128,96,232445,1,0,0:0:0:0:
256,192,232945,1,8,0:0:0:0:
256,112,233195,1,0,0:0:0:0:
256,192,233446,1,0,0:0:0:0:
408,248,233946,1,8,0:0:0:0:
420,168,234196,1,0,0:0:0:0:
384,96,234446,1,0,0:0:0:0:
256,192,234947,1,8,0:0:0:0:
100,228,235447,6,0,P|104:264|132:300,1,80,4|0,0:0|0:0,0:0:0:0:
180,236,235947,1,8,0:0:0:0:
256,260,236198,1,0,0:0:0:0:
332,236,236448,1,0,0:0:0:0:
412,228,236698,2,0,P|408:264|380:300,1,80,2|8,0:0|0:0,0:0:0:0:
364,164,237198,2,0,P|368:128|396:96,1,80,2|0,0:0|0:0,0:0:0:0:
332,48,237699,5,0,0:0:0:0:
256,32,237949,1,8,0:0:0:0:
180,48,238199,1,0,0:0:0:0:
116,96,238450,2,0,P|144:128|148:164,1,80,0|0,0:0|0:0,0:0:0:0:
68,156,238950,2,0,P|43:124|38:85,1,80,10|0,0:0|0:0,0:0:0:0:
120,232,239450,6,0,B|168:208|168:248|168:288|204:288|204:248|204:208|220:208|236:208|236:248|236:288|256:288|276:288|276:248|276:208|292:208|308:208|308:248|308:288|344:288|344:248|344:208|392:232,1,320,4|4,0:0|0:0,0:0:0:0:
332,120,240951,1,8,0:0:0:0:
256,140,241201,1,0,0:0:0:0:
180,120,241452,1,4,0:0:0:0:
256,140,241702,1,0,0:0:0:0:
256,192,241827,12,4,245455,0:0:0:0:
