osu file format v12

[General]
AudioFilename: Sade-SmoothOperator.mp3
AudioLeadIn: 0
PreviewTime: 75338
Countdown: 0
SampleSet: Soft
StackLeniency: 0.7
Mode: 0
LetterboxInBreaks: 0
WidescreenStoryboard: 0

[Editor]
Bookmarks: 19302,35312,40065,51323,67333,73337,91348,107359,122368,139380,145384,155390,171401,176404,195416,210426,227437
DistanceSpacing: 1
BeatDivisor: 4
GridSize: 4

[Metadata]
Title:Smooth Operator
TitleUnicode:Smooth Operator
Artist:Sade
ArtistUnicode:Sade
Creator:Alarido
Version:Normal
Source:
Tags:Soul Smooth Jazz 80's eighties 1984 songs cabaret Chicago glamour seduction
BeatmapID:236295
BeatmapSetID:76170

[Difficulty]
HPDrainRate:4
CircleSize:4
OverallDifficulty:4
ApproachRate:5
SliderMultiplier:1.4
SliderTickRate:2

[Events]
//Background and Video events
0,0,"sade-smut-op.jpg",0,0
//Break Periods
2,67521,72626
2,107551,122163
2,171599,176704
//Storyboard Layer 0 (Background)
//Storyboard Layer 1 (Fail)
//Storyboard Layer 2 (Pass)
//Storyboard Layer 3 (Foreground)
//Storyboard Sound Samples
//Background Colour Transformations
3,100,163,162,255

[TimingPoints]
1272,500.375211387402,4,2,0,60,1,0
19035,-100,4,2,0,60,0,0
75327,-100,4,2,0,80,0,1
91339,-100,4,2,0,60,0,0
179405,-100,4,2,0,80,0,1
195417,-100,4,2,0,60,0,0
211429,-100,4,2,0,80,0,1
227191,-100,4,2,0,60,0,0
227441,-100,4,2,0,80,0,1
245455,-100,4,2,0,60,0,0

[Colours]
Combo1 : 165,3,3
Combo2 : 3,135,3
Combo3 : 5,5,240
Combo4 : 45,189,189

[HitObjects]
296,176,19285,2,0,P|368:172|428:204,1,140,0|8,0:0|0:0,0:0:0:0:
420,288,20036,2,0,P|256:340|92:288,2,350
296,176,23038,1,0,0:0:0:0:
220,212,23288,2,0,P|148:216|96:176,1,140,0|8,0:0|0:0,0:0:0:0:
92,96,24039,2,0,P|256:44|420:96,2,350
36,256,27041,5,0,0:0:0:0:
88,320,27291,2,0,P|145:351|220:335,1,140,0|8,0:0|0:0,0:0:0:0:
320,208,28292,2,0,P|256:184|192:208,1,140,0|8,0:0|0:0,0:0:0:0:
295,338,29293,2,0,P|363:351|424:320,1,140,0|8,0:0|0:0,0:0:0:0:
476,256,30043,1,0,0:0:0:0:
488,172,30293,2,0,P|479:102|432:52,2,140,0|8|0,0:0|0:0|0:0,0:0:0:0:
320,176,31794,5,8,0:0:0:0:
320,176,32045,1,0,0:0:0:0:
404,320,32545,2,0,B|364:368|340:368|328:332|316:300|304:300|292:300|280:332|268:372|256:376|244:372|232:332|220:300|208:300|196:300|184:332|172:368|148:368|108:320,1,350,0|8,0:0|0:0,0:0:0:0:
172,164,34296,1,0,0:0:0:0:
340,164,34797,1,8,0:0:0:0:
256,20,35297,5,0,0:0:0:0:
256,188,35797,1,8,0:0:0:0:
192,244,36048,2,0,P|256:268|320:244,1,140
296,76,37048,2,0,P|364:68|468:156,1,210,0|8,0:0|0:0,0:0:0:0:
380,296,38299,2,0,B|316:336|256:272|256:272|192:336|128:296,1,280
44,153,39800,6,0,P|113:78|216:76,1,210,8|0,0:0|0:0,0:0:0:0:
156,232,41051,2,0,B|172:268|256:248|336:228|356:260,2,210,0|8|0,0:0|0:0|0:0,0:0:0:0:
355,259,43303,5,0,0:0:0:0:
412,100,43803,1,8,0:0:0:0:
256,36,44304,1,0,0:0:0:0:
196,96,44554,2,0,P|256:124|320:96,1,140
256,36,45305,1,0,0:0:0:0:
256,192,45805,1,8,0:0:0:0:
412,192,46305,1,0,0:0:0:0:
352,132,46555,2,0,P|324:192|352:256,1,140
412,192,47306,5,0,0:0:0:0:
256,192,47806,1,8,0:0:0:0:
100,192,48307,1,0,0:0:0:0:
160,256,48557,2,0,P|188:192|160:132,1,140
94,43,49558,6,0,P|164:52|220:92,1,140
221,175,50308,2,0,P|256:180|293:175,1,70
292,92,50809,2,0,P|348:52|420:44,1,140,8|4,0:0|0:0,0:0:0:0:
412,212,51809,5,8,0:0:0:0:
256,268,52310,1,0,0:3:0:0:
100,212,52810,1,8,0:0:0:0:
256,268,53311,1,0,0:3:0:0:
332,120,53811,2,0,P|380:108|404:84,2,70,8|0|0,0:0|0:0|0:0,0:0:0:0:
180,120,54812,2,0,P|132:108|108:84,2,70,8|0|0,0:0|0:0|0:0,0:0:0:0:
256,268,55812,1,8,0:0:0:0:
180,120,56313,6,0,P|124:160|96:224,1,140,0|8,0:0|0:0,0:0:0:0:
256,268,57314,2,0,L|256:344,2,70,0|0|8,0:0|0:0|0:0,0:0:0:0:
415,223,58314,2,0,P|388:160|332:119,1,140,0|8,0:0|0:0,0:0:0:0:
256,268,59315,1,4,0:0:0:0:
256,116,59815,5,8,0:0:0:0:
108,72,60316,1,0,0:0:0:0:
68,236,60816,1,8,0:0:0:0:
140,280,61066,1,0,0:0:0:0:
224,280,61317,1,0,0:0:0:0:
256,116,61817,1,8,0:0:0:0:
340,116,62067,1,0,0:0:0:0:
416,152,62317,2,0,P|412:224|372:280,1,140,0|8,0:0|0:0,0:0:0:0:
256,192,63318,12,4,67321,0:0:0:0:
192,208,73826,6,0,P|256:232|320:208,2,140,0|2|0,0:0|0:0|0:0,0:0:0:0:
72,96,75327,6,0,B|136:140|136:48|200:92,1,140,4|8,0:0|0:0,0:0:0:0:
256,152,76078,1,0,0:0:0:0:
312,91,76328,2,0,B|376:48|376:140|440:96,2,140,0|8|0,0:0|0:0|0:0,0:0:0:0:
256,152,77579,1,0,0:0:0:0:
192,208,77829,2,0,P|256:232|320:208,2,140,8|0|8,0:0|0:0|0:0,0:0:0:0:
112,60,79330,6,0,P|68:96|52:304,1,280
220,292,80831,1,8,0:0:0:0:
296,328,81081,1,0,0:0:0:0:
380,332,81332,1,0,0:0:0:0:
460,304,81582,2,0,P|444:96|400:60,1,280
320,40,82833,1,8,0:0:0:0:
156,68,83333,6,0,P|124:120|144:192,1,140,0|8,0:0|0:0,0:0:0:0:
208,248,84084,1,0,0:0:0:0:
292,252,84334,2,0,P|322:192|292:132,1,140,0|8,0:0|0:0,0:0:0:0:
208,136,85084,1,0,0:0:0:0:
144,191,85335,2,0,P|122:256|156:316,1,140,0|8,0:0|0:0,0:0:0:0:
236,336,86085,1,0,0:0:0:0:
304,288,86335,2,0,L|332:224,1,70
324,140,86836,2,0,L|348:72,1,70,8|0,0:0|0:0,0:0:0:0:
272,40,87336,6,0,P|236:112|76:62,1,280
120,224,88837,1,8,0:0:0:0:
200,256,89087,1,0,0:0:0:0:
284,268,89338,1,0,0:0:0:0:
368,252,89588,2,0,P|356:316|292:352,2,140
256,72,91339,6,0,P|225:133|146:143,1,140,0|8,0:0|0:0,0:0:0:0:
172,64,92090,2,0,P|108:80|76:148,2,140
340,64,93591,2,0,P|404:80|436:148,1,140
352,147,94341,2,0,P|286:133|256:72,1,140,0|8,0:0|0:0,0:0:0:0:
224,236,95342,2,0,P|256:224|288:236,2,70,0|0|8,0:0|0:0|0:0,0:0:0:0:
256,192,96093,12,0,98344,0:0:0:0:
104,72,99095,5,0,0:0:0:0:
184,92,99345,2,0,P|144:144|72:151,1,140,0|8,0:0|0:0,0:0:0:0:
52,232,100096,2,0,P|108:272|176:252,1,140
256,236,100846,1,8,0:0:0:0:
340,256,101096,2,0,P|404:273|460:233,1,140
408,72,102097,1,0,0:0:0:0:
328,92,102347,2,0,P|367:144|439:151,1,140,0|8,0:0|0:0,0:0:0:0:
320,272,103348,2,0,P|256:296|192:272,2,140,0|8|0,0:0|0:0|0:0,0:0:0:0:
256,192,104599,12,4,107351,0:0:0:0:
44,88,123363,5,4,0:0:0:0:
184,88,123863,1,8,0:0:0:0:
324,88,124364,1,0,0:0:0:0:
464,88,124864,1,8,0:0:0:0:
380,200,125365,6,0,P|440:232|512:224,2,140,0|8|0,0:0|0:0|0:0,0:0:0:0:
256,132,126866,1,8,0:0:0:0:
132,184,127366,2,0,P|72:152|2:159,2,140,0|8|0,0:0|0:0|0:0,0:0:0:0:
256,252,128867,1,8,0:0:0:0:
256,252,129368,1,0,0:0:0:0:
184,132,129868,6,0,L|134:82,2,70,8|0|0,0:0|0:0|0:0,0:0:0:0:
184,272,130869,2,0,L|134:321,2,70,8|0|0,0:0|0:0|0:0,0:0:0:0:
324,272,131869,2,0,L|373:321,2,70,8|0|0,0:0|0:0|0:0,0:0:0:0:
324,132,132870,2,0,L|373:82,2,70,8|0|0,0:0|0:0|0:0,0:0:0:0:
256,256,133871,5,8,0:0:0:0:
221,195,134121,1,0,0:0:0:0:
292,195,134371,1,0,0:0:0:0:
256,56,134872,1,8,0:0:0:0:
327,176,135372,2,0,B|400:216|400:136|456:168,1,140,0|8,0:0|0:0,0:0:0:0:
452,308,136373,2,0,P|396:348|328:340,1,140,0|8,0:0|0:0,0:0:0:0:
184,340,137374,2,0,P|115:347|60:307,1,140,0|8,0:0|0:0,0:0:0:0:
56,168,138374,2,0,B|112:136|112:216|185:176,1,140,0|8,0:0|0:0,0:0:0:0:
328,112,139375,6,0,B|476:80|488:208,1,210,4|0,0:0|0:0,0:0:0:0:
484,275,140376,2,0,P|435:322|367:320,1,140,0|8,0:0|0:0,0:0:0:0:
296,296,141126,1,0,0:0:0:0:
256,228,141377,2,0,L|256:148,2,70,0|0|8,0:0|0:0|0:0,0:0:0:0:
216,296,142127,1,0,0:0:0:0:
144,320,142377,2,0,P|76:322|27:275,1,140,0|8,0:0|0:0,0:0:0:0:
24,120,143378,5,0,0:0:0:0:
60,52,143628,1,0,0:0:0:0:
180,148,144129,2,0,P|164:216|180:284,1,140
332,284,145129,2,0,P|348:216|332:148,1,140
452,52,146130,1,0,0:0:0:0:
488,120,146380,2,0,P|480:188|428:248,1,140,0|8,0:0|0:0,0:0:0:0:
288,284,147381,1,0,0:0:0:0:
304,132,147881,6,0,P|325:105|357:89,2,70,8|0|0,0:0|0:0|0:0,0:0:0:0:
208,252,148882,2,0,P|186:278|154:294,2,70,8|0|0,0:0|0:0|0:0,0:0:0:0:
192,100,149883,2,0,P|144:52|72:40,2,140,8|0|8,0:0|0:0|0:0,0:0:0:0:
68,192,151384,5,0,0:0:0:0:
180,296,151884,2,0,P|158:322|126:338,2,70,8|0|0,0:0|0:0|0:0,0:0:0:0:
332,296,152885,2,0,P|353:322|385:338,2,70,8|0|0,0:0|0:0|0:0,0:0:0:0:
456,180,153886,2,0,B|296:44|216:336|80:204,1,420,8|4,0:0|0:0,0:0:0:0:
184,72,155887,5,8,0:0:0:0:
108,76,156138,2,0,P|117:112|144:136,1,70
296,132,156888,1,8,0:0:0:0:
372,136,157138,2,0,P|362:172|336:196,1,70
184,192,157889,1,8,0:0:0:0:
108,196,158139,2,0,P|117:232|144:256,1,70
296,256,158890,1,8,0:0:0:0:
372,260,159140,2,0,P|362:296|336:320,1,70
192,300,159890,5,8,0:0:0:0:
216,228,160141,1,0,0:0:0:0:
284,192,160391,1,0,0:0:0:0:
344,332,160891,2,0,P|404:296|432:233,1,140,8|0,0:0|0:0,0:0:0:0:
284,192,161892,1,8,0:0:0:0:
216,156,162142,1,0,0:0:0:0:
192,84,162392,1,0,0:0:0:0:
344,52,162893,2,0,P|404:88|432:150,1,140,8|4,0:0|0:0,0:0:0:0:
452,304,163893,6,0,B|384:276|412:368|332:340,1,140,8|0,0:0|0:0,0:0:0:0:
256,224,164894,2,0,B|217:161|316:176|275:101,1,140,8|0,0:0|0:0,0:0:0:0:
152,36,165895,6,0,B|72:8|100:100|32:72,2,140,8|0|8,0:0|0:0|0:0,0:0:0:0:
256,192,167396,12,4,171399,0:0:0:0:
220,196,177904,5,0,0:0:0:0:
352,116,178404,1,2,0:0:0:0:
212,52,178905,1,0,0:0:0:0:
64,96,179405,6,0,B|88:124|124:124|124:124|147:156|148:192,1,140,4|8,0:0|0:0,0:0:0:0:
148,268,180156,1,0,0:0:0:0:
200,328,180406,2,0,B|228:304|228:268|228:268|260:244|296:244,1,140,0|8,0:0|0:0,0:0:0:0:
372,244,181156,1,0,0:0:0:0:
432,192,181407,2,0,B|408:164|372:164|372:164|348:131|348:96,1,140,0|8,0:0|0:0,0:0:0:0:
348,20,182157,1,0,0:0:0:0:
276,48,182407,2,0,B|192:68|276:120|180:164,1,140,0|8,0:0|0:0,0:0:0:0:
48,168,183408,6,0,P|100:288|236:316,1,280
200,164,184909,1,8,0:0:0:0:
276,156,185159,1,0,0:0:0:0:
352,176,185410,1,0,0:0:0:0:
405,230,185660,2,0,P|361:282|293:306,3,140
217,306,187411,6,0,P|151:282|106:230,1,140,0|8,0:0|0:0,0:0:0:0:
76,160,188162,1,0,0:0:0:0:
80,84,188412,2,0,P|136:48|208:60,1,140,0|8,0:0|0:0,0:0:0:0:
256,116,189162,1,0,0:0:0:0:
306,58,189413,2,0,P|373:47|432:84,1,140,0|8,0:0|0:0,0:0:0:0:
436,160,190163,1,0,0:0:0:0:
405,230,190413,2,0,P|360:282|295:306,1,140,0|8,0:0|0:0,0:0:0:0:
276,156,191414,6,0,P|196:44|56:44,1,280
56,192,192915,1,8,0:0:0:0:
128,216,193165,1,0,0:0:0:0:
204,220,193416,1,0,0:0:0:0:
280,204,193666,2,0,P|332:160|348:92,2,140
204,220,194917,1,8,0:0:0:0:
96,108,195417,6,0,P|148:64|220:48,1,140,0|8,0:0|0:0,0:0:0:0:
292,48,196168,2,0,P|360:64|412:108,1,140
392,260,197168,1,0,0:0:0:0:
256,192,197669,1,0,0:0:0:0:
120,260,198169,1,0,0:0:0:0:
188,300,198419,2,0,P|256:320|320:300,1,140,0|8,0:0|0:0,0:0:0:0:
256,160,199420,2,0,L|256:232,2,70,0|0|8,0:0|0:0|0:0,0:0:0:0:
256,192,200171,12,8,201922,0:0:0:0:
100,84,202923,6,0,L|168:112,1,70,8|0,0:0|0:0,0:0:0:0:
184,184,203423,2,0,L|252:160,1,70
324,132,203923,1,8,0:0:0:0:
356,60,204174,2,0,B|370:66|383:72|413:92|388:128|412:106|399:123|398:137|402:153|410:167|420:176,1,140
372,236,204924,1,8,0:0:0:0:
416,300,205174,6,0,B|403:309|391:317|360:328|341:293|347:325|339:305|327:297|311:293|295:293|283:297,1,140
212,328,205925,2,0,L|152:292,1,70,8|0,0:0|0:0,0:0:0:0:
84,252,206425,2,0,L|32:304,2,70,0|0|8,0:0|0:0|0:0,0:0:0:0:
192,144,207426,2,0,P|256:120|320:144,1,140,0|8,0:0|0:0,0:0:0:0:
256,192,208177,12,8,209928,0:0:0:0:
256,192,210428,5,0,0:0:0:0:
412,192,210929,1,8,0:0:0:0:
316,72,211429,6,0,P|268:128|256:192,1,140,4|8,0:0|0:0,0:0:0:0:
256,268,212180,1,0,0:0:0:0:
256,191,212430,2,0,P|241:123|196:72,1,140,0|8,0:0|0:0,0:0:0:0:
100,192,213431,1,0,0:0:0:0:
180,324,213931,1,8,0:0:0:0:
256,324,214181,1,0,0:0:0:0:
332,324,214431,1,0,0:0:0:0:
416,192,214932,1,8,0:0:0:0:
276,126,215432,6,0,P|309:67|375:41,2,140,0|8|0,0:0|0:0|0:0,0:0:0:0:
132,176,216933,2,0,P|151:140|186:120,2,70,8|0|0,0:0|0:0|0:0,0:0:0:0:
208,196,217684,2,0,P|92:244|80:116,1,280
132,176,218935,1,8,0:0:0:0:
148,344,219435,6,0,P|212:324|256:268,1,140,4|8,0:0|0:0,0:0:0:0:
256,192,220186,1,0,0:0:0:0:
256,269,220436,2,0,P|298:323|364:344,1,140,0|8,0:0|0:0,0:0:0:0:
388,192,221437,1,0,0:0:0:0:
332,48,221937,1,8,0:0:0:0:
256,60,222187,1,0,0:0:0:0:
180,48,222437,1,0,0:0:0:0:
124,192,222938,1,8,0:0:0:0:
256,268,223438,6,0,P|213:322|148:344,2,140,0|8|0,0:0|0:0|0:0,0:0:0:0:
382,208,224939,2,0,P|362:243|327:256,2,70,8|0|0,0:0|0:0|0:0,0:0:0:0:
308,188,225690,2,0,P|458:208|435:264,1,280
288,312,227191,6,0,L|216:312,1,70,0|4,0:0|0:0,0:0:0:0:
236,240,227691,2,0,L|164:240,1,70,0|8,0:0|0:0,0:0:0:0:
192,168,228192,2,0,L|122:168,1,70
148,96,228692,2,0,L|72:96,1,70,0|8,0:0|0:0,0:0:0:0:
44,168,229192,2,0,L|72:232,1,70
148,232,229693,2,0,L|176:168,1,70,0|8,0:0|0:0,0:0:0:0:
216,100,230193,2,0,P|196:92|148:96,2,70
292,96,230944,1,8,0:0:0:0:
256,244,231444,5,0,0:0:0:0:
292,96,231944,2,0,P|240:51|170:48,1,140,8|0,0:0|0:0,0:0:0:0:
61,157,232945,2,0,P|112:201|182:204,1,140,8|0,0:0|0:0,0:0:0:0:
332,224,233946,6,0,P|368:240|400:240,2,70,8|0|0,0:0|0:0|0:0,0:0:0:0:
180,224,234947,2,0,P|144:240|112:240,2,70,8|0|0,0:0|0:0|0:0,0:0:0:0:
256,88,235947,2,0,L|256:18,2,70,8|0|0,0:0|0:0|0:0,0:0:0:0:
256,244,236948,5,8,0:0:0:0:
196,288,237198,2,0,P|256:320|316:288,1,140
256,244,237949,2,0,L|256:172,1,70,8|0,0:0|0:0,0:0:0:0:
316,132,238449,2,0,P|256:100|196:132,1,140,0|8,0:0|0:0,0:0:0:0:
144,276,239450,2,0,P|256:348|368:276,1,280,4|4,0:0|0:0,0:0:0:0:
256,192,241452,12,4,245455,0:0:0:0:
