osu file format v9

[General]
AudioFilename: Theme of Anrietta.mp3
AudioLeadIn: 0
PreviewTime: 25479
Countdown: 0
SampleSet: Soft
StackLeniency: 0.7
Mode: 0
LetterboxInBreaks: 1

[Editor]
Bookmarks: 116979,123479
DistanceSpacing: 0.8
BeatDivisor: 8
GridSize: 8

[Metadata]
Title:Theme of Anrietta
Artist:Sabao
Creator:ztrot
Version:Easy
Source:Moving E.C.M. 2
Tags:misja056

[Difficulty]
HPDrainRate:2
CircleSize:3
OverallDifficulty:2
ApproachRate:3
SliderMultiplier:1.2
SliderTickRate:2

[Events]
//Background and Video events
0,0,"BG.jpg"
//Break Periods
2,76729,86479
//Storyboard Layer 0 (Background)
//Storyboard Layer 1 (Fail)
//Storyboard Layer 2 (Pass)
//Storyboard Layer 3 (Foreground)
//Storyboard Sound Samples
//Background Colour Transformations
3,100,163,162,255

[TimingPoints]
1479,500,3,2,0,80,1,0
87979,-100,3,2,0,5,0,0
91416,-100,3,2,0,80,0,0

[Colours]
Combo1 : 136,136,255
Combo2 : 209,165,165
Combo3 : 255,217,179
Combo4 : 128,128,128

[HitObjects]
88,312,1479,2,0,B|256:424|432:312,1,360,0|2
88,72,4479,2,0,B|256:-40|432:72,1,360,0|2
352,120,6479,5,0
256,144,6979,1,2
160,120,7479,1,0
400,280,8979,5,2
112,280,10479,1,2
112,88,11479,1,0
208,88,11979,5,2
304,88,12479,1,0
400,88,12979,1,0
436,189,13479,6,0,B|76:189,1,360,0|2
76,45,16479,6,0,B|436:45,1,360,0|2
416,136,18479,5,0
320,136,18979,1,0
224,136,19479,1,2
400,360,20979,5,2
112,360,22479,1,0
136,72,23979,5,2
208,136,24479,1,0
304,136,24979,1,0
376,72,25479,6,0,B|456:144|472:240|416:320|296:336,1,360,2|0
136,72,28479,6,0,B|56:144|40:240|96:320|216:336,1,360,2|0
256,48,31479,5,2
208,232,32479,1,0
304,232,32979,1,2
208,64,33979,5,0
304,64,34479,1,2
128,144,35479,5,0
128,240,35979,1,2
256,384,36979,5,0
256,288,37479,1,2
352,144,38479,5,0
352,240,38979,1,2
256,240,39479,1,0
160,240,39979,1,0
160,144,40479,1,2
320,32,41479,5,0
256,104,41979,1,2
192,32,42479,1,0
128,104,42979,1,0
128,200,43479,6,0,B|248:200,2,120,2|0|2
128,296,44979,2,0,B|264:296,2,120,0|2|0
48,240,46479,5,0
48,144,46979,1,2
48,48,47479,2,0,B|168:48,1,120
168,144,48479,2,0,B|288:144,1,120,2|0
288,48,49479,5,0
448,152,50479,2,0,B|448:272,1,120,0|2
352,272,51479,1,0
256,272,51979,1,0
160,272,52479,6,0,B|40:192|104:56,1,240,2|0
200,64,53979,1,2
256,144,54479,1,0
256,240,54979,1,0
208,320,55479,6,0,B|88:320,2,120,2|0|2
304,320,56979,2,0,B|432:320,2,120,0|2|0
256,240,58479,5,0
256,144,58979,1,2
256,48,59479,1,0
168,96,59979,6,0,B|104:112|96:192,1,120
196,192,60979,2,0,B|324:192,1,120,0|2
448,328,62479,5,0
448,232,62979,1,2
304,104,63979,5,0
208,104,64479,1,2
64,232,65479,5,0
64,328,65979,1,2
160,328,66479,1,0
256,328,66979,1,0
352,328,67479,6,0,B|440:328|488:224|432:144,1,240,2|0
344,152,68979,1,2
152,152,69979,5,0
56,152,70479,1,2
192,288,71479,5,0
256,360,71979,1,2
320,288,72479,1,0
256,216,72979,2,0,B|256:88,1,120,0|2
128,240,74479,5,0
128,240,74979,1,2
384,240,75979,5,0
384,240,76479,1,2
256,192,87979,12,0,91479
256,64,92979,5,2
197,140,93479,2,0,B|317:140,2,120,0|2|0
72,288,95479,5,0
72,192,95979,1,2
152,240,96479,2,0,B|280:240,2,120,0|2|0
256,80,98479,5,0
256,80,98979,1,2
316,161,99479,2,0,B|196:161,2,120,0|2|0
256,336,101479,5,0
160,336,101979,1,2
352,336,102979,5,0
448,336,103479,1,2
448,144,104479,5,0
352,144,104979,1,2
160,144,105979,5,0
64,144,106479,1,2
256,360,107979,5,0
256,264,108479,1,0
256,168,108979,1,2
256,72,109479,1,0
400,192,110479,6,0,B|400:312,1,120,0|2
256,184,111979,6,0,B|256:304,1,120,0|2
160,304,112979,1,0
64,304,113479,1,0
64,208,113979,5,2
112,128,114479,1,0
200,96,114979,1,0
256,176,115479,5,2
312,96,115979,1,0
400,128,116479,1,0
448,208,116979,5,2
400,288,117479,1,0
320,336,117979,1,0
256,264,118479,5,2
192,336,118979,1,0
112,288,119479,1,0
64,208,119979,6,0,B|64:88,2,120,2|0|2
160,208,121479,2,0,B|160:80,1,120
256,88,122479,2,0,B|256:216,2,120,2|0|2
