osu file format v7

[General]
AudioFilename: shows-TV Themes - Inspector Gadget Cartoon Theme.mp3
AudioLeadIn: 1512
PreviewTime: 39732
Countdown: 1
SampleSet: Soft
StackLeniency: 0.7
Mode: 0
LetterboxInBreaks: 1

[Editor]
DistanceSpacing: 0.800000011920929
BeatDivisor: 4
GridSize: 8

[Metadata]
Title:Inspector Gadget
Artist:Saban Records
Creator:Bassmaster
Version:Hard
Source:
Tags:

[Difficulty]
HPDrainRate:5
CircleSize:4
OverallDifficulty:7
SliderMultiplier:3
SliderTickRate:2

[Events]
//Background and Video events
0,0,"Inspector_Gadget_by_rubendevela.jpg"
//Break Periods
//Storyboard Layer 0 (Background)
//Storyboard Layer 1 (Fail)
//Storyboard Layer 2 (Pass)
//Storyboard Layer 3 (Foreground)
//Storyboard Sound Samples
//Background Colour Transformations
3,100,163,162,255

[TimingPoints]
220,585.365853658537,4,2,0,100,1,0
18659,-100,4,1,0,100,0,0
40024,-100,4,1,0,100,0,1
49390,-100,4,1,0,100,0,0
54082,585.365853658537,4,1,0,100,1,0
56423,-100,4,2,0,100,0,0
66374,600,4,1,0,100,1,0
71924,-100,4,2,0,0,0,0

[Colours]
Combo1 : 255,0,0
Combo2 : 234,117,0

[HitObjects]
256,192,220,12,0,4317
256,192,4610,5,0
376,192,4902,2,0,B|448:224|416:328,3,150
176,336,6366,2,0,B|56:216,1,150
256,72,7244,6,0,B|464:72,1,150
456,184,7829,2,0,B|248:184|256:184,1,150
256,296,8415,2,0,B|104:304|32:208|32:128,1,300,0|4
256,48,9585,5,0
368,96,9878,1,0
472,160,10171,1,0
472,280,10463,1,0
472,280,11049,1,0
472,280,11634,1,0
352,304,11927,5,0
240,272,12219,1,0
120,248,12512,2,0,B|48:192|32:96,1,150
128,40,13098,2,0,B|232:24|448:56,1,300
464,288,14268,6,0,B|352:304|288:288,1,150
192,272,14854,1,4
80,224,15146,1,4
64,104,15439,2,0,B|136:56|232:72,1,150
328,88,16024,1,4
440,136,16317,1,4
440,256,16610,6,0,B|360:336|280:328,1,150
192,336,17195,2,0,B|136:328|40:272,1,150
48,160,17780,2,0,B|192:136|264:176,3,150
312,120,18951,5,0
432,136,19244,1,0
496,240,19537,1,8
424,336,19829,1,0
304,344,20122,2,0,B|104:328,1,150
56,264,20707,2,0,B|16:80,1,150,8|8
136,80,21293,2,0,B|224:48|304:64,3,150,0|0|8|0
336,168,22463,1,0
368,280,22756,2,2,B|176:280,1,150
64,96,23634,6,0,B|192:120|256:72,3,150,0|0|8|0
224,216,24805,2,0,B|216:264|256:344|320:352,1,150
408,344,25390,2,0,B|464:192|472:160,1,150,8|8
448,80,25976,5,0
328,80,26268,2,0,B|328:32,4,37.5
208,80,26854,2,0,B|208:32,4,37.5
104,136,27439,1,2
104,256,27732,1,2
328,336,28317,6,0,B|424:336|472:264,1,150
440,160,28902,2,0,B|296:56,1,150
200,40,29488,2,0,B|88:56|8:152|48:280,1,300
136,328,30366,1,0
256,344,30659,5,0
376,336,30951,1,0
440,240,31244,1,8
448,120,31537,1,0
352,56,31829,2,0,B|200:56,2,150,0|0|8
352,176,32707,1,8
288,272,33000,2,0,B|216:320|128:280,1,150
32,240,33585,2,0,B|0:192|8:136|48:88,1,150,8|0
152,56,34171,2,0,B|224:32|312:48,1,150,0|2
400,120,34756,1,2
256,312,35341,6,0,B|256:160,3,150,0|0|8|0
136,168,36512,2,0,B|-24:168,3,150,0|0|8|8
16,56,37683,6,0,B|88:32|184:48,1,150
280,56,38268,2,0,B|392:56|464:80,1,150
488,176,38854,2,0,B|496:240|464:336,1,150
352,352,39439,2,0,B|288:352|176:336,1,150
216,224,40024,6,2,B|144:160|152:72,1,150
56,64,40610,1,2
176,48,40902,1,2
256,56,41098,2,2,B|456:88|480:296,1,350
360,320,42073,2,0,B|176:352,1,150
96,328,42659,2,0,B|8:200,1,150,0|8
32,88,43244,2,0,B|192:32,1,150
296,48,43829,1,0
408,96,44122,1,8
456,208,44415,1,8
416,320,44707,5,2
296,312,45000,1,2
184,272,45293,1,2
96,192,45585,1,2
56,120,45780,2,2,B|96:48|272:48|368:80|392:120,1,350
480,176,46756,1,0
464,296,47049,1,0
344,320,47341,1,0
224,320,47634,1,8
120,264,47927,6,0,B|72:152,1,100
88,56,48415,2,0,B|176:24,1,50
256,56,48805,1,0
368,88,49098,1,0
448,176,49390,5,0
456,296,49683,2,0,B|400:328|288:320,1,150,0|8
192,304,50268,2,0,B|64:280|24:248,1,150
24,144,50854,1,0
104,56,51146,1,8
224,48,51439,1,8
344,40,51732,2,0,B|464:48|504:96,3,150,0|0|8|0
464,200,52902,2,0,B|416:368,1,150,0|2
304,320,53488,1,2
64,296,54082,6,0,B|64:120,1,150
64,24,54668,2,0,B|248:24,1,150,8|0
336,32,55253,2,0,B|336:216,1,150
336,304,55838,2,8,B|528:304,1,150
488,184,56424,6,0,B|464:88|304:64|200:64,1,300,4|0
152,72,57203,2,0,B|72:112,1,50
64,200,57594,6,0,B|32:312|152:352|240:352|288:336,1,300,4|0
352,328,58374,2,0,B|416:296,1,50
440,192,58765,6,0,B|416:80|288:32|192:40,1,300,4|0
168,112,59545,2,0,B|136:176,1,50
112,272,59936,6,0,B|184:360|328:336|392:272,1,300,4|0
432,216,60716,2,0,B|464:152,1,50
464,48,61107,6,4,B|264:48,1,150,4|0
192,48,61692,6,0,B|88:80|40:136,1,150,4|0
48,232,62277,6,0,B|56:328|152:344,1,150,4|0
256,344,62863,5,4
360,288,63155,1,0
424,192,63448,6,0,B|440:88,1,75
400,64,63741,2,0,B|304:48,1,75
264,56,64033,2,0,B|264:112,2,37.5
200,56,64326,2,0,B|200:104,2,37.5
136,56,64619,6,0,B|48:96,1,75
56,144,64911,2,0,B|56:232,1,75
80,272,65204,2,0,B|80:336,2,37.5
144,272,65497,2,0,B|144:328,2,37.5
200,272,65789,6,0,B|304:272,1,75
336,272,66082,2,0,B|416:272,1,75
408,208,66374,5,0
408,128,66574,1,0
408,128,66674,1,0
328,128,66874,1,0
328,128,66974,1,0
40,344,67874,5,2
40,192,68174,1,2
256,192,68774,12,0,71924
