osu file format v9

[General]
AudioFilename: Kaichou wa Maid-sama - Saaya Mizuno - My Secret (TV size).mp3
AudioLeadIn: 1015
PreviewTime: 49951
Countdown: 0
SampleSet: Normal
StackLeniency: 0.7
Mode: 0
LetterboxInBreaks: 0

[Editor]
DistanceSpacing: 1.2
BeatDivisor: 4
GridSize: 8

[Metadata]
Title:My Secret (TV Size)
Artist:Saaya Mizuno
Creator:Kotomi-chan
Version:Insane
Source:Kaichou wa Maid-sama!
Tags:FPRC16 Vicho-kun [Shalon] Fenya

[Difficulty]
HPDrainRate:6
CircleSize:4
OverallDifficulty:8
ApproachRate:8
SliderMultiplier:1.5
SliderTickRate:1

[Events]
//Background and Video events
0,0,"Konachan.com - 80874 sample.jpg"
Video,0,"Kaichou_wa_Maid-sama! op.avi"
//Break Periods
2,14273,17562
//Storyboard Layer 0 (Background)
//Storyboard Layer 1 (Fail)
//Storyboard Layer 2 (Pass)
//Storyboard Layer 3 (Foreground)
//Storyboard Sound Samples
//Background Colour Transformations
3,100,0,0,0

[TimingPoints]
1030,326.086956521739,4,1,0,60,1,0
1845,-100,4,2,0,60,0,0
4861,-100,4,1,0,60,0,0
18149,-100,4,2,1,60,0,0
50513,-100,4,1,0,60,0,0
50595,-100,4,1,0,60,0,1
60948,-100,4,1,0,60,0,0
61029,-100,4,1,0,60,0,1
66247,-100,4,1,0,60,0,0
76682,-100,4,1,0,60,0,1
76763,-100,4,1,0,60,0,0

[Colours]
Combo1 : 253,146,28
Combo2 : 47,160,3
Combo3 : 255,142,142

[HitObjects]
256,192,703,1,0
256,192,866,1,0
256,192,1030,1,4
256,192,2008,5,2
256,192,2334,2,0,B|216:168|216:80|256:48,1,150,0|2
256,192,2986,2,0,B|296:216|296:304|256:336,1,150,0|2
192,272,3475,1,0
120,328,3638,2,0,B|80:304|80:216|120:184,1,150,0|2
192,136,4127,1,0
264,80,4290,2,0,B|424:80,1,150,0|2
488,136,4780,1,0
424,200,4943,6,0,B|368:200,2,37.5
480,272,5269,1,0
480,272,5432,2,0,B|520:272,2,37.5
424,344,5758,1,0
336,344,5921,1,0
288,344,6002,1,0
240,344,6084,1,0
192,344,6165,1,0
144,344,6247,6,0,B|-16:344,2,150,0|8|0
184,264,7062,1,0
96,264,7225,1,8
56,184,7388,2,0,B|128:144|200:184,1,150
288,184,7877,1,8
288,272,8040,2,0,B|368:272|400:216|400:176,1,150
400,96,8530,2,0,B|432:64,2,37.5,8|0|0
312,72,8856,6,0,B|144:72,1,150,4|8
136,160,9345,2,0,B|216:160,1,75
176,248,9671,2,0,B|88:248,1,75,0|8
72,336,9997,2,0,B|240:336,1,150,4|0
312,336,10486,5,8
400,336,10649,1,0
400,160,10975,1,0
312,160,11138,1,8
400,160,11301,1,0
312,160,11464,2,0,B|128:160,1,150,0|8
72,160,11953,5,0
128,232,12116,2,0,B|144:272|192:264,1,75
280,264,12443,1,8
368,264,12606,2,0,B|360:336|320:352|264:352,1,150
176,352,13095,1,8
88,352,13258,2,0,B|96:288|152:256|216:272,1,150
280,264,13747,2,0,B|248:176|152:192,1,150,8|4
256,88,18312,5,0
256,88,18475,2,8,B|256:40,2,37.5
256,176,18801,1,0
256,264,18964,1,8
256,176,19127,1,0
256,176,19290,1,4
80,176,19616,6,0,B|80:352,1,150
160,280,20106,2,0,B|160:96,1,150
160,40,20595,1,0
240,80,20758,2,0,B|312:88|336:136|344:176,2,150
240,168,21573,1,0
240,256,21736,1,0
240,344,21899,2,0,B|320:344,1,75
376,280,22225,6,0,B|472:280,2,75,2|0|0
328,208,22714,2,0,B|232:208,1,75,0|2
184,152,23040,2,0,B|88:152,2,75
256,96,23529,1,2
344,96,23693,1,0
416,152,23856,6,0,B|416:232,3,75,0|0|2|0
408,320,24508,2,0,B|168:320,1,225,4|0
96,320,25160,1,0
96,320,25486,2,0,B|88:184|152:96,1,225
232,104,26138,1,0
320,104,26301,1,0
408,104,26464,1,0
232,104,26790,1,0
408,104,27116,5,6
256,328,27606,1,6
104,104,28095,1,6
104,192,28258,5,0
184,152,28421,1,0
184,240,28584,1,0
272,216,28747,2,0,B|272:296,1,75,8|0
360,264,29073,2,0,B|360:352,1,75,0|0
448,312,29399,1,8
448,312,29562,1,0
448,312,29725,1,4
456,136,30051,5,8
400,64,30214,1,0
344,136,30377,1,0
344,136,30540,1,0
168,136,30866,1,8
168,136,31029,1,0
112,64,31193,1,0
56,136,31356,1,8
104,208,31519,6,0,B|88:280|152:328|208:304,1,150,0|8
200,224,32008,2,0,B|240:224|264:192,1,75,8|0
272,104,32334,1,0
432,192,32660,5,8
496,256,32823,1,0
496,256,33149,1,0
440,328,33312,1,8
352,328,33475,1,0
352,328,33801,1,0
296,256,33964,1,8
328,176,34127,6,0,B|328:120|296:104,1,75,0|8
216,120,34453,2,0,B|200:80|144:88,1,75,0|8
72,120,34779,1,0
72,208,34943,2,0,B|72:288,1,75
160,192,35269,2,0,B|184:272,1,75,8|0
216,120,35595,2,0,B|272:184,1,75
336,232,35921,1,8
336,232,36084,2,0,B|352:304|440:304|456:288,1,150
416,208,36573,6,0,B|416:48,3,150,8|0|8|0
328,56,37714,1,0
240,56,37877,1,8
88,152,38203,5,0
112,240,38366,1,0
200,272,38529,1,8
280,224,38693,1,0
456,224,39019,5,0
456,312,39182,1,8
456,312,39263,1,0
456,312,39345,1,0
368,328,39508,1,0
368,328,39671,1,0
280,312,39834,5,8
40,312,40160,1,4
40,312,40486,1,0
40,312,40812,1,0
40,224,40975,1,0
120,256,41138,1,8
120,80,41464,5,0
200,32,41627,1,0
280,80,41790,1,8
352,32,41953,1,0
432,72,42116,2,0,B|432:248,1,150,0|8
344,256,42606,1,0
416,312,42769,6,0,B|376:352|304:352|272:312,1,150,0|8
192,320,43258,2,0,B|192:160,1,150
192,80,43747,2,0,B|216:48|304:40|344:96,1,150,8|0
400,136,44236,1,0
328,192,44399,1,8
160,192,44725,5,0
400,136,45051,1,0
96,136,45377,1,12
24,192,45540,2,0,B|24:272,2,75,0|8|0
24,104,46029,2,0,B|24:16,2,75
24,104,46519,2,0,B|112:136|192:96,1,150
256,72,47008,2,0,B|344:40|424:80,2,150,8|8|8
256,72,47986,5,8
256,72,48149,1,8
256,336,48475,1,8
256,336,48638,1,8
88,192,48964,1,8
88,192,49127,1,8
416,192,49453,1,8
416,192,49616,1,8
256,72,49943,5,2
256,120,50024,1,2
256,168,50106,1,0
256,216,50187,1,8
256,264,50269,1,8
256,312,50350,5,8
392,296,50595,2,0,B|392:232|416:192|488:184,1,150,6|8
480,272,51084,2,0,B|480:360,1,75,2|0
392,376,51410,1,0
304,376,51573,1,8
216,360,51736,2,0,B|40:360,1,150,2|0
66,360,52225,1,10
64,96,52551,1,2
64,8,52714,1,0
64,96,52877,1,8
64,184,53040,6,0,B|64:272,1,75,0|2
296,184,53529,2,0,B|296:96,2,75,8|2|0
296,184,54019,1,0
360,240,54182,1,8
296,304,54345,2,0,B|112:304,1,150,2|0
96,232,54834,2,0,B|135:232|176:200,1,75,2|0
168,64,55160,2,2,B|120:56|96:96,2,75,8|2|2
240,120,55649,5,0
312,64,55812,2,0,B|400:64|448:144,1,150,0|8
360,168,56301,2,0,B|424:224|432:312,3,150
352,336,57443,2,0,B|352:288|296:208|256:216,2,150,8|0|8
264,336,58258,1,0
176,336,58421,6,0,B|128:264,1,75
96,120,58747,2,0,B|144:184,1,75,8|0
272,216,59073,2,0,B|208:136,2,75,0|0|8
272,216,59562,2,0,B|328:256|416:240|424:192,1,150
456,136,60051,1,8
392,72,60214,1,0
304,72,60377,1,0
240,136,60540,6,0,B|240:216,2,75
176,72,61029,2,0,B|104:32|32:72,1,150,6|8
104,128,61519,2,0,B|104:288,1,150,2|0
104,278,62008,1,8
184,320,62171,2,0,B|184:232|256:200,1,150,2|0
344,200,62660,2,0,B|384:216|400:272,1,75,8|0
456,320,62986,1,0
456,320,63068,1,0
456,320,63149,1,0
512,248,63312,1,8
448,184,63475,5,0
448,184,63638,2,0,B|448:24,1,150,2|8
368,72,64127,2,0,B|368:232,1,150,2|0
240,288,64616,1,8
112,224,64779,2,0,B|112:64,1,150,2|0
192,32,65269,2,0,B|192:136,1,75,8|0
256,176,65595,1,0
256,176,65676,1,0
256,176,65758,1,0
312,104,65921,5,8
368,176,66084,1,0
424,104,66247,2,0,B|472:160|432:264,1,150,4|8
376,312,66736,1,0
200,312,67062,1,0
128,264,67225,1,8
112,176,67388,6,0,B|120:112|160:88,1,75
112,176,67714,2,0,B|176:144|200:176,1,75,0|8
272,192,68040,1,0
360,192,68203,2,0,B|528:192,2,150,0|8|0
272,192,69019,1,0
184,192,69182,6,0,B|184:264|128:264,1,75,2|0
96,192,69508,2,2,B|96:144|128:112,2,75,2|2|0
184,192,69997,2,0,B|240:120|192:40,1,150,2|0
128,104,70486,2,0,B|304:104,1,150,10|0
368,104,70975,1,0
456,104,71138,6,0,B|544:104,2,75,8|0|4
368,104,71627,1,0
304,168,71790,2,0,B|304:320,1,150,8|0
216,320,72279,1,0
128,320,72443,1,8
128,56,72769,5,2
256,144,72932,1,2
400,56,73095,1,2
400,56,73421,1,0
400,56,73747,1,0
400,104,73828,1,0
400,152,73910,1,0
400,200,73991,1,0
400,248,74073,6,0,B|384:336|264:320,1,150,0|8
200,320,74562,1,0
112,320,74725,2,0,B|112:232,1,75
176,184,75051,2,0,B|176:96,1,75,8|0
240,48,75377,5,0
328,48,75540,1,0
416,88,75703,1,8
472,176,75866,1,0
424,272,76029,1,0
304,304,76193,1,0
192,272,76356,1,8
192,272,76437,1,0
192,272,76519,1,0
192,272,76600,1,0
192,272,76682,6,0,B|192:112,1,150,4|8
248,48,77171,1,0
304,120,77334,2,0,B|304:208,1,75
368,256,77660,1,8
432,200,77823,2,0,B|432:104,2,75
432,200,78312,1,8
432,288,78475,2,0,B|256:288,1,150
192,288,78964,2,0,B|144:288,3,37.5
112,288,79290,6,0,B|56:248|64:144,1,150,4|8
152,152,79779,2,0,B|144:88|176:64,1,75
240,120,80106,1,0
328,96,80269,1,8
416,128,80432,2,0,B|416:288,1,150
328,320,80921,1,8
328,320,81084,2,0,B|328:152,1,150
328,80,81573,1,8
328,80,81654,1,0
328,80,81736,1,0
248,48,81899,6,0,B|96:48,1,150,0|8
56,128,82388,2,0,B|136:128,1,75
184,200,82714,2,0,B|280:200,1,75,0|8
312,264,83040,2,0,B|496:264,3,150
488,352,84182,2,0,B|320:352,1,150,8|0
256,192,84671,12,8,86790
256,48,87116,6,0,B|256:352,1,300,2|2
256,348,87932,1,2
256,348,88095,1,2
256,348,88258,1,6
