osu file format v14

[General]
AudioFilename: Kaichou wa Maid-sama - Saaya Mizuno - My Secret (TV size).mp3
AudioLeadIn: 0
PreviewTime: 49290
Countdown: 0
SampleSet: Soft
StackLeniency: 0.7
Mode: 0
LetterboxInBreaks: 0
WidescreenStoryboard: 0

[Editor]
DistanceSpacing: 1
BeatDivisor: 2
GridSize: 8
TimelineZoom: 2.2

[Metadata]
Title:My Secret (TV Size)
TitleUnicode:My Secret (TV Size)
Artist:Saaya Mizuno
ArtistUnicode:水野 佐彩
Creator:BetaStar
Version:Normal
Source:Kaichou wa Maid-sama!
Tags:gaia coookiezi droptimes
BeatmapID:668584
BeatmapSetID:295923

[Difficulty]
HPDrainRate:3
CircleSize:3
OverallDifficulty:3
ApproachRate:4
SliderMultiplier:1
SliderTickRate:1

[Events]
//Background and Video events
0,0,"Kaichou.wa.Maid-sama!.full.201057.jpg",0,0
//Break Periods
//Storyboard Layer 0 (Background)
//Storyboard Layer 1 (Fail)
//Storyboard Layer 2 (Pass)
//Storyboard Layer 3 (Foreground)
//Storyboard Sound Samples

[TimingPoints]
1030,326.086956521739,4,2,1,60,1,0
3638,-100,4,2,1,50,0,0
66247,-100,4,2,1,60,0,0
69182,-100,4,2,1,50,0,0

[Colours]
Combo1 : 88,53,255
Combo2 : 128,255,128
Combo3 : 255,255,0
Combo4 : 255,102,204
Combo5 : 255,153,0
Combo6 : 255,0,51
Combo7 : 0,255,255

[HitObjects]
72,320,703,5,0,0:0:0:0:
160,264,1030,2,0,B|208:64|208:64|312:168|312:168|416:64|416:64|464:280,1,700,0|0,0:0|0:0,0:0:0:0:
256,192,3638,12,0,5921,0:0:0:0:
88,144,6247,6,0,P|95:232|167:316,1,200,12|0,0:0|0:0,0:0:0:0:
264,344,7225,1,8,0:0:0:0:
264,344,7388,2,0,P|314:281|314:247,1,100,8|0,0:0|0:0,0:0:0:0:
248,176,8040,2,0,B|208:112|208:112|208:32,1,150,8|0,0:0|0:0,0:0:0:0:
312,72,8856,6,0,P|400:114|449:199,1,200,8|0,0:0|0:0,0:0:0:0:
416,296,9834,1,8,0:0:0:0:
416,296,9997,2,0,L|312:296,1,100,8|0,0:0|0:0,0:0:0:0:
208,296,10649,2,0,B|195:216|195:216|224:147,1,150,8|0,0:0|0:0,0:0:0:0:
328,152,11464,6,0,B|372:127|372:127|394:67,2,100,8|0|0,0:0|0:0|0:0,0:0:0:0:
288,56,12443,1,8,0:0:0:0:
288,56,12606,2,0,P|232:58|193:92,1,100,8|0,0:0|0:0,0:0:0:0:
248,168,13258,2,0,B|272:240|272:240|248:328,1,150,8|0,0:0|0:0,0:0:0:0:
256,192,14073,12,4,16682,0:0:0:0:
384,296,18638,6,0,L|432:283,2,50,8|8|8,0:0|0:0|0:0,0:0:0:0:
288,328,19290,2,0,P|280:280|320:224,1,100,12|8,0:0|0:0,0:0:0:0:
376,168,19943,1,0,0:0:0:0:
368,120,20106,2,0,P|320:104|264:104,1,100,8|0,0:0|0:0,0:0:0:0:
160,96,20758,2,0,B|112:120|112:120|89:177,1,100,8|0,0:0|0:0,0:0:0:0:
112,264,21410,1,8,0:0:0:0:
144,304,21573,6,0,L|88:352,2,50,8|0|0,0:0|0:0|0:0,0:0:0:0:
248,312,22225,2,0,P|366:287|274:208,1,300,8|0,0:3|0:3,0:3:0:0:
72,120,23856,2,0,L|32:32,2,50,8|8|8,0:0|0:0|0:0,0:0:0:0:
80,176,24345,1,8,0:0:0:0:
120,216,24508,2,0,P|168:232|240:224,1,100,8|0,0:0|0:0,0:0:0:0:
240,176,24997,2,0,B|283:119|283:119|366:87,1,150,8|0,0:0|0:0,0:0:0:0:
376,200,25812,5,8,0:0:0:0:
472,248,26138,1,8,0:0:0:0:
424,352,26464,1,8,0:0:0:0:
320,304,26790,1,8,0:0:0:0:
216,344,27116,2,0,L|66:344,2,150,12|12|12,0:0|0:0|0:0,0:0:0:0:
368,224,28584,6,0,L|424:224,2,50,8|8|8,0:0|0:0|0:0,0:0:0:0:
352,168,29073,2,0,L|327:124,1,50,8|0,0:0|0:0,0:0:0:0:
352,72,29399,1,12,0:0:0:0:
264,64,29725,6,0,P|216:80|176:128,1,100,8|0,0:0|0:0,0:0:0:0:
200,168,30214,2,0,L|288:256,1,100,8|0,0:0|0:0,0:0:0:0:
376,280,30866,2,0,P|336:328|280:344,1,100,8|0,0:0|0:0,0:0:0:0:
248,344,31356,2,0,L|152:304,1,100,8|0,0:0|0:0,0:0:0:0:
104,288,31845,2,0,L|72:216,1,50,8|0,0:0|0:0,0:0:0:0:
64,136,32334,5,8,0:0:0:0:
152,88,32660,2,0,B|200:64|200:64|256:72,1,100,8|0,0:0|0:0,0:0:0:0:
288,104,33149,2,0,L|376:80,1,50,8|8,0:0|0:0,0:0:0:0:
384,64,33475,1,8,0:0:0:0:
432,88,33638,2,0,L|408:192,1,100,8|8,0:0|0:0,0:0:0:0:
360,272,34290,2,0,L|320:336,2,50,8|8|8,0:0|0:0|0:0,0:0:0:0:
272,208,34943,6,0,P|239:246|194:271,1,100,8|0,0:0|0:0,0:0:0:0:
144,272,35432,2,0,P|100:246|67:207,2,100,8|0|8,0:0|0:0|0:0,0:0:0:0:
176,176,36410,2,0,L|184:112,1,50,8|8,0:0|0:0,0:0:0:0:
264,48,36899,2,0,L|368:48,1,100,8|8,0:0|0:0,0:0:0:0:
440,128,37551,6,0,B|416:261|256:189|242:327,1,300,8|0,0:0|0:0,0:0:0:0:
136,320,38856,2,0,L|80:320,2,50,8|8|8,0:0|0:0|0:0,0:0:0:0:
184,232,39508,2,0,L|144:200,2,50,8|8|8,0:0|0:0|0:0,0:0:0:0:
264,296,40160,6,0,P|296:248|352:232,1,100,12|8,0:0|0:0,0:0:0:0:
320,136,40812,2,0,P|272:104|256:48,1,100,8|8,0:0|0:0,0:0:0:0:
160,80,41464,1,8,0:0:0:0:
80,144,41790,2,0,B|112:208|224:160|248:248,1,200,8|0,0:0|0:0,0:0:0:0:
272,336,42769,2,0,B|360:312|288:256|384:232,2,150,12|4|4,0:0|0:0|0:0,0:0:0:0:
176,296,44073,2,0,B|128:272|128:272|80:224,1,100
80,144,44725,6,0,P|104:96|152:80,1,100,8|0,0:0|0:0,0:0:0:0:
232,40,45377,2,0,P|296:87|210:120,1,200,8|0,0:0|0:0,0:0:0:0:
128,184,46356,2,0,P|115:233|128:298,2,100,8|0|0,0:0|0:0|0:0,0:0:0:0:
216,240,47334,2,0,P|227:289|268:341,1,100,8|8,0:0|0:0,0:0:0:0:
320,248,47986,6,8,L|384:224,1,50,12|8,0:0|0:0,0:0:0:0:
304,152,48475,2,8,L|344:112,1,50,12|8,0:0|0:0,0:0:0:0:
248,56,48964,6,8,L|184:16,1,50,12|8,0:0|0:0,0:0:0:0:
104,88,49453,2,8,L|64:136,1,50,12|8,0:0|0:0,0:0:0:0:
168,184,49943,2,8,L|250:134,2,50,12|8|8,0:0|0:0|0:0,0:0:0:0:
152,280,50595,6,0,P|199:272|257:230,1,100,12|0,0:0|0:0,0:0:0:0:
280,216,51084,2,0,L|339:307,2,100
272,88,52225,2,0,B|312:56|312:56|376:56,2,100,8|0|8,0:0|0:0|0:0,0:0:0:0:
352,144,53203,6,0,P|348:197|309:248,1,100,8|0,0:0|0:0,0:0:0:0:
272,248,53693,2,0,B|224:256|224:256|128:232,2,100
240,152,54671,1,0,0:0:0:0:
216,104,54834,2,0,B|168:72|168:72|120:72,2,100,8|0|8,0:0|0:0|0:0,0:0:0:0:
144,184,55812,6,0,L|32:184,1,100,8|0,0:0|0:0,0:0:0:0:
24,232,56301,2,0,L|104:296,1,100,8|0,0:0|0:0,0:0:0:0:
152,296,56790,2,0,L|208:280,1,50
272,208,57279,1,8,0:0:0:0:
304,168,57443,2,0,L|368:168,2,50,8|8|8,0:0|0:0|0:0,0:0:0:0:
248,88,58095,1,8,0:0:0:0:
160,48,58421,6,0,P|88:96|56:208,1,200,8|0,0:0|0:0,0:0:0:0:
96,288,59399,1,0,0:0:0:0:
128,320,59562,2,0,B|169:348|169:348|219:348,1,100,8|0,0:0|0:0,0:0:0:0:
264,328,60051,2,0,B|294:288|294:288|296:238,2,100,12|12|12,0:0|0:0|0:0,0:0:0:0:
208,240,61029,6,0,P|222:192|257:157,1,100,12|0,0:0|0:0,0:0:0:0:
296,120,61519,2,0,B|378:90|378:90|434:117,1,150,8|0,0:0|0:0,0:0:0:0:
448,168,62171,2,0,L|400:208,1,50,8|8,0:0|0:0,0:0:0:0:
312,232,62660,2,0,L|280:368,2,100,8|8|8,0:0|0:0|0:0,0:0:0:0:
272,136,63638,6,0,P|222:161|183:208,1,100,8|0,0:0|0:0,0:0:0:0:
152,224,64127,2,0,B|107:211|107:211|47:146,2,100,8|0|0,0:0|0:0|0:0,0:0:0:0:
216,296,65106,2,0,L|160:344,2,50,8|8|8,0:0|0:0|0:0,0:0:0:0:
224,248,65595,2,0,B|240:200|240:200|296:184,1,100,8|0,0:0|0:0,0:0:0:0:
384,200,66247,6,0,P|432:176|472:128,1,100,8|0,0:0|0:0,0:0:0:0:
448,48,66899,2,0,P|403:69|368:105,1,100,8|0,0:0|0:0,0:0:0:0:
288,160,67551,2,0,L|224:136,2,50,8|8|8,0:0|0:0|0:0,0:0:0:0:
256,256,68203,2,8,L|320:240,2,50
216,344,68856,6,0,B|72:272|72:272|184:192|184:192|72:120|72:120|232:40,1,600,8|0,0:0|0:0,0:0:0:0:
320,64,71138,2,0,L|376:24,2,50,8|8|0,0:0|0:0|0:0,0:0:0:0:
280,152,71790,1,8,0:0:0:0:
376,192,72116,2,0,P|424:208|456:256,1,100,8|0,0:0|0:0,0:0:0:0:
368,296,72769,2,0,L|328:344,2,50,12|12|12,0:0|0:0|0:0,0:0:0:0:
104,152,74073,6,0,P|120:96|168:56,1,100,8|0,0:0|0:0,0:0:0:0:
248,64,74725,2,0,P|236:112|203:149,1,100,8|0,0:0|0:0,0:0:0:0:
152,232,75377,1,8,0:0:0:0:
232,312,75703,6,8,L|304:296,1,50,12|8,0:0|0:0,0:0:0:0:
304,248,76029,2,8,L|360:192,1,50,12|8,0:0|0:0,0:0:0:0:
336,160,76356,2,8,L|352:80,1,50,12|8,0:0|0:0,0:0:0:0:
304,72,76682,6,0,P|240:48|168:64,1,100,8|0,0:0|0:0,0:0:0:0:
112,96,77334,2,0,L|32:128,2,50,8|8|8,0:0|0:0|0:0,0:0:0:0:
160,128,77823,2,0,L|120:224,1,100,8|0,0:0|0:0,0:0:0:0:
120,272,78312,2,0,P|160:296|224:288,1,100,8|0,0:0|0:0,0:0:0:0:
312,264,78964,6,0,L|432:264,2,100,8|0|8,0:0|0:0|0:0,0:0:0:0:
248,184,79943,2,0,L|192:144,2,50,8|8|8,0:0|0:0|0:0,0:0:0:0:
304,168,80432,2,0,L|432:128,1,100,8|0,0:0|0:0,0:0:0:0:
440,104,80921,2,0,P|408:56|328:40,1,100,8|0,0:0|0:0,0:0:0:0:
272,56,81573,6,0,L|136:56,2,100,8|8|8,0:0|0:0|0:0,0:0:0:0:
232,160,82551,2,0,L|120:160,1,100,8|0,0:0|0:0,0:0:0:0:
104,200,83040,2,0,L|40:232,2,50,8|8|8,0:0|0:0|0:0,0:0:0:0:
144,240,83529,1,0,0:0:0:0:
216,312,83856,1,8,0:0:0:0:
312,272,84182,1,8,0:0:0:0:
392,208,84508,6,0,B|440:184|440:184|472:128,1,100,12|0,0:0|0:0,0:0:0:0:
360,104,85160,1,8,0:0:0:0:
256,72,85486,1,8,0:0:0:0:
152,104,85812,1,8,0:0:0:0:
80,192,86138,2,0,L|24:256,2,50,8|8|8,0:0|0:0|0:0,0:0:0:0:
136,288,86790,1,8,0:0:0:0:
248,336,87116,6,0,B|320:304|320:304|369:221,1,150,8|8,0:0|0:0,0:0:0:0:
416,224,87769,2,0,L|472:256,2,50,8|8|8,0:0|0:0|0:0,0:0:0:0:
408,168,88258,1,12,0:0:0:0:
