osu file format v9

[General]
AudioFilename: Saaya Mizuno - My Secret.mp3
AudioLeadIn: 1004
PreviewTime: 48211
Countdown: 1
SampleSet: Normal
StackLeniency: 0.7
Mode: 0
LetterboxInBreaks: 1

[Editor]
Bookmarks: 1255,6472,14298,29950,40385,50820,76907,89950,100385,110820,121254,144733,155168,165602,176037,178646,186472,199515
DistanceSpacing: 1.2
BeatDivisor: 4
GridSize: 8

[Metadata]
Title:My Secret
Artist:Saaya Mizuno
Creator:Miu Matsuoka
Version:Maid
Source:Kaichou wa Maid-sama!
Tags:Kenezz KanaRin

[Difficulty]
HPDrainRate:8
CircleSize:4
OverallDifficulty:7
ApproachRate:9
SliderMultiplier:1.4
SliderTickRate:1

[Events]
//Background and Video events
0,0,"BG.jpg"
//Break Periods
2,77107,89350
2,147541,154568
//Storyboard Layer 0 (Background)
//Storyboard Layer 1 (Fail)
//Storyboard Layer 2 (Pass)
//Storyboard Layer 3 (Foreground)
//Storyboard Sound Samples
//Background Colour Transformations
3,100,255,0,128

[TimingPoints]
1255,326.086956521739,4,2,0,100,1,0
2559,-200,4,2,0,100,0,0
5168,-100,4,1,1,50,0,0
6472,-100,4,1,1,80,0,1
6553,-100,4,1,1,80,0,0
14950,-100,4,2,0,70,0,0
27178,-100,4,1,1,40,0,0
29950,-100,4,1,1,70,0,0
50820,-100,4,1,2,80,0,1
51146,-100,4,1,1,80,0,1
72994,-100,4,1,1,80,0,0
74298,-100,4,1,1,80,0,1
74379,-100,4,1,1,80,0,0
89950,-100,4,1,1,70,0,0
97776,-100,4,1,1,40,0,0
99733,-100,4,1,1,60,0,0
100385,-100,4,1,1,70,0,0
121254,-100,4,1,2,80,0,1
121581,-100,4,1,1,80,0,1
143428,-100,4,1,1,80,0,0
144733,-100,4,1,1,80,0,1
144814,-100,4,1,1,80,0,0
155168,-133.333333333333,4,2,1,80,0,0
173428,-100,4,2,1,80,0,0
174407,-133.333333333333,4,2,1,80,0,0
174896,-133.333333333333,4,1,1,40,0,0
175059,-133.333333333333,4,1,1,50,0,0
175385,-133.333333333333,4,1,1,60,0,0
175711,-133.333333333333,4,1,1,70,0,0
176363,-100,4,1,2,80,0,1
176689,-100,4,1,1,80,0,1
178483,-100,4,1,1,80,0,0
178646,-100,4,1,1,80,0,1
186390,-100,4,1,1,80,0,0
186472,-100,4,1,1,80,0,1
199434,-100,4,1,1,80,0,0
199515,-100,4,1,1,80,0,1
202124,-100,4,1,1,80,0,0

[Colours]
Combo1 : 60,60,60
Combo2 : 255,155,255
Combo3 : 192,192,192
Combo4 : 255,0,255

[HitObjects]
256,96,928,1,0
256,96,1091,1,0
256,96,1255,1,4
168,288,2233,5,0
168,288,2559,2,0,B|200:336|256:360|312:336|344:288,1,210,4|0
344,96,3863,2,0,B|312:48|256:24|200:48|168:96,1,210,4|0
136,168,5168,5,8
128,184,5249,1,0
120,200,5331,1,8
112,216,5412,1,0
104,232,5494,1,2
179,268,5657,5,8
187,284,5738,1,0
195,300,5820,1,2
203,316,5901,1,0
211,332,5983,1,2
285,292,6146,5,2
301,300,6227,1,0
317,308,6309,1,2
333,316,6390,1,0
349,324,6472,2,0,B|411:353|411:353|452:359|494:330,1,140,4|8
452,173,7124,5,0
452,173,7287,2,0,B|423:98,1,70,0|8
434,24,7613,2,0,B|371:24|349:77|349:77|296:71,1,140
237,41,8102,1,8
237,41,8265,1,0
156,16,8428,1,0
156,16,8591,1,0
86,57,8754,1,8
109,138,8918,5,0
109,138,8999,1,0
109,138,9081,2,0,B|13:148|14:258,1,140,4|8
99,221,9570,1,0
182,209,9733,2,0,B|186:252|156:284,2,70,0|0|8
258,174,10222,6,0,B|330:188|424:176,1,140,4|0
443,108,10711,2,0,B|404:97|356:108,1,70,8|0
347,255,11037,2,0,B|386:258|417:250,1,70,8|0
313,46,11363,2,0,B|272:59|226:46,1,70,2|0
202,42,11608,1,0
161,33,11689,6,0,B|152:120|47:130,1,140,4|8
73,42,12178,1,0
73,42,12260,1,0
73,42,12341,2,0,B|184:143,1,140,0|8
254,104,12831,2,0,B|283:191|191:225,1,140,4|0
124,197,13320,2,0,B|86:192|54:196,1,70,8|0
17,271,13646,1,2
17,271,13809,1,2
57,344,13972,1,8
57,344,14135,1,0
140,339,14298,6,0,B|205:296|297:312,1,140,4|0
353,334,14950,1,2
394,260,15276,1,0
394,260,15439,1,2
364,181,15765,1,0
364,181,15928,1,0
364,181,16091,1,2
396,103,16418,1,0
396,103,16581,1,2
396,103,16744,1,0
396,103,16907,2,0,B|355:40|275:36,1,140,4|0
117,81,17559,5,2
117,81,17885,2,0,B|148:149,1,70,0|2
145,331,18374,1,2
145,331,18537,2,0,B|213:300,1,70,0|2
395,303,19026,1,2
395,303,19189,2,0,B|364:235,1,70,0|2
404,164,19515,6,0,B|336:141|294:196|294:196|270:203,1,140,0|2
203,160,20004,1,0
206,244,20168,2,0,B|184:273|135:282,1,70
63,267,20494,1,2
78,184,20657,2,0,B|27:169|0:120|0:64,2,140
106,18,21635,1,0
183,50,21798,1,2
256,8,21961,1,0
329,50,22124,6,0,B|383:38|428:76|424:128,1,140,0|2
341,137,22613,2,0,B|333:171|341:215,1,70
423,208,22939,1,2
436,290,23102,1,0
424,373,23265,1,2
256,336,23591,1,0
88,373,23918,1,2
76,290,24081,1,0
89,208,24244,1,2
144,144,24407,1,0
224,128,24570,1,2
304,152,24733,6,0,B|376:184|448:160,1,140,0|2
496,96,25222,2,0,B|464:80|408:80,1,70
352,40,25548,1,0
272,16,25711,2,0,B|208:56|112:24,1,140,2|0
80,192,26363,1,2
136,352,26689,1,0
256,232,27015,1,2
256,312,27178,5,2
256,312,27260,1,2
256,312,27341,2,0,B|296:336|328:336|328:336|360:320|384:288,1,140,4|0
256,232,27831,2,0,B|216:208|184:208|184:208|152:224|128:256,1,140,4|0
272,152,28320,2,0,B|288:72|344:40|344:40|384:56|440:40,1,210,4|8
464,112,28972,5,8
480,248,29135,1,8
376,152,29298,1,8
392,288,29461,1,8
288,192,29624,1,8
304,328,29787,1,0
200,232,29950,6,0,B|155:162|72:200,1,140,4|0
125,266,30439,1,0
125,266,30602,1,0
125,266,30765,2,0,B|46:273|22:348,2,140,0|2|0
38,121,31744,1,0
194,59,32070,2,0,B|156:57|122:37,2,70,2|8|0
236,131,32559,6,0,B|304:111|383:125,1,140,4|0
453,94,33048,1,0
486,171,33211,1,0
456,249,33374,1,0
372,257,33537,2,0,B|332:246|292:253,1,70,2|0
256,88,34026,5,2
256,88,34352,1,2
177,57,34515,1,8
99,88,34678,1,0
64,164,34841,1,8
84,245,35004,1,8
142,306,35168,6,0,B|207:352|287:308,1,140,0|8
342,363,35657,1,0
342,363,36146,1,2
424,347,36309,1,8
424,347,36798,1,2
488,192,37124,1,0
424,37,37450,1,8
312,160,37776,6,0,B|296:136|256:120|256:120|216:136|200:160,1,140,4|8
256,224,38265,1,0
256,224,38428,1,0
199,287,38591,2,0,B|216:312|256:328|256:328|296:312|312:288,2,140,2|2|2
128,240,39407,1,8
48,208,39570,1,0
48,208,39651,1,0
48,208,39733,2,0,B|59:140,1,70,2|0
172,56,40059,2,0,B|161:124,1,70,8|0
256,224,40385,6,0,B|288:152|383:152,1,140,4|0
397,74,40874,1,0
473,108,41037,2,0,B|493:140|499:188,1,70,0|0
500,257,41363,2,0,B|490:302|461:344,1,70,8|0
390,322,41689,6,0,B|356:306|308:305,1,70
256,248,42015,1,8
256,248,42178,1,0
176,280,42341,1,2
176,280,42423,1,0
176,280,42504,1,2
122,214,42668,1,8
122,214,42831,1,0
57,267,42994,6,0,B|8:200|48:112|128:120|160:136,2,210,4|2|2
41,349,44135,1,0
124,349,44298,2,0,B|149:337|149:337|192:337,1,70,2|0
388,349,44624,2,0,B|363:337|363:337|320:337,1,70,8|0
256,272,44950,2,0,B|256:112,2,140,2|2|4
176,240,45765,5,0
106,192,45928,2,0,B|89:161|51:147,1,70,8|0
29,67,46254,1,2
29,67,46418,1,0
111,53,46581,2,0,B|141:6|205:0|251:45,2,140,8|2|8
181,98,47396,1,2
256,136,47559,2,0,B|328:96,1,70,2|0
448,144,47885,2,0,B|376:184,1,70,8|0
408,256,48211,5,4
408,256,48374,1,0
256,328,48700,1,0
256,328,48863,1,0
104,256,49189,1,4
104,256,49352,1,0
168,104,49678,1,0
168,104,49841,1,0
344,104,50168,1,2
344,104,50249,1,0
344,104,50331,1,0
344,104,50412,1,0
344,104,50494,1,2
344,104,50575,1,2
344,104,50657,1,2
344,104,50738,1,2
344,104,50820,6,0,B|416:48|480:112,1,140,12|8
408,160,51309,1,0
486,189,51472,2,0,B|474:233|428:243,1,70,2|0
357,231,51798,1,8
293,285,51961,2,0,B|261:209|167:230,1,140,4|8
138,301,52450,2,0,B|170:377|264:356,2,140,0|2|8
55,285,53265,5,2
55,285,53347,1,0
55,285,53428,2,0,B|25:136,1,140,4|8
104,113,53918,2,0,B|147:119|186:112,1,70
302,59,54244,2,0,B|259:53|220:60,1,70,2|8
248,144,54570,2,0,B|263:195|326:218|373:186,1,140,4|0
274,162,55059,1,8
352,310,55385,2,0,B|307:312|270:341,2,70,2|0|8
429,343,55874,5,2
455,310,55956,1,2
480,276,56037,2,0,B|512:215|486:132,1,140,4|8
430,79,56526,1,0
351,109,56689,1,0
298,43,56852,2,0,B|264:33|226:36,1,70,0|8
223,119,57178,2,0,B|128:113|120:208,1,140,4|0
205,201,57668,2,0,B|192:240|192:240|192:288,1,70,8|0
307,201,57994,2,0,B|320:240|320:240|320:288,1,70,2|0
256,328,58320,5,0
256,328,58483,1,0
256,328,58646,2,0,B|232:352|192:368|152:352|128:328,2,140,0|8|0
288,248,59461,1,0
224,192,59624,1,2
256,112,59787,6,0,B|288:104|312:72|312:72|349:76|368:112,1,140,4|8
448,136,60276,1,8
448,136,60439,1,0
440,216,60602,1,8
440,216,60765,1,0
480,288,60928,1,2
469,306,61010,1,0
454,320,61091,1,2
434,328,61173,1,0
413,329,61254,6,0,B|357:329|357:329|336:312|336:312|268:312,1,140,4|8
237,238,61744,1,0
270,160,61907,2,0,B|308:176|318:213,2,70,0|8|0
186,169,62396,2,0,B|152:188|151:229|151:229|66:259,1,140,4|0
80,168,62885,2,0,B|112:112|152:88|207:86,2,140,8|0|8
87,251,63700,1,2
14,292,63863,6,0,B|63:363|142:316,1,140,4|8
203,270,64352,2,0,B|275:226|323:296,1,140
251,338,64841,1,8
251,338,65004,2,0,B|285:204,1,140,4|0
352,144,65494,2,0,B|392:136|424:144,1,70,8|0
480,83,65820,1,2
480,83,65983,1,2
415,29,66146,1,8
415,29,66309,1,0
331,31,66472,6,0,B|280:105|199:59,1,140,4|8
50,117,67124,2,0,B|124:168|78:249,1,140,0|8
115,316,67613,1,0
192,282,67776,2,0,B|259:243,1,70,2|0
387,284,68102,2,0,B|320:323,1,70,2|0
202,168,68428,2,0,B|269:129,1,70,2|0
313,66,68754,1,2
313,66,68918,1,2
383,111,69081,2,0,B|393:101|473:93|513:181|464:248,2,210,4|2|2
400,196,70222,5,0
319,173,70385,2,0,B|316:214|338:247,1,70
274,299,70711,2,0,B|266:263|239:223,1,70,2|0
185,141,71037,2,0,B|167:213,1,70,2|0
144,346,71363,2,0,B|109:280,1,70,2|0
66,213,71689,6,0,B|41:196|25:156|25:156|41:116|65:100,1,140,0|8
134,52,72178,1,2
216,37,72341,1,2
236,33,72423,1,0
256,33,72504,1,2
275,41,72586,1,0
290,55,72668,1,2
305,68,72749,1,2
323,77,72831,1,2
343,82,72912,1,2
363,84,72994,2,0,B|404:85|437:66,2,70,2|2|2
256,208,73972,5,8
256,232,74053,1,0
256,256,74135,1,0
256,280,74216,1,0
256,304,74298,1,4
256,192,74461,12,4,76907
337,161,89950,6,0,B|290:229|209:193,1,140,4|0
260,124,90439,1,0
176,121,90602,2,0,B|143:135|119:169,1,70
39,149,90928,1,2
67,228,91091,2,0,B|76:279|128:281|128:281|178:317,3,140
256,296,92233,1,2
256,296,92396,1,0
287,218,92559,6,0,B|364:254|328:347,1,140
413,355,93048,1,0
489,319,93211,2,0,B|463:274|418:272|418:272|414:246|400:222,1,140,0|2
416,141,93700,1,0
256,80,94026,1,0
96,141,94352,5,2
96,141,94515,1,2
40,200,94678,1,0
53,282,94841,1,2
121,331,95004,1,0
201,305,95168,6,0,B|252:236|324:275,1,140,4|0
277,345,95657,2,0,B|239:199,1,140
174,158,96146,1,2
119,222,96309,2,0,B|82:196|74:123|123:85,1,140
191,74,96798,2,0,B|180:36|133:19,2,70
353,33,97450,1,2
424,77,97613,5,0
424,77,97695,1,0
424,77,97776,2,0,B|428:141|428:141|470:152|490:207,1,140,2|0
405,222,98265,2,0,B|369:300|290:278,1,140
211,253,98754,2,0,B|133:231|97:309,1,140
24,267,99244,1,0
64,193,99407,1,0
37,113,99570,1,0
105,64,99733,1,2
105,64,99896,1,2
256,264,100385,6,0,B|344:280|368:192,1,140,4|8
320,130,100874,1,0
395,92,101037,1,0
461,143,101200,2,0,B|501:63|429:10,2,140,2|2|2
496,307,102178,1,0
496,307,102504,1,0
415,282,102668,1,8
381,358,102831,1,0
312,312,102994,6,0,B|296:336|256:352|256:352|216:336|200:312,1,140,4|8
256,248,103483,1,0
256,168,103646,1,0
182,127,103809,2,0,B|203:92|245:86,2,70,2|0|8
48,25,104461,1,0
8,192,104787,5,2
48,264,104950,1,0
128,296,105113,1,0
208,264,105276,1,8
256,192,105439,1,0
304,120,105602,6,0,B|349:42|440:96,1,140,4|8
377,157,106091,1,0
460,161,106254,1,0
495,237,106418,2,0,B|490:282|511:318,2,70,2|0|2
361,338,107070,1,2
216,248,107396,5,2
216,248,107477,1,2
216,248,107559,2,0,B|136:232,1,70,2|0
296,136,107885,2,0,B|376:152,1,70,8|0
200,152,108211,2,0,B|176:72|80:96,1,140,4|8
122,171,108700,1,0
122,171,108863,1,0
155,247,109026,2,0,B|70:265|43:191,2,140
134,328,109841,5,8
211,361,110004,1,2
211,361,110086,1,0
211,361,110168,1,2
256,292,110331,1,0
301,361,110494,1,2
378,328,110657,1,2
378,328,110738,1,2
378,328,110820,2,0,B|378:264|378:264|400:232|400:232|400:176,1,140,4|8
400,24,111472,5,0
400,24,111635,2,0,B|368:48|320:48,1,70,0|8
256,24,111961,2,0,B|256:168,1,140,0|0
184,208,112450,2,0,B|144:192|128:144,1,70,8|0
160,24,112776,2,0,B|144:64|96:80,1,70,2|2
0,88,113102,2,0,B|40:104|56:152,1,70,8|0
22,215,113428,2,0,B|27:307|134:311,1,140,4|8
109,224,113918,2,0,B|190:225|195:317,1,140,0|0
256,368,114407,1,8
256,368,114570,1,0
308,302,114733,6,0,B|398:290,1,70,4|0
428,199,115059,2,0,B|338:211,1,70,8|0
384,384,115385,2,0,B|474:372,1,70,2|2
365,119,115711,2,0,B|295:128,1,70,8|0
230,75,116037,6,0,B|144:87|107:6,1,140,4|8
40,60,116526,1,0
71,137,116689,1,2
11,196,116852,2,0,B|24:241|16:280,1,70,2|8
0,344,117178,2,0,B|58:359|85:315|85:315|149:299,1,140,2|0
190,248,117668,1,8
190,248,117831,1,0
256,304,117994,1,2
256,304,118157,1,0
322,248,118320,1,8
322,248,118483,1,0
384,192,118646,6,0,B|464:192,1,70,4|0
128,192,119135,2,0,B|48:192,1,70,0|0
256,304,119624,5,4
256,304,119787,1,0
256,80,120113,1,4
256,80,120276,1,0
128,192,120602,5,2
128,192,120684,1,0
128,192,120765,1,2
128,192,120847,1,0
128,192,120928,1,2
128,192,121010,1,2
128,192,121091,1,2
128,192,121173,1,2
128,192,121254,2,0,B|90:234|90:286|128:324,1,140,12|8
185,261,121744,5,0
185,261,121907,1,0
222,185,122070,2,0,B|269:207|271:247|271:247|344:274,1,140,8|4
480,204,122722,1,2
480,204,122885,2,0,B|480:256|480:256|456:288|456:288|456:347,2,140,8|2|8
507,124,123700,5,2
507,124,123782,1,0
507,124,123863,2,0,B|451:107|400:143|396:200,1,140,4|8
328,137,124352,1,0
296,58,124515,1,0
223,100,124678,2,0,B|195:126|154:126,1,70,8|0
159,41,125004,2,0,B|68:37|51:125,1,140,4|0
39,196,125494,2,0,B|46:246|88:262|88:262|92:292|74:318,2,140,8|2|8
122,187,126309,5,2
122,187,126390,1,2
122,187,126472,2,0,B|199:228|256:145,1,140,4|8
306,216,126961,1,0
292,298,127124,1,0
362,342,127287,2,0,B|408:272|485:313,2,140,8|4|2
292,298,128102,2,0,B|224:284,1,70,8|0
180,150,128428,2,0,B|248:164,1,70,2|2
125,230,128754,2,0,B|57:216,1,70,8|0
24,137,129081,6,0,B|9:89|40:36|106:26,1,140,4|8
103,112,129570,1,0
103,112,129733,1,0
168,58,129896,2,0,B|207:58|245:39,1,70,0|8
256,128,130222,2,0,B|320:78|392:120,1,140,4|0
451,64,130711,1,8
451,64,130874,1,0
451,64,131037,1,2
493,152,131200,1,2
472,262,131363,1,2
362,324,131526,1,2
226,290,131689,6,0,B|175:221|103:260,1,140,4|8
150,330,132178,2,0,B|188:184,1,140,0|8
117,144,132668,1,0
117,144,132831,2,0,B|159:86|232:104|262:148,1,140,4|0
300,185,133320,2,0,B|369:231|423:166,2,140,8|2|8
354,120,134135,5,2
354,120,134216,1,0
354,120,134298,2,0,B|372:271,1,140,4|8
334,334,134787,1,0
334,334,134950,1,0
256,304,135113,2,0,B|222:294|186:302,1,70,8|0
152,225,135439,2,0,B|76:272|20:203,1,140,4|2
50,129,135928,2,0,B|77:57,1,70,8|0
211,34,136254,2,0,B|184:106,1,70,8|0
292,191,136581,2,0,B|319:119,1,70,8|8
447,76,136907,6,0,B|447:132|447:132|472:160|472:160|472:224,1,140,4|8
388,203,137396,1,0
418,281,137559,2,0,B|362:281|362:281|334:306|334:306|270:306,1,140,8|8
215,348,138048,1,0
165,280,138211,5,4
165,280,138374,1,0
206,207,138537,1,2
206,207,138700,1,0
283,175,138863,2,0,B|265:124|202:106|153:139,2,140,2|2|4
425,85,139841,1,8
447,251,140168,2,0,B|477:344,2,70,8|0|8
336,376,140820,6,0,B|336:336|336:336|304:296,1,70,2|0
176,376,141146,2,0,B|176:336|176:336|208:296,1,70,2|0
216,232,141472,1,2
296,200,141635,1,0
256,128,141798,1,2
256,128,141961,1,0
256,48,142124,6,0,B|202:-16|127:30,1,140,4|8
56,66,142613,1,2
86,144,142776,1,2
82,164,142858,1,0
82,184,142939,1,2
90,203,143021,1,0
104,218,143103,1,2
117,233,143184,1,2
126,251,143266,1,2
131,271,143347,1,2
133,291,143429,2,0,B|134:332|115:365,2,70,2|2|2
256,64,144733,5,4
256,192,144896,12,4,147341
256,192,155168,5,6
256,192,155331,1,2
184,81,155657,1,0
184,81,155820,2,0,B|129:65|82:81,1,104.999996870756,8|0
29,123,156309,2,0,B|18:192|61:238,1,104.999996870756,2|0
116,208,156798,2,0,B|157:252|156:311,2,104.999996870756,0|8|0
240,257,157776,6,0,B|306:234|353:287,1,104.999996870756,4|2
397,238,158265,1,0
462,226,158428,2,0,B|474:257|498:271,2,52.4999984353781,8|0|0
488,164,158918,2,0,B|510:109|456:64,1,104.999996870756,2|0
392,55,159407,1,2
392,55,159733,1,8
256,65,160059,5,0
256,65,160222,1,0
256,65,160385,2,0,B|256:182,1,104.999996870756,4|2
206,220,160874,1,0
145,199,161037,2,0,B|119:183|82:192,2,52.4999984353781,8|0|0
106,254,161526,2,0,B|39:264|26:334,2,104.999996870756,2|0|0
154,299,162341,1,8
154,299,162668,1,2
256,215,162994,6,0,B|256:97,1,104.999996870756,4|2
256,41,163483,1,0
192,18,163646,2,0,B|137:10,1,52.4999984353781,8|0
319,18,163972,2,0,B|374:10,1,52.4999984353781,0|4
421,136,164461,1,4
374,263,164787,1,4
374,263,164950,2,0,B|390:326,1,52.4999984353781,8|0
279,286,165276,2,0,B|263:223,1,52.4999984353781,2|0
169,271,165602,6,0,B|138:330|58:310,2,104.999996870756,4|8|2
97,237,166418,1,0
128,166,166581,1,8
149,92,166744,2,0,B|87:76|56:135,2,104.999996870756,4|2|2
223,115,167559,1,0
223,115,167885,1,8
358,192,168211,6,0,B|414:231|469:192,1,104.999996870756,4|8
414,136,168700,1,0
357,83,168863,2,0,B|374:56|421:57,2,52.4999984353781,2|4|0
300,135,169352,2,0,B|279:197|212:191,1,104.999996870756,4|2
144,161,169841,1,8
109,230,170004,2,0,B|42:227|24:285,1,104.999996870756,2|0
59,356,170494,1,8
200,302,170820,6,0,B|184:328|153:334,2,52.4999984353781,4|0|0
312,302,171309,2,0,B|328:328|359:334,2,52.4999984353781,4|0|0
312,192,171798,2,0,B|328:166|359:160,2,52.4999984353781,4|0|0
200,192,172287,2,0,B|184:166|153:160,2,52.4999984353781,4|0|0
256,248,172776,1,4
256,247,173102,1,6
328,64,173428,6,0,B|346:26|383:26,2,70,4|0|0
184,64,173918,2,0,B|165:26|128:26,2,70,4|0|0
200,160,174407,2,0,B|216:192|256:216|256:216|296:192|312:160,1,157.499995306134,6|0
310,162,175059,1,0
310,162,175222,1,0
310,162,175385,1,0
310,162,175548,1,0
310,162,175711,1,0
310,162,175874,1,0
256,312,176363,5,4
256,312,176689,2,0,B|256:240,1,70,2|4
256,72,177178,1,4
256,72,177504,1,2
184,112,177668,2,0,B|144:128|104:120,1,70,8|2
328,112,177994,2,0,B|368:128|408:120,1,70,8|2
440,192,178320,1,8
440,192,178483,1,8
502,248,178646,6,0,B|474:286|397:286|369:237,1,140,4|8
296,269,179135,1,0
217,238,179298,1,0
134,248,179461,2,0,B|115:286|38:286|10:248,2,140,8|4|2
76,188,180276,2,0,B|76:339,2,140,8|2|8
119,116,181091,5,2
119,116,181173,1,2
119,116,181254,2,0,B|154:94|190:96|190:96|214:135|270:126,1,140,4|8
265,45,181744,2,0,B|300:28|348:32,1,70
446,101,182070,2,0,B|411:118|363:114,1,70,8|0
326,181,182396,2,0,B|303:271|402:309,1,140,4|2
407,219,182885,2,0,B|470:184,1,70,8|0
239,228,183211,2,0,B|176:263,1,70,2|2
134,189,183537,1,8
134,189,183700,1,0
74,128,183863,6,0,B|37:147|37:224|74:251,2,140,4|8|0
156,109,184678,1,2
180,28,184841,1,2
256,64,185004,1,4
256,64,185331,1,2
332,28,185494,1,8
356,109,185657,1,0
432,74,185820,2,0,B|497:41,1,70,2|2
479,181,186146,2,0,B|414:214,1,70,8|0
448,290,186472,6,0,B|388:314|348:269|348:269|299:277,1,140,4|8
258,214,186961,2,0,B|247:176|256:121,2,70,0|2|8
176,195,187450,1,0
157,276,187613,2,0,B|110:346|20:310,1,140,4|2
80,245,188102,2,0,B|120:379,2,140,8|2|8
99,162,188918,1,0
99,162,188999,1,0
99,162,189081,2,0,B|129:86|59:39,1,140,4|8
29,115,189570,2,0,B|163:76,1,140,0|2
216,10,190059,1,8
293,42,190222,2,0,B|357:99|321:179,1,140,4|0
255,121,190711,1,8
255,121,190874,1,8
190,276,191200,5,2
190,276,191282,1,0
190,276,191363,1,8
256,328,191526,1,8
322,276,191689,2,0,B|368:276|368:276|402:256|402:256|460:256,1,140,4|2
468,88,192341,1,2
468,88,192668,1,2
395,45,192831,1,0
314,68,192994,6,0,B|247:107,1,70,2|0
119,66,193320,2,0,B|186:27,1,70,0|0
304,182,193646,2,0,B|237:221,1,70,2|0
193,284,193972,1,2
193,284,194135,1,0
112,264,194298,6,0,B|62:264|22:236|22:236|2:181,1,140,4|8
119,66,194950,2,0,B|169:66|209:94|209:94|229:149,1,140,0|8
371,54,195602,2,0,B|454:44,1,70,2|0
376,170,195928,2,0,B|293:180,1,70,8|0
229,145,196254,1,2
131,160,196418,1,2
69,253,196581,1,10
114,370,196744,1,10
256,360,196907,6,0,B|312:320|400:336,1,140,4|8
436,264,197396,1,0
470,187,197559,1,2
463,167,197640,1,2
451,149,197722,1,2
433,138,197803,1,2
412,134,197885,1,8
392,140,197966,1,8
376,154,198048,1,8
356,162,198129,1,8
335,164,198211,2,0,B|295:165|262:148,2,70,6|6|6
168,192,199189,5,2
146,192,199271,1,2
125,192,199352,1,8
103,192,199434,1,8
82,192,199515,1,4
256,192,199678,12,4,202124
438,250,204733,6,0,B|475:224|475:147|440:121,2,140,4|8|0
382,187,205548,2,0,B|357:160|309:161,1,70,0|8
272,91,205874,2,0,B|221:156|137:114,1,140
93,53,206363,1,8
93,53,206526,1,0
36,114,206689,2,0,B|12:192,1,70
104,289,207015,2,0,B|128:211,1,70,8|0
189,169,207341,6,0,B|216:200|205:235|205:235|275:282,1,140,4|8
342,248,207831,1,0
342,248,207912,1,0
342,248,207994,2,0,B|387:179|463:209,1,140,2|0
416,279,208483,2,0,B|377:145,1,140,4|2
326,77,208972,2,0,B|287:66|239:77,1,70,8|0
185,194,209298,2,0,B|224:197|255:189,1,70,8|0
168,9,209624,2,0,B|127:22|81:9,1,70,2|0
29,61,209950,6,0,B|54:200,1,140,4|8
20,276,210439,1,0
20,276,210521,1,0
20,276,210602,2,0,B|103:288|121:369,1,140,2|8
190,316,211091,2,0,B|272:352|332:282,2,140,4|2|2
224,152,212070,1,2
224,152,212233,1,8
392,184,212559,1,4
