osu file format v9

[General]
AudioFilename: [MAD][papa][LOVE_PLUS+]colorful_days.mp3
AudioLeadIn: 2007
PreviewTime: 39641
Countdown: 0
SampleSet: Normal
StackLeniency: 0.2
Mode: 0
LetterboxInBreaks: 1

[Editor]
DistanceSpacing: 0.6
BeatDivisor: 4
GridSize: 8

[Metadata]
Title:Good Day
Artist:Saaya Mizuno
Creator:xinhe
Version:_loliplus+
Source:Love Plus
Tags:MAD love plus impossiblexu Alace _lolipop

[Difficulty]
HPDrainRate:6
CircleSize:4
OverallDifficulty:5
ApproachRate:8
SliderMultiplier:1.68
SliderTickRate:0.5

[Events]
//Background and Video events
Video,0,"PV.AVI"
0,0,"BG.jpg"
//Break Periods
//Storyboard Layer 0 (Background)
//Storyboard Layer 1 (Fail)
//Storyboard Layer 2 (Pass)
//Storyboard Layer 3 (Foreground)
//Storyboard Sound Samples
//Background Colour Transformations
3,100,163,162,255

[TimingPoints]
915,307.692307692308,4,1,0,10,1,0
2838,-100,4,1,0,50,0,0
3222,-100,4,2,1,65,0,0
12991,-100,4,1,0,45,0,0
13145,-100,4,2,1,65,0,0
13453,-100,4,1,1,70,0,0
14376,-100,4,1,1,75,0,0
15145,-100,4,1,2,65,0,0
15299,-100,4,1,0,65,0,0
15838,-100,4,2,0,65,0,0
17915,-100,4,1,0,40,0,0
18607,-100,4,2,0,65,0,0
20376,-100,4,1,0,40,0,0
21068,-100,4,2,0,65,0,0
22838,-100,4,1,0,50,0,0
24222,-100,4,1,0,65,0,0
25453,-100,4,1,1,50,0,0
35299,-133.333333333333,4,1,0,40,0,0
36684,-100,4,1,2,50,0,0
37530,-100,4,1,1,70,0,0
39530,-100,4,1,1,60,0,0
40068,-100,4,1,1,60,0,1
59991,-100,4,1,1,60,0,0
61761,-100,4,1,2,60,0,0
62068,-100,4,1,1,60,0,0
64530,-100,4,1,1,65,0,0
69822,307.692307692308,4,1,1,65,1,0

[Colours]
Combo1 : 225,79,251
Combo2 : 140,221,6
Combo3 : 7,156,237

[HitObjects]
256,192,761,12,0,2915
256,192,3068,5,4
96,160,3376,6,0,B|160:96|256:112,1,168,0|8
256,272,3991,2,0,B|320:272|352:224,2,84,0|0|8
96,224,4607,1,0
160,176,4761,1,0
160,176,4838,1,0
160,176,4915,2,0,B|192:224|160:272,1,84,8|0
256,272,5222,1,0
320,208,5376,2,0,B|352:160|400:144,1,84,0|8
256,272,5838,5,0
192,320,5991,1,0
128,256,6145,2,0,B|80:224|16:224,1,84,8|0
16,304,6453,1,0
96,352,6607,1,0
192,320,6761,2,0,B|272:304|368:336,1,168,8|0
448,320,7222,1,0
464,240,7376,2,0,B|432:208|448:144,2,84,8|0|0
400,288,7838,1,0
400,288,7991,2,0,B|208:288,1,168,8|0
96,192,8607,6,0,B|64:240|96:288,2,84,8|0|0
160,240,9068,1,0
208,304,9222,2,0,B|384:304,1,168,8|0
416,240,9684,1,0
432,224,9761,1,0
448,208,9838,2,0,B|512:128,1,84,8|0
432,96,10145,2,0,B|368:176,1,84
320,224,10453,1,8
96,224,10761,6,0,B|47:259|48:336|96:384,1,168,0|8
176,224,11222,1,0
256,144,11376,2,0,B|288:192|240:240,2,84,0|0|8
80,144,11991,5,0
80,112,12068,1,0
96,80,12145,2,0,B|144:64|208:96,1,84,0|8
256,144,12453,1,8
320,224,12607,1,8
368,320,12761,1,8
464,352,12914,1,8
464,352,13068,6,0,B|336:336|272:368,1,168,4|0
192,368,13530,1,0
32,240,13838,1,0
160,128,14145,1,0
368,224,14453,5,0
423,299,14607,1,0
368,375,14761,1,0
277,346,14914,1,0
277,252,15068,2,0,B|320:224|384:224,1,84,0|4
277,346,15376,2,0,B|240:368|176:368,1,84,0|4
64,96,15991,5,0
224,64,16299,1,0
259,199,16607,1,0
96,224,16914,2,0,B|192:240|272:192,1,168
320,144,17376,2,0,B|304:224|368:304,1,168
432,352,17838,1,0
480,288,17991,2,0,B|480:112,1,168,2|0
480,32,18453,1,0
320,96,18761,5,0
128,80,19068,2,0,B|96:128|112:192,2,84
299,176,19684,2,0,B|331:128|315:64,1,84
240,64,19991,1,0
128,80,20145,2,0,B|96:128|112:192,1,84
192,224,20453,2,0,B|240:64,1,168,2|0
240,64,20915,1,0
448,96,21222,6,0,B|480:144|464:224|384:240,1,168
320,224,21684,1,0
192,352,21838,2,0,B|160:304|174:212|256:208,1,168
320,224,22299,2,0,B|432:240,1,84
432,320,22607,1,0
352,304,22761,1,0
403,235,22915,2,0,B|458:63,1,168,2|0
336,64,23376,6,0,B|310:147,1,84
208,192,23684,2,0,B|234:109,1,84,0|0
160,32,23991,2,0,B|134:115,1,84,0|0
16,240,24299,5,0
160,32,24607,1,0
272,256,24915,1,0
464,96,25222,1,0
464,96,25376,6,0,B|416:176|448:272,1,168,4|0
368,288,25838,2,0,B|320:272|272:304,2,84,8|0|0
432,336,26299,1,0
352,368,26453,2,0,B|272:384|176:368,1,168,8|0
64,256,27068,1,8
144,240,27222,1,0
208,176,27376,2,0,B|256:208|240:272,2,84,0|0|8
144,240,27838,6,0,B|80:192|96:80,1,168
94,87,28299,1,8
80,176,28453,1,0
32,240,28607,1,0
32,240,28761,2,0,B|0:336,1,84,0|8
176,288,29222,2,0,B|240:368,2,84,0|0|8
320,160,29838,2,0,B|432:128,2,84,0|0|8
337,244,30299,6,0,B|161:292,1,168
80,352,30761,1,8
16,256,30915,1,0
112,192,31068,5,0
176,240,31222,1,0
96,272,31376,1,8
128,112,31684,5,0
192,160,31838,1,0
112,192,31991,1,8
112,192,32068,1,0
112,192,32145,2,0,B|32:144,2,84,0|0|0
176,240,32607,1,8
336,336,32915,6,0,B|384:320|448:336,1,84
480,272,33222,2,0,B|448:224|496:160,1,84,8|0
384,80,33530,2,0,B|416:128|368:176,2,84,0|0|8
304,112,33991,5,0
304,112,34145,2,0,B|240:160|144:128,1,168,0|8
64,80,34607,2,0,B|112:160|64:256,1,168
128,304,35068,1,8
208,272,35222,1,0
208,272,35376,6,0,B|336:272,1,125.999996244907,2|0
288,192,35838,2,0,B|144:192,1,125.999996244907,2|0
112,112,36299,2,0,B|256:112,1,125.999996244907,2|0
288,192,36761,5,2
352,128,36915,1,0
400,192,37068,1,4
384,272,37222,1,0
112,112,37684,5,4
256,192,37838,12,4,39068
128,192,39684,5,0
352,192,39838,1,0
160,320,40145,6,0,B|240:352|336:320,1,168
352,304,40530,1,0
384,272,40607,2,0,B|432:256|480:272,1,84,8|0
416,208,40915,2,0,B|368:240|282:222|256:144,1,168,0|8
224,96,41376,1,0
144,112,41530,2,0,B|180:154|160:208,2,84,0|0|8
80,176,41991,2,0,B|64:224|96:256,1,84
112,272,42222,1,0
128,288,42299,1,0
208,320,42453,1,8
416,288,42607,6,0,B|368:272|352:208,1,84
304,160,42915,1,0
304,128,42991,1,0
304,96,43068,2,0,B|336:64|384:48,1,84,8|0
304,160,43376,2,0,B|272:192|192:208,1,84
144,176,43684,1,8
16,288,43991,1,0
16,288,44145,2,0,B|128:288,1,84,0|8
160,368,44453,2,0,B|208:336|208:240|144:192,1,168
168,216,44915,1,8
64,128,45068,6,0,B|240:128,1,168
256,128,45453,1,0
280,128,45530,1,8
448,240,45838,2,0,B|464:288|432:336,2,84,0|0|8
384,176,46299,1,0
288,128,46453,2,0,B|272:80|304:32,1,84
368,96,46761,1,8
384,176,46915,2,0,B|400:240|384:304|320:336,2,168
288,128,47684,6,0,B|112:128,1,168,0|8
48,288,48299,2,0,B|240:288,1,168,0|8
272,224,48761,1,0
320,160,48915,2,0,B|496:160,2,168,0|8|0
176,240,49684,5,0
64,112,49991,6,0,B|96:80|192:80|224:112,1,168
240,128,50376,1,0
256,144,50453,1,8
256,224,50607,1,0
256,304,50761,2,0,B|320:336|368:288,2,84,0|0|8
192,256,51222,1,0
144,192,51376,2,0,B|48:192,2,84,0|0|8
192,128,51838,2,0,B|240:160|242:257|172:289,1,168
112,336,52299,1,8
272,336,52453,6,0,B|272:272|320:224|400:224,1,168
416,160,52915,2,0,B|320:160,1,84,8|0
256,208,53222,1,0
192,160,53376,1,0
128,208,53530,1,8
192,368,53838,6,0,B|224:320|176:256,1,84
128,208,54145,1,8
64,64,54299,6,0,B|32:112|80:176,1,84,0|8
128,208,54607,1,0
192,160,54761,5,8
256,112,54915,2,0,B|352:112|432:112,1,168
424,112,55299,1,0
424,112,55376,1,8
384,192,55530,1,0
384,192,55684,1,0
112,304,55991,1,8
272,352,56299,6,0,B|288:288|256:240,1,84
304,192,56607,1,8
137,193,56761,2,0,B|233:209|332:189,1,168
368,144,57222,1,8
416,80,57376,2,0,B|384:192|432:272,1,168
480,304,57838,1,8
480,304,58145,6,0,B|304:304,1,168,0|8
240,256,58607,1,0
160,192,58761,5,0
160,192,59068,1,8
160,192,59376,1,0
160,192,59684,6,0,B|64:192,2,84,8|0|0
320,240,60299,2,0,B|384:256|432:224,1,84,8|0
464,192,60607,2,0,B|464:304,2,84,0|0|8
320,112,61222,1,0
240,80,61376,1,0
160,112,61530,1,8
160,112,61607,1,0
160,112,61684,1,0
112,176,61838,5,0
176,240,61991,1,2
112,288,62145,1,0
256,192,62453,5,4
256,192,62530,12,0,64453
256,192,64607,5,8
416,224,64915,6,0,B|352:288|256:272,1,168,0|8
256,112,65530,2,0,B|192:112|160:160,2,84,0|0|8
416,160,66145,1,0
352,208,66299,1,0
352,208,66376,1,0
352,208,66453,2,0,B|320:160|352:112,1,84,8|0
256,112,66761,1,0
192,176,66915,2,0,B|160:224|112:240,1,84,0|8
256,112,67376,5,0
320,64,67530,1,0
384,128,67684,2,0,B|432:160|496:160,1,84,8|0
496,80,67991,1,0
416,32,68145,1,0
320,64,68299,2,0,B|240:80|144:48,1,168,8|0
64,64,68761,1,0
48,144,68915,2,0,B|80:176|64:240,2,84,8|0|0
112,96,69376,1,0
112,96,69530,2,0,B|304:96,1,168,8|0
416,192,70129,6,0,B|448:144|416:96,2,84,8|0|0
352,144,70591,1,0
304,80,70745,2,0,B|128:80,1,168,8|0
96,144,71206,1,0
80,160,71283,1,0
64,176,71360,2,0,B|0:256,1,84,8|0
80,288,71668,2,0,B|144:208,1,84
192,160,71975,1,8
266,209,72129,1,0
342,168,72283,6,0,B|307:119|230:120|182:168,1,168,0|8
266,209,72745,1,0
336,80,72898,2,0,B|301:31|224:32|176:80,1,168,0|8
64,192,73514,5,0
112,256,73668,1,0
192,272,73822,1,8
272,240,73975,1,0
320,176,74129,2,0,B|320:80,1,84,8|0
400,144,74437,2,0,B|400:240,1,84,8|0
480,272,74745,5,0
480,272,74822,1,0
480,272,74898,2,0,B|416:256|384:288,1,84,0|8
320,320,75206,1,0
240,352,75360,2,0,B|176:352|160:336,1,84
96,272,75668,1,8
160,112,75975,5,0
160,112,76052,1,0
160,112,76129,2,0,B|224:112|256:144,1,84,0|8
320,144,76437,1,0
400,112,76591,2,0,B|400:160|448:208,1,84
480,256,76898,1,8
448,336,77052,1,0
368,320,77206,2,0,B|192:320,1,168
80,208,77822,2,0,B|256:208,1,168
256,192,78437,12,0,79514
