osu file format v9

[General]
AudioFilename: [MAD][papa][LOVE_PLUS+]colorful_days.mp3
AudioLeadIn: 1996
PreviewTime: 39641
Countdown: 0
SampleSet: Normal
StackLeniency: 0.7
Mode: 0
LetterboxInBreaks: 1

[Editor]
DistanceSpacing: 1
BeatDivisor: 4
GridSize: 8

[Metadata]
Title:Good Day
Artist:Saaya Mizuno
Creator:xinhe
Version:LOVE PLUS
Source:Love Plus
Tags:MAD love plus impossiblexu Alace _lolipop

[Difficulty]
HPDrainRate:4
CircleSize:4
OverallDifficulty:4
ApproachRate:6
SliderMultiplier:1.00000000596046
SliderTickRate:0.5

[Events]
//Background and Video events
Video,0,"PV.AVI"
0,0,"BG.jpg"
//Break Periods
2,13729,15095
2,33730,38634
//Storyboard Layer 0 (Background)
//Storyboard Layer 1 (Fail)
//Storyboard Layer 2 (Pass)
//Storyboard Layer 3 (Foreground)
//Storyboard Sound Samples
//Background Colour Transformations
3,100,163,162,255

[TimingPoints]
915,307.692307692308,4,1,0,49,1,0
16053,-100,4,2,0,71,0,0
24130,-100,4,1,0,60,0,0
39515,-100,4,1,0,80,0,0
39900,-100,4,1,0,80,0,1
47900,-100,4,1,0,50,0,1
48130,-100,4,1,0,60,0,1
48438,-100,4,1,0,70,0,1
48746,-100,4,1,0,80,0,1
59900,-100,4,1,0,80,0,0
60207,-100,4,1,0,60,0,0
60515,-100,4,1,0,40,0,0
60823,-100,4,1,0,21,0,0
61130,-100,4,1,0,0,0,0
61746,-100,4,2,0,69,0,0
64823,-100,4,1,0,70,0,0
69822,307.692307692308,4,1,0,49,1,0
81976,-100,4,1,0,0,0,0
82284,-100,4,1,0,100,0,0

[Colours]
Combo1 : 225,79,251
Combo2 : 140,221,6
Combo3 : 7,156,237

[HitObjects]
128,224,2915,22,0,B|168:184,1,50.000000298023,0|4
232,120,3376,2,2,B|288:120|312:176,1,100.000000596046,2|8
368,256,3991,1,0
440,328,4299,1,8
472,296,4453,1,0
472,248,4607,2,2,B|488:160|416:104,1,150.000000894069,2|0
352,40,5376,1,0
304,40,5530,2,2,B|280:104|352:120,2,100.000000596046,8|2|8
200,40,6453,21,0
96,40,6761,2,2,B|96:104|32:120,1,100.000000596046,8|2
48,216,7376,1,8
80,256,7530,1,0
112,296,7684,2,2,B|160:328|224:288,1,100.000000596046,2|8
208,200,8299,2,2,B|328:208|368:320,1,200.000001192092
464,312,9222,21,8
464,208,9530,2,2,B|496:160|448:104,1,100.000000596046,2|8
448,64,9991,2,0,B|392:32|336:72,1,100.000000596046
320,96,10453,2,2,B|248:168,2,100.000000596046,8|2|8
224,88,11376,2,2,B|120:88,1,100.000000596046,2|10
24,88,11991,2,2,B|24:192|136:256,1,200.000001192092
216,200,12914,2,0,B|296:128|400:208,1,200.000001192092,8|8
176,264,16145,5,0
216,232,16299,1,2
216,128,16607,2,0,B|320:128,1,100.000000596046,8|2
368,128,17068,1,0
440,192,17376,1,0
368,264,17684,1,0
296,192,17991,1,0
96,192,18607,6,0,B|24:192,1,50.000000298023,0|2
48,88,19068,1,8
48,40,19222,1,0
96,40,19376,1,2
200,40,19684,2,0,B|256:40,1,50.000000298023,8|0
328,104,20145,1,0
256,176,20453,1,4
8,176,21222,6,0,B|8:288,1,100.000000596046,2|0
96,320,21838,2,0,B|200:320,1,100.000000596046,2|0
288,280,22453,2,0,B|288:168,1,100.000000596046,2|0
288,80,23068,2,0,B|416:80|416:208,1,200.000001192092,2|0
216,200,24299,5,4
144,136,24607,1,4
104,168,24761,1,0
64,136,24915,2,0,B|8:136,2,50.000000298023,4|0|4
320,136,25991,5,0
360,168,26145,1,0
440,224,26453,2,2,B|392:272,1,50.000000298023,8|0
328,328,26915,2,2,B|208:328,2,100.000000596046,0|0|0
227,328,27838,1,0
40,256,28453,5,0
40,208,28607,1,0
40,104,28915,2,2,B|40:72|88:56,1,50.000000298023
128,144,29376,1,0
200,208,29684,1,0
232,304,29991,2,0,B|296:296|296:224,1,100.000000596046
480,64,31068,6,2,B|400:144,1,100.000000596046,2|0
336,72,31684,2,2,B|256:152,1,100.000000596046,2|0
184,88,32299,2,2,B|112:160,1,100.000000596046,2|0
40,232,32915,2,2,B|128:328|224:216,1,200.000001192092,2|0
256,296,39684,6,2,B|296:256,1,50.000000298023
344,176,40145,1,0
384,200,40299,1,2
424,176,40453,1,0
384,152,40607,1,8
384,48,40915,1,2
288,48,41222,1,8
240,48,41376,1,0
240,48,41453,1,0
240,48,41530,2,2,B|176:48,1,50.000000298023
112,112,41991,1,0
192,176,42299,1,0
280,120,42607,22,0,B|280:184,1,50.000000298023,0|2
280,224,42915,2,0,B|320:224,2,25.0000001490115,0|0|8
280,272,43222,1,0
280,320,43376,2,2,B|232:352|176:312,1,100.000000596046,2|8
88,320,43991,2,2,B|88:264,1,50.000000298023
88,216,44299,1,8
88,216,44376,1,0
88,216,44453,2,0,B|88:152|160:152,1,100.000000596046,0|4
152,56,45068,22,0,B|152:24,2,25.0000001490115,0|0|2
192,88,45376,1,0
232,56,45530,1,8
336,56,45838,2,2,B|400:56|400:120,1,100.000000596046,2|8
464,192,46453,1,0
464,240,46607,1,0
400,320,46915,2,0,B|288:320,1,100.000000596046
300,320,47299,1,0
300,320,47376,1,8
248,320,47530,2,0,B|248:264,1,50.000000298023
248,168,47991,5,8
176,104,48299,1,2
96,48,48607,1,8
96,152,48915,1,2
96,200,49068,1,0
96,248,49222,1,8
96,296,49376,1,0
144,296,49530,2,2,B|200:296,1,50.000000298023
320,272,49991,5,0
400,208,50299,2,0,B|456:208,1,50.000000298023,0|8
456,160,50607,2,0,B|496:160,2,25.0000001490115,0|0|2
456,112,50915,1,0
456,64,51068,2,0,B|400:64,1,50.000000298023,8|0
352,64,51376,2,2,B|352:32,2,25.0000001490115
312,96,51684,1,8
272,64,51838,1,0
208,136,52145,1,0
272,216,52453,21,0
272,264,52607,2,2,B|208:264,1,50.000000298023
192,304,52915,1,8
160,264,53068,2,0,B|160:224,2,25.0000001490115,0|0|2
112,264,53376,2,0,B|56:264,2,50.000000298023,0|8|0
112,216,53838,2,2,B|112:152,1,50.000000298023
184,96,54299,1,0
256,168,54607,1,0
328,240,54915,22,0,B|392:240,1,50.000000298023,0|2
464,288,55376,1,8
464,184,55684,1,2
376,240,55991,1,8
328,240,56145,2,0,B|328:200,2,25.0000001490115,0|0|2
280,240,56453,1,0
176,240,56761,2,0,B|128:192,1,50.000000298023,0|2
96,232,57068,2,0,B|48:184,1,50.000000298023,0|8
56,144,57376,2,0,B|136:64,1,100.000000596046
176,72,57838,1,8
272,72,58145,5,2
344,136,58453,1,8
424,200,58761,2,2,B|488:200,3,50.000000298023,2|0|8|0
424,288,59530,6,0,B|424:344,1,50.000000298023,0|8
376,336,59838,1,0
328,336,59991,2,0,B|328:216,4,100.000000596046,2|8|2|8|4
128,336,61838,6,0,B|192:336|192:272,1,100.000000596046,2|0
192,176,62453,2,0,B|256:176|256:104,1,100.000000596046,2|0
328,48,63068,2,0,B|392:48|392:128,1,100.000000596046,2|0
392,208,63684,2,0,B|456:208|456:280,1,100.000000596046,2|0
384,344,64299,5,2
424,312,64453,2,0,B|424:272,2,25.0000001490115,0|0|4
464,344,64761,1,0
504,312,64915,2,2,B|504:208,1,100.000000596046,2|8
496,160,65376,2,0,B|464:128,2,25.0000001490115,0|0|2
448,160,65684,1,0
400,160,65838,1,8
336,88,66145,6,2,B|272:80|248:136,1,100.000000596046,2|8
200,128,66607,2,0,B|136:136|120:208,1,100.000000596046
96,224,67068,1,8
40,312,67376,2,2,B|152:312,1,100.000000596046,2|8
192,312,67838,1,0
200,304,67915,1,0
208,296,67991,1,0
304,256,68299,5,8
376,312,68607,1,2
408,288,68761,1,0
448,312,68915,2,2,B|448:208,1,100.000000596046,8|2
448,120,69530,1,8
448,16,69822,6,2,B|392:16|360:72,1,100.000000596046,2|8
312,64,70283,2,0,B|272:64,2,25.0000001490115,0|0|2
312,112,70591,1,0
312,160,70745,1,8
312,256,71052,6,2,B|192:256,1,100.000000596046,2|8
160,256,71514,1,0
112,256,71668,1,2
32,192,71975,1,8
32,88,72283,6,2,B|104:160,1,100.000000596046,2|0
200,160,72898,2,2,B|280:80,1,100.000000596046,2|0
368,88,73514,2,2,B|448:168,1,100.000000596046,2|0
440,256,74129,6,2,B|480:256,2,25.0000001490115,2|2|2
392,256,74437,1,8
344,256,74591,2,0,B|280:256|280:328,1,100.000000596046
232,320,75052,1,8
128,320,75360,5,4
128,64,75975,5,4
384,64,76591,5,4
384,320,77206,5,4
384,272,77360,2,0,B|384:240,2,25.0000001490115,4|0|0
336,272,77668,1,0
336,224,77822,5,4
336,176,77975,2,0,B|336:136,2,25.0000001490115,4|0|0
288,176,78283,1,0
288,128,78437,6,0,B|224:120|184:176,1,100.000000596046,4|0
160,192,78898,2,0,B|96:192|72:136,1,100.000000596046,4|0
24,232,79514,1,4
256,192,79668,12,0,82129
