osu file format v9

[General]
AudioFilename: [MAD][papa][LOVE_PLUS+]colorful_days.mp3
AudioLeadIn: 1996
PreviewTime: 39641
Countdown: 0
SampleSet: Normal
StackLeniency: 0.3
Mode: 0
LetterboxInBreaks: 1

[Editor]
DistanceSpacing: 2
BeatDivisor: 4
GridSize: 8

[Metadata]
Title:Good Day
Artist:Saaya Mizuno
Creator:xinhe
Version:LOVE PLUS +
Source:Love Plus
Tags:MAD love plus impossiblexu Alace _lolipop

[Difficulty]
HPDrainRate:7
CircleSize:4
OverallDifficulty:8
ApproachRate:8
SliderMultiplier:1.7
SliderTickRate:2

[Events]
//Background and Video events
Video,0,"PV.AVI"
0,0,"BG.jpg"
//Break Periods
2,35576,38911
//Storyboard Layer 0 (Background)
//Storyboard Layer 1 (Fail)
//Storyboard Layer 2 (Pass)
//Storyboard Layer 3 (Foreground)
//Storyboard Sound Samples
//Background Colour Transformations
3,100,163,162,255

[TimingPoints]
915,307.692307692308,4,1,0,50,1,0
15446,-200,4,1,0,51,0,0
15600,-200,4,1,0,0,0,0
15754,-100,4,2,0,60,0,0
24215,-100,4,1,0,59,0,0
25010,-200,4,1,0,61,0,0
25164,-200,4,1,0,21,0,0
25266,-100,4,1,0,60,0,0
39446,-100,4,1,0,79,0,0
40061,-100,4,1,0,79,0,1
47023,-200,4,1,0,80,0,1
47177,-200,4,1,0,50,0,1
47254,-100,4,1,0,80,0,1
47908,-100,4,1,0,70,0,1
48215,-100,4,1,0,60,0,1
48523,-100,4,1,0,50,0,1
49023,-100,4,1,0,79,0,1
49484,-200,4,1,0,80,0,1
49754,-100,4,1,0,80,0,1
53792,-200,4,1,0,80,0,1
54023,-100,4,1,0,80,0,1
57761,-100,4,2,0,80,0,1
58677,-200,4,2,0,79,0,1
58869,-200,4,2,0,71,0,1
59023,-200,4,2,0,60,0,1
59177,-200,4,2,0,50,0,1
59254,-100,4,1,0,79,0,1
59984,-100,4,1,0,80,0,0
61677,-100,4,2,0,71,0,0
64677,-100,4,1,0,80,0,0
69822,307.692307692308,4,1,0,80,1,0
79348,-100,4,1,0,61,0,0
79441,-100,4,1,0,49,0,0
81364,-100,4,2,0,0,0,0

[Colours]
Combo1 : 225,79,251
Combo2 : 140,221,6
Combo3 : 7,156,237

[HitObjects]
32,288,2915,21,0
32,200,3068,1,4
32,32,3376,2,2,B|128:32|192:120,1,170,2|8
352,96,3991,2,2,B|432:16,2,85,2|0|8
480,208,4607,2,2,B|400:288,2,85,2|2|8
480,120,5068,1,0
480,120,5376,1,0
392,120,5530,1,8
392,120,5838,2,2,B|392:24|272:24,1,170,2|8
280,112,6299,21,0
280,144,6376,1,0
280,176,6453,1,0
280,264,6607,1,0
192,264,6761,2,0,B|112:344,1,85,8|0
48,320,7068,1,4
48,320,7376,1,8
48,232,7530,1,0
48,232,7838,2,0,B|48:144,1,85,0|8
176,32,8299,2,2,B|280:32|280:152,1,170,2|8
368,144,8761,21,0
368,144,8838,1,0
368,144,8915,1,2
424,200,9068,1,0
408,280,9222,2,0,B|344:344,1,85,8|0
288,280,9530,2,2,B|360:208,2,85,2|2|8
232,344,9991,1,0
176,280,10145,1,0
32,192,10453,1,8
176,96,10761,2,2,B|240:32,2,85,2|2|8
240,152,11222,1,0
304,96,11376,54,2,B|368:160,2,85,2|2|8
240,152,11838,1,0
296,216,11991,54,2,B|232:280,2,85,2|2|8
240,152,12453,1,0
176,208,12607,5,0
112,144,12761,1,0
112,144,12838,1,0
112,144,12914,1,8
112,56,13068,1,0
40,104,13222,1,4
160,288,13530,5,8
160,96,13838,53,4
352,96,14145,5,8
352,288,14453,21,2
256,344,14607,5,0
256,344,14684,1,0
256,344,14761,1,8
256,256,14914,21,0
256,168,15068,1,2
256,80,15222,21,0
256,80,15299,1,0
256,80,15376,1,8
344,80,15530,6,0,B|400:80,1,42.5
480,328,16145,53,0
480,240,16299,1,2
480,72,16607,2,0,B|480:176,1,85,8|0
392,160,16914,1,2
336,224,17068,1,0
312,248,17145,1,0
288,272,17222,1,8
224,328,17376,1,0
136,328,17530,6,2,B|64:256,1,85,0|0
144,216,17838,1,8
208,160,17991,2,0,B|136:88,1,85,0|0
304,40,18453,53,8
424,160,18761,1,0
312,288,19068,1,8
312,200,19222,1,0
240,248,19376,1,0
72,248,19684,5,8
72,160,19838,1,0
72,248,19991,1,2
72,160,20145,2,0,B|152:80,1,85,0|8
216,104,20453,5,0
272,40,20607,1,2
336,96,20761,1,0
360,120,20838,1,0
384,144,20915,1,8
448,200,21068,1,0
384,256,21222,6,2,B|456:328,2,85,2|2|8
320,200,21684,1,0
256,144,21838,6,2,B|176:64,2,85,2|2|8
320,200,22299,1,0
384,144,22453,6,2,B|464:64,2,85,2|2|8
320,200,22915,1,0
264,264,23068,6,2,B|192:336,1,85
120,320,23376,1,8
32,320,23530,1,0
0,235,23684,1,2
72,288,23838,1,0
96,264,23915,1,0
104,232,23991,1,8
56,160,24145,1,0
144,128,24299,6,0,B|248:128,1,85,4|0
232,40,24607,1,8
296,96,24761,1,0
360,152,24915,1,2
424,208,25068,2,0,B|472:208,1,42.5,0|8
472,296,25376,5,0
472,128,25684,1,0
472,40,25838,2,0,B|360:40,1,85,8|0
304,40,26145,1,2
304,40,26453,5,8
216,40,26607,1,0
192,56,26684,1,0
216,72,26761,1,2
168,144,26915,1,0
80,144,27068,2,0,B|8:216,1,85,8|0
24,288,27376,1,2
56,288,27453,1,0
88,288,27530,1,0
144,352,27684,1,8
200,288,27838,5,0
288,288,27991,2,2,B|352:224,2,85,2|2|8
200,288,28453,1,0
200,200,28607,1,2
200,200,28915,21,8
144,136,29068,1,0
144,104,29145,1,0
144,72,29222,1,2
200,8,29376,1,0
264,64,29530,22,0,B|360:64,1,85,8|0
464,192,29991,1,0
352,320,30299,2,0,B|256:320,1,85,0|2
184,320,30607,5,0
120,264,30761,1,8
184,208,30915,1,0
184,120,31068,2,2,B|288:120|288:248,1,170,2|8
376,232,31530,5,0
376,320,31684,2,2,B|476:320|476:200,1,170,2|8
472,120,32145,5,0
472,32,32299,1,2
440,40,32376,1,0
416,56,32453,1,0
400,80,32530,1,0
392,112,32607,1,8
304,112,32761,1,0
192,112,32915,2,2,B|192:208,1,85,2|0
192,304,33222,21,8
256,88,33530,5,2
320,304,33838,5,8
256,216,33991,1,0
368,216,34145,2,2,B|368:160|440:160,1,85,2|0
420,161,34376,1,0
420,161,34453,1,8
480,104,34607,1,0
416,48,34761,1,2
328,48,34915,1,0
296,48,34991,1,0
264,48,35068,1,8
176,48,35222,1,0
88,48,35376,1,2
32,144,39684,37,0
32,240,39838,1,4
32,240,40145,1,0
32,328,40299,1,2
120,328,40453,1,0
144,304,40530,1,0
168,280,40607,1,8
240,328,40761,1,0
240,240,40915,5,2
312,280,41068,1,0
336,304,41145,1,0
360,328,41222,1,8
448,328,41376,1,0
448,240,41530,22,2,B|504:240|504:296,2,85,2|2|8
448,152,41991,1,0
448,152,42299,1,0
448,64,42453,2,0,B|344:64,1,85,8|0
280,64,42761,21,2
192,64,42915,1,0
168,88,42991,1,0
144,112,43068,1,8
56,112,43222,1,0
56,200,43376,5,2
144,200,43530,1,0
168,224,43607,1,0
192,248,43684,1,8
280,248,43838,1,0
368,248,43991,22,2,B|472:248,2,85,2|2|8
280,248,44453,2,0,B|280:360|160:360,1,170
176,272,44915,1,8
88,272,45068,1,0
88,184,45222,21,2
152,120,45376,1,0
176,96,45453,1,0
200,72,45530,1,8
264,16,45684,1,0
336,64,45838,1,2
280,128,45991,1,0
248,160,46068,1,0
216,192,46145,1,8
160,256,46299,1,0
160,344,46453,6,2,B|72:344,2,85,2|2|8
248,344,46915,1,0
336,344,47068,2,2,B|384:344,1,42.5
384,256,47376,1,8
384,168,47530,1,0
384,80,47684,1,4
128,80,47991,21,8
128,304,48299,1,4
384,304,48607,1,8
256,304,48761,21,0
256,304,48838,1,0
256,304,48915,1,2
144,192,49068,21,0
256,80,49222,1,8
368,192,49376,1,0
256,192,49530,22,2,B|256:136,1,42.5,2|0
144,40,49991,21,0
120,64,50068,1,0
96,88,50145,1,2
32,144,50299,1,0
32,232,50453,1,8
120,232,50607,1,0
144,208,50684,1,0
168,232,50761,1,2
168,320,50915,1,0
256,320,51068,1,8
344,320,51222,6,0,B|344:224,2,85,0|2|0
432,320,51684,1,8
496,256,51838,21,0
496,168,51991,1,2
488,136,52068,1,0
472,112,52145,1,0
448,96,52222,1,0
424,88,52299,1,8
336,88,52453,1,0
248,88,52607,21,2
112,192,52915,1,8
248,296,53222,1,2
336,296,53376,1,0
368,296,53453,1,0
400,296,53530,1,8
400,208,53684,1,0
400,120,53838,6,0,B|344:120,1,42.5,4|0
360,32,54145,21,8
328,40,54222,1,0
304,56,54299,1,0
288,80,54376,1,0
280,112,54453,1,2
192,112,54607,1,0
192,112,54915,21,0
104,112,55068,1,2
32,160,55222,1,0
32,192,55299,1,0
32,224,55376,1,8
104,272,55530,1,0
192,272,55684,6,2,B|192:360,2,85,2|2|8
104,272,56145,1,0
192,272,56299,21,2
264,224,56453,1,0
264,192,56530,1,0
264,160,56607,1,8
192,112,56761,5,0
256,272,57068,21,0
320,112,57376,5,4
472,312,57838,21,8
472,224,57991,2,0,B|424:224,2,42.5,0|0|0
472,56,58453,5,8
304,56,58761,6,0,B|304:104,3,42.5,4|0|8|0
304,272,59530,5,0
256,192,59838,12,0,61530
256,328,61838,5,2
32,168,62453,5,2
256,32,63068,5,2
480,168,63684,5,2
256,328,64299,5,2
256,240,64453,1,0
256,208,64530,1,0
256,176,64607,1,4
256,88,64761,1,0
168,88,64915,6,2,B|56:88|56:208,1,170,2|8
56,272,65376,1,0
56,304,65453,1,0
56,336,65530,1,2
144,336,65684,1,0
200,272,65838,1,8
256,112,66145,6,2,B|288:88|336:104,1,85,2|0
304,184,66453,2,0,B|344:168|384:208,1,85,8|0
384,288,66761,1,2
472,288,66915,1,0
472,256,66991,1,0
472,224,67068,1,8
472,136,67222,1,0
472,48,67376,6,2,B|360:48|360:152,1,170,2|8
272,152,67838,1,0
240,152,67915,1,0
208,152,67991,1,2
120,152,68145,1,0
40,192,68299,5,8
120,232,68453,1,0
208,232,68607,2,2,B|272:296,1,85,2|0
312,216,68915,2,0,B|376:280,1,85,8|0
456,272,69222,5,2
456,184,69376,1,0
456,184,69453,1,0
456,184,69530,2,0,B|456:128|400:128,1,85,8|0
320,128,69822,6,2,B|256:256|88:304|32:296,1,340
48,208,70591,1,0
48,176,70668,1,0
48,144,70745,1,8
48,56,70898,1,0
136,56,71052,5,2
224,56,71206,1,0
256,56,71283,1,0
288,56,71360,1,8
376,56,71514,1,0
376,144,71668,2,2,B|376:88|440:88,1,85,2|0
456,168,71975,1,8
456,336,72283,6,2,B|456:232|336:232,1,170,2|8
264,232,72745,1,0
264,320,72898,22,2,B|160:320|160:200,1,170,2|8
160,128,73360,1,0
160,40,73514,22,2,B|48:40|48:152,1,170,2|8
48,224,73975,1,0
48,312,74129,21,2
72,328,74206,1,0
104,336,74283,1,0
136,328,74360,1,0
160,312,74437,1,8
200,240,74591,1,0
256,304,74745,2,0,B|344:304,2,85,4|0|8
448,176,75360,6,0,B|448:80,2,85,4|0|8
256,32,75975,22,0,B|152:32,2,85,4|0|8
64,176,76591,22,0,B|64:272,2,85,4|0|8
232,176,77206,5,4
232,88,77360,1,0
256,104,77437,1,0
280,120,77514,1,8
352,168,77668,1,0
424,216,77822,5,4
368,280,77975,1,0
344,304,78052,1,0
320,328,78129,1,8
232,328,78283,1,0
144,328,78437,5,4
144,240,78591,1,0
120,224,78668,1,0
96,208,78745,1,4
144,136,78898,1,0
168,120,78975,1,0
192,104,79052,1,4
144,32,79206,1,0
304,80,79360,5,8
392,224,79514,5,0
256,192,79668,12,0,82129
