osu file format v9

[General]
AudioFilename: Viewtiful_Joe_-_Brighter_Side.mp3
AudioLeadIn: 0
PreviewTime: 40082
Countdown: 0
SampleSet: Normal
StackLeniency: 0.7
Mode: 0
LetterboxInBreaks: 0

[Editor]
Bookmarks: 128601
DistanceSpacing: 1.1
BeatDivisor: 4
GridSize: 4

[Metadata]
Title:Brighter Side
Artist:SaGa
Creator:Katsuri
Version:Insane
Source:Viewtiful Joe
Tags:

[Difficulty]
HPDrainRate:8
CircleSize:4
OverallDifficulty:8
ApproachRate:9
SliderMultiplier:1.8
SliderTickRate:2

[Events]
//Background and Video events
0,0,"Sem título.jpg"
//Break Periods
2,14696,22278
//Storyboard Layer 0 (Background)
//Storyboard Layer 1 (Fail)
//Storyboard Layer 2 (Pass)
//Storyboard Layer 3 (Foreground)
//Storyboard Sound Samples
//Background Colour Transformations
3,100,163,162,255

[TimingPoints]
1060,272.727272727273,4,1,1,100,1,0
4605,-100,4,1,1,100,0,0
31605,-100,4,2,1,100,0,0
40327,-100,4,1,1,100,0,1
66508,-100,4,1,1,100,0,0
92690,-100,4,1,1,100,0,1
110145,-100,4,1,1,100,0,0

[Colours]
Combo1 : 255,128,255
Combo2 : 255,0,0
Combo3 : 146,237,241

[HitObjects]
256,192,4605,12,4,5423
128,128,5969,5,8
60,200,6105,1,0
104,288,6241,2,0,B|140:312|200:312,1,90
284,280,6514,1,8
376,316,6650,1,0
464,268,6787,1,0
376,316,6923,1,0
284,280,7059,1,8
440,160,7332,6,0,B|400:136|396:72,1,90
488,44,7605,2,0,B|404:92|292:32,1,180,0|0
120,80,8150,1,8
48,152,8287,1,0
80,248,8423,2,0,B|80:344,2,90,0|0|8
180,236,8832,1,0
272,276,8969,1,0
336,200,9105,1,0
272,276,9241,1,8
232,80,9514,5,0
232,80,9787,1,4
432,80,10059,1,0
492,160,10196,1,0
420,228,10332,2,0,B|372:264|372:312,1,90,8|0
464,344,10605,2,0,B|376:304|208:360,1,180,0|8
200,292,11014,2,0,B|88:256,1,90
64,180,11287,1,0
64,180,11423,1,8
204,40,11696,5,0
284,100,11832,1,0
384,100,11969,1,4
364,296,12241,1,0
284,240,12378,1,0
200,292,12514,1,8
104,116,12787,1,8
160,196,12923,1,0
256,172,13059,1,4
256,192,13196,12,4,14150
112,60,22878,5,4
428,300,23423,1,8
340,256,23560,2,0,B|294:284|272:328,1,90
356,380,23832,2,0,B|272:312|172:368,1,180,0|0
88,356,24241,1,0
28,276,24378,1,0
88,356,24514,1,2
456,208,25060,6,0,B|428:168|440:100,1,90
356,68,25332,2,0,B|264:52,1,90,8|0
172,76,25605,1,0
128,164,25741,1,0
172,76,25878,1,8
128,164,26014,1,0
40,208,26150,2,0,B|72:296,1,90
0,364,26423,2,0,B|76:280|204:352,1,180,0|2
364,352,26969,5,0
364,352,27105,2,0,B|360:272|384:160,1,180
460,112,27514,1,0
388,44,27650,2,0,B|348:56|288:40,1,90,0|8
208,84,27923,1,0
108,68,28060,1,0
64,156,28196,1,0
164,164,28332,2,0,B|268:168,3,90,0|0|0|2
492,344,29150,5,0
416,284,29287,1,0
324,324,29423,2,0,B|228:304|128:320,2,180,0|0|8
416,284,30105,1,0
452,192,30241,5,2
452,192,30378,2,0,B|428:144|444:76,1,90,2|0
340,92,30650,1,2
340,92,30787,2,0,B|280:100|216:60,1,90,2|0
152,68,31060,2,0,B|84:132,1,90,8|0
60,224,31332,1,0
60,224,31469,1,4
116,304,31605,5,2
192,364,31741,1,0
284,324,31878,2,0,B|396:316,1,90,8|0
436,240,32150,2,0,B|408:200|416:120,1,90,2|0
500,104,32423,2,0,B|416:148|308:84,1,180,8|4
132,60,32969,5,8
80,144,33105,1,0
132,60,33241,1,2
80,144,33378,1,0
92,244,33514,2,0,B|136:264|148:328,2,90,8|0|4
272,328,34060,6,0,B|312:296|312:220,1,90,8|0
456,272,34332,2,0,B|416:232|428:164,1,90,2|0
476,104,34605,1,8
396,48,34741,1,0
304,84,34878,1,4
56,324,35150,1,0
56,324,35287,1,4
448,364,35560,1,0
448,364,35696,1,4
432,168,35969,6,0,B|336:200|248:144,1,180,0|8
188,80,36378,1,0
96,116,36514,1,0
188,80,36650,1,0
260,152,36787,1,8
208,236,36923,5,0
292,292,37060,2,0,B|332:244|408:260,1,90
336,156,37332,2,0,B|384:128|384:72,1,90,8|0
296,36,37605,2,0,B|208:20,1,90
112,44,37878,1,8
256,192,38150,12,8,39787
80,64,40332,6,0,B|140:88|188:32,1,90
196,148,40605,2,0,B|244:124|312:148,1,90,8|0
356,72,40878,1,0
448,108,41014,1,0
488,200,41150,2,0,B|480:300,1,90,8|0
392,332,41423,6,0,B|340:340|284:316,1,90
216,276,41696,2,0,B|160:264|96:280,1,90,8|0
48,212,41969,1,0
96,124,42105,1,0
48,212,42241,1,8
96,124,42378,1,0
180,72,42514,6,0,B|240:88|284:64,1,90
368,64,42787,2,0,B|388:172,1,90,8|0
480,176,43060,2,0,B|380:160|300:232,2,180,0|8|2
364,336,43878,1,0
268,352,44014,1,2
96,256,44287,1,0
56,168,44423,1,2
216,52,44696,6,0,B|280:64|328:56,1,90
260,176,44969,2,0,B|304:168|364:184,1,90,8|0
428,124,45241,1,0
480,208,45378,1,0
404,268,45514,2,0,B|440:352,1,90,8|0
272,300,45787,6,0,B|180:332,1,90,2|0
180,208,46060,1,2
180,208,46196,2,0,B|136:108,1,90,2|0
292,136,46469,1,2
292,136,46605,2,0,B|388:104,1,90,2|0
308,36,46878,6,0,B|260:28|196:48,1,90
120,60,47150,2,0,B|140:108|112:156,1,90,8|0
56,228,47423,2,0,B|20:276|40:344,1,90
128,344,47696,2,0,B|188:352|248:344,1,90,8|0
316,336,47969,1,4
468,48,48241,1,0
468,48,48378,1,4
120,60,48650,1,0
120,60,48787,1,4
