osu file format v5

[General]
AudioFilename: Viewtiful_Joe_-_Brighter_Side.mp3
AudioLeadIn: 0
PreviewTime: 40082
Countdown: 1
SampleSet: Normal
StackLeniency: 0.7
Mode: 0
LetterboxInBreaks: 0
EditorBookmarks: 41430

[Metadata]
Title:Brighter Side
Artist:SaGa
Creator:Behonkiss
Version:Normal
Source:
Tags:

[Difficulty]
HPDrainRate:5
CircleSize:4
OverallDifficulty:5
SliderMultiplier:1.4
SliderTickRate:2

[Events]
//Background and Video events
0,0,"viewtiful-joewallpaper1.1.jpg"
//Break Periods
2,31809,39139
2,57724,65053
2,84048,91513
2,110114,126446
2,145169,161289
//Storyboard Layer 0 (Background)
//Storyboard Layer 1 (Failing)
//Storyboard Layer 2 (Passing)
//Storyboard Layer 3 (Foreground)
//Storyboard Sound Samples
//Background Colour Transformations
3,100,163,162,255

[TimingPoints]
5968,545.471857,4,1,0,100,1

[Colours]
Combo1 : 255,128,255
Combo2 : 255,0,0
Combo3 : 255,255,255

[HitObjects]
104,104,14150,5,8
160,200,14695,1,0
272,200,15241,1,0
272,200,15377,1,2
352,200,15786,1,2
464,200,16331,1,8
464,312,16877,6,0,B|232:312,1,210
144,312,18241,1,8
64,312,18513,1,12
64,200,19059,1,0
64,128,19332,1,0
64,56,19604,2,2,B|140:44|158:83|136:160,1,140
168,240,20695,6,0,B|183:133|272:106|324:154|344:256,1,280,0|2
360,320,22195,1,2
472,232,22877,1,0
472,144,23286,1,8
352,72,23968,1,2
280,72,24241,1,2
208,72,24514,1,2
120,152,25059,5,0
120,224,25468,1,0
120,296,25877,1,2
184,296,26150,2,0,B|248:344|320:288,1,140
360,224,27105,5,4
448,224,27514,1,0
448,296,27786,1,0
336,296,28332,2,2,B|184:296,1,140
96,248,29423,5,0
48,192,29696,1,0
48,120,29968,2,4,B|280:120,2,210,0|0|4
168,56,40332,6,2,C|120:133|202:164|128:256,1,280
296,296,42241,5,0
368,296,42514,1,2
368,184,43060,1,2
256,184,43605,2,8,C|120:184,2,105
240,72,44969,5,0
168,72,45241,1,2
56,72,45787,2,0,C|56:280,1,175
56,320,46742,1,2
176,248,47423,1,0
232,296,47696,1,0
288,248,47969,1,0
400,248,48378,1,4
392,104,49060,6,2,C|312:180|312:96|216:136,1,280
80,72,50969,1,0
152,72,51242,1,2
224,72,51514,1,0
296,72,51787,1,2
408,72,52333,2,12,C|400:128|328:152,2,105
304,112,53696,5,8
232,112,53969,1,8
128,152,54514,2,0,C|101:238|184:296,1,175
232,304,55469,1,2
256,192,55742,12,4,57515
256,160,66242,5,8
192,248,66788,1,0
264,248,67060,1,2
336,248,67333,1,0
336,320,67606,2,0,C|184:320,1,140
88,304,68697,5,0
24,272,68969,1,0
24,200,69242,1,2
24,128,69515,2,0,C|62:52|168:72,1,175,0|8
232,176,70879,5,0
312,176,71151,1,0
312,176,71288,1,2
312,88,71697,1,0
240,88,71970,1,0
168,88,72242,1,0
168,88,72379,1,2
24,88,73061,6,4,B|168:176|24:304,1,245
128,296,74424,5,0
128,296,74697,1,8
128,296,74970,1,8
200,296,75242,2,2,B|391:301|408:112,3,280
200,48,79606,5,0
200,128,80015,1,8
96,232,80697,1,0
168,232,80970,1,2
240,232,81243,1,2
344,144,81788,2,0,B|551:241|328:320,1,280
224,320,83425,1,8
136,320,83834,1,4
344,328,92698,6,2,C|392:251|310:220|384:128,1,280
216,88,94607,5,0
144,88,94879,1,2
144,200,95425,1,2
256,200,95970,2,8,C|392:200,2,105
272,312,97334,5,2
344,312,97607,1,2
456,312,98152,2,0,C|456:104,1,175
456,64,99107,1,2
336,136,99789,1,8
280,88,100061,1,8
224,136,100334,1,8
112,136,100743,1,4
120,280,101425,6,2,C|200:204|200:288|296:248,1,280
432,312,103334,1,0
360,312,103607,1,2
288,312,103880,1,0
216,312,104152,1,2
104,312,104698,2,8,C|110:254|184:232,2,105
208,272,106062,5,0
280,272,106334,1,0
384,232,106880,2,0,C|411:146|328:88,1,175
280,80,107834,1,2
256,192,108107,12,4,109880
376,288,127608,5,4
304,200,128153,1,8
232,200,128426,1,0
232,128,128699,2,2,B|203:130|182:149|178:135|161:162|160:232,1,140
64,160,129790,1,0
64,88,130062,1,2
64,16,130335,1,2
176,16,130881,1,8
176,16,131017,1,8
248,16,131290,1,4
320,136,131971,6,2,B|331:103|368:69|426:110|432:152,1,140
424,248,133062,1,4
424,320,133335,1,4
352,320,133608,1,4
240,320,134153,2,0,B|72:326|72:160,1,245,0|8
56,104,135517,5,0
128,104,135790,1,2
192,144,136063,1,2
192,216,136335,2,0,B|280:196|264:136,1,105
352,144,137153,1,0
424,144,137426,1,2
424,216,137699,1,0
352,216,137972,1,2
424,296,138517,2,0,B|264:296,1,140
168,296,139608,2,8,B|48:296,1,105
56,152,140699,6,0,B|64:72|152:56,1,140
256,64,141790,1,2
352,64,142199,1,2
416,136,142745,1,0
496,136,143154,2,0,B|506:228|360:216,1,175
288,192,144245,1,8
216,192,144517,1,8
104,192,144995,1,4
344,328,162518,6,6,C|392:251|310:220|384:128,1,280
216,88,164427,5,0
144,88,164700,1,4
144,200,165245,1,4
256,200,165791,2,10,C|392:200,2,105
272,312,167154,5,0
344,312,167427,1,0
456,312,167973,2,0,C|456:104,1,175
456,64,168927,1,2
336,136,169609,1,8
280,88,169882,1,8
224,136,170155,1,8
112,136,170564,1,2
120,280,171245,6,6,C|200:204|200:288|296:248,1,280
432,312,173155,1,0
360,312,173427,1,10
288,312,173700,1,0
104,312,174518,2,2,C|112:256|184:232,2,105
216,304,175882,5,0
288,280,176155,1,0
384,232,176700,2,0,C|411:146|328:88,1,175,0|8
280,80,177655,1,8
256,192,177928,12,4,179701
