osu file format v14

[General]
AudioFilename: wws.mp3
AudioLeadIn: 0
PreviewTime: 134214
Countdown: 0
SampleSet: None
StackLeniency: 0.5
Mode: 0
LetterboxInBreaks: 0
WidescreenStoryboard: 0

[Editor]
DistanceSpacing: 1
BeatDivisor: 4
GridSize: 32
TimelineZoom: 1

[Metadata]
Title:Alive (Chinese Version)
TitleUnicode:萬物生
Artist:Sa Dingding
ArtistUnicode:萨顶顶
Creator:AIR
Version:Hard
Source:
Tags:traditional folk buddhism pop
BeatmapID:676076
BeatmapSetID:301332

[Difficulty]
HPDrainRate:5
CircleSize:4.5
OverallDifficulty:6
ApproachRate:6.5
SliderMultiplier:2.6
SliderTickRate:1

[Events]
//Background and Video events
0,0,"BRBR.jpg",0,0
//Break Periods
2,98097,106397
//Storyboard Layer 0 (Background)
//Storyboard Layer 1 (Fail)
//Storyboard Layer 2 (Pass)
//Storyboard Layer 3 (Foreground)
//Storyboard Sound Samples

[TimingPoints]
22109,789.473684210526,4,2,1,60,1,0
22109,-100,4,3,1,60,0,0
47372,-100,4,2,1,60,0,0
72635,-83.3333333333333,4,1,1,80,0,1
97898,-100,4,2,1,60,0,0
135793,-83.3333333333333,4,1,1,80,0,1
159477,-100,4,2,1,60,0,0
161056,-83.3333333333333,4,1,1,80,0,1
186319,-100,4,3,1,70,0,0
211582,-83.3333333333333,4,1,1,90,0,1
236845,-100,4,3,1,60,0,0

[Colours]
Combo1 : 102,179,179
Combo2 : 231,231,231
Combo3 : 255,255,117
Combo4 : 181,218,255
Combo5 : 255,77,166
Combo6 : 255,140,26

[HitObjects]
117,148,22109,6,0,L|112:303,1,130,12|8,0:0|0:2,0:0:0:0:
63,321,22701,1,8,0:2:0:0:
63,321,22898,2,0,L|210:316,1,130,8|8,0:0|0:2,0:0:0:0:
300,242,23688,1,4,0:2:0:0:
383,341,24082,1,2,0:2:0:0:
507,304,24477,2,0,L|306:294,1,195,8|8,0:0|0:2,0:0:0:0:
269,343,25267,6,0,L|297:192,1,130,2|8,0:3|0:2,0:0:0:0:
354,193,25859,1,8,0:2:0:0:
354,193,26056,2,0,P|282:205|205:187,1,130,8|8,0:0|0:2,0:0:0:0:
116,125,26846,1,4,0:2:0:0:
13,203,27240,1,2,0:2:0:0:
63,323,27635,2,0,L|48:114,1,195,8|8,0:0|0:2,0:0:0:0:
44,63,28424,5,4,1:1:0:0:
171,36,28819,2,0,L|99:51,1,65,8|8,0:2|0:2,0:0:0:0:
44,63,29214,2,0,L|193:93,1,130,8|8,0:0|0:2,0:0:0:0:
272,170,30003,2,0,L|263:29,1,130,4|2,0:2|0:2,0:0:0:0:
360,127,30793,2,0,L|164:157,1,195,8|8,0:0|0:2,0:0:0:0:
102,152,31582,6,0,L|211:242,1,130,4|8,0:2|0:2,0:0:0:0:
208,299,32174,1,8,0:2:0:0:
208,299,32372,2,0,P|237:284|337:304,1,130,8|8,0:0|0:2,0:0:0:0:
442,362,33161,1,4,0:2:0:0:
312,372,33556,1,2,0:2:0:0:
208,299,33951,2,0,L|405:346,1,195,8|8,0:0|0:2,0:0:0:0:
462,349,34740,6,0,L|435:200,1,130,4|8,0:2|0:2,0:0:0:0:
375,205,35332,1,8,0:2:0:0:
375,205,35530,2,0,L|508:177,1,130,8|8,0:0|0:2,0:0:0:0:
414,81,36319,2,0,P|454:49|497:101,2,130,4|2|8,0:2|0:2|1:0,0:0:0:0:
351,96,37306,2,0,P|281:113|215:95,1,130,8|8,0:2|0:2,0:0:0:0:
192,156,37898,6,0,P|148:114|64:128,1,130,2|8,0:3|0:2,0:0:0:0:
23,144,38490,1,8,0:2:0:0:
23,144,38688,2,0,L|38:-2,1,130,8|8,0:0|0:2,0:0:0:0:
140,92,39477,1,4,0:2:0:0:
92,213,39872,1,2,0:2:0:0:
8,312,40267,2,0,L|203:304,1,195,2|8,0:1|0:2,0:0:0:0:
267,301,41056,5,2,0:3:0:0:
372,224,41451,2,0,L|365:297,1,65,8|8,0:2|0:2,0:0:0:0:
362,353,41846,2,0,L|505:349,1,130,8|8,0:0|0:0,0:0:0:0:
497,219,42635,2,0,L|361:233,2,130,4|2|8,0:2|0:2|0:1,0:0:0:0:
453,170,43622,2,0,L|463:40,1,130,8|8,0:2|0:2,0:0:0:0:
507,88,44214,6,0,L|359:81,1,130,4|8,0:2|0:2,0:0:0:0:
316,106,44806,1,8,0:2:0:0:
316,106,45003,1,8,0:0:0:0:
188,78,45398,2,0,L|181:145,1,65,2|2,0:2|0:2,0:0:0:0:
174,207,45793,1,4,0:2:0:0:
44,195,46188,1,4,0:2:0:0:
59,66,46582,1,2,0:3:0:0:
188,78,46977,1,2,0:3:0:0:
174,207,47372,6,0,L|173:129,1,65,4|0,0:1|0:0,0:0:0:0:
188,78,47767,2,0,L|45:102,1,130,0|8,0:0|0:3,0:0:0:0:
65,229,48556,1,0,0:0:0:0:
192,205,48951,6,0,L|187:271,1,65
161,329,49346,2,0,P|239:313|302:333,1,130,0|8,0:0|0:3,0:0:0:0:
343,356,49938,1,0,0:0:0:0:
343,356,50135,2,0,P|389:363|472:334,1,130
508,287,50727,5,0,0:0:0:0:
508,287,50924,2,0,L|508:143,1,130,0|8,0:0|0:3,0:0:0:0:
508,26,51714,1,8,0:3:0:0:
389,79,52109,6,0,L|459:94,1,65
426,33,52503,2,0,L|287:77,1,130,0|8,0:0|0:3,0:0:0:0:
241,96,53096,1,8,0:3:0:0:
241,96,53293,1,8,0:3:0:0:
138,176,53688,6,0,L|141:107,1,65,2|0,0:1|0:0,0:0:0:0:
141,46,54082,2,0,P|88:67|7:51,1,130,0|8,0:0|0:3,0:0:0:0:
18,186,54872,2,0,L|28:262,1,65
16,314,55267,6,0,L|94:306,1,65
141,330,55661,2,0,L|150:199,2,130,0|8|0,0:0|0:3|0:0,0:0:0:0:
261,279,56846,6,0,L|272:357,1,65
216,379,57240,2,0,L|346:364,1,130,0|8,0:0|0:3,0:0:0:0:
409,351,57832,1,0,0:0:0:0:
409,351,58030,1,8,0:3:0:0:
500,258,58424,6,0,L|434:255,1,65
382,216,58819,2,0,L|305:229,2,65,0|0|8,0:0|0:0|0:3,0:0:0:0:
410,157,59411,1,8,0:3:0:0:
410,157,59609,2,0,L|419:4,1,130,8|2,0:3|0:3,0:0:0:0:
477,52,60201,5,0,0:0:0:0:
477,52,60398,2,0,L|325:53,1,130,0|8,0:0|0:3,0:0:0:0:
223,94,61188,2,0,L|292:104,1,65
350,89,61582,6,0,L|315:176,1,65
278,194,61977,2,0,L|301:324,1,130,0|8,0:0|0:3,0:0:0:0:
345,369,62569,1,0,0:0:0:0:
345,369,62767,2,0,L|205:348,1,130
152,335,63359,5,0,0:0:0:0:
152,335,63556,1,0,0:0:0:0:
23,355,63951,2,0,P|4:292|17:224,1,130,8|8,0:3|0:3,0:0:0:0:
57,181,64543,1,0,0:0:0:0:
57,181,64740,6,0,P|24:145|14:114,1,65
8,66,65135,2,0,P|16:35|49:4,2,65,0|0|8,0:0|0:0|0:3,0:0:0:0:
67,92,65727,2,0,P|117:100|147:98,1,65,8|8,0:3|0:3,0:0:0:0:
259,76,66319,6,0,P|299:92|345:98,1,65,4|0,0:1|0:0,0:0:0:0:
385,101,66714,2,0,P|430:101|508:68,1,130,0|8,0:0|0:3,0:0:0:0:
458,25,67306,1,0,0:0:0:0:
458,25,67503,2,0,L|457:169,1,130
456,220,68096,5,0,0:0:0:0:
456,220,68293,2,0,L|366:209,1,65
330,236,68688,2,0,L|260:195,2,65,8|0|8,0:3|0:0|0:3,0:0:0:0:
343,299,69280,1,0,0:3:0:0:
343,299,69477,6,0,L|210:306,1,130,0|8,0:0|0:0,0:0:0:0:
161,345,70069,1,0,0:0:0:0:
161,345,70267,2,0,P|128:289|154:207,1,130,8|8,0:3|0:0,0:0:0:0:
168,169,70859,1,8,0:0:0:0:
168,169,71056,6,0,P|152:135|160:98,1,65,4|8,0:2|0:2,0:0:0:0:
180,48,71451,1,4,0:2:0:0:
257,152,71846,1,4,0:2:0:0:
218,275,72240,1,2,0:3:0:0:
88,362,72635,6,0,B|105:344|105:344|90:235|90:235|65:214,1,155.999995239258,4|0,0:3|0:0,0:0:0:0:
11,173,73227,1,0,0:0:0:0:
11,173,73424,2,0,B|2:140|2:140|24:51|24:51|51:33,1,155.999995239258,8|0,0:0|0:0,0:0:0:0:
121,65,74017,1,0,0:0:0:0:
121,65,74214,6,0,L|201:62,1,77.999997619629
276,53,74609,2,0,L|153:158,1,155.999995239258,0|8,0:0|0:0,0:0:0:0:
95,202,75201,1,0,0:0:0:0:
95,202,75398,2,0,L|88:293,1,77.999997619629,8|0,0:0|0:0,0:0:0:0:
47,346,75793,6,0,P|116:325|283:338,1,233.999992858887
350,356,76582,1,8,0:0:0:0:
350,356,76780,2,0,P|388:359|437:350,1,77.999997619629
506,219,77372,6,0,P|464:237|421:234,1,77.999997619629,4|0,0:2|0:0,0:0:0:0:
361,203,77767,2,0,P|363:152|451:162,1,155.999995239258,4|12,0:2|0:2,0:0:0:0:
500,97,78359,1,0,0:0:0:0:
500,97,78556,2,0,P|443:55|352:37,1,155.999995239258,10|4,0:3|0:3,0:0:0:0:
283,50,79148,5,0,0:0:0:0:
283,50,79346,2,0,P|239:67|205:66,1,77.999997619629
130,65,79740,2,0,P|85:50|7:115,1,155.999995239258,8|0,0:0|0:0,0:0:0:0:
31,186,80332,1,0,0:0:0:0:
31,186,80530,6,0,L|24:278,1,77.999997619629
101,280,80924,2,0,L|104:372,2,77.999997619629,0|0|8,0:0|0:0|0:0,0:0:0:0:
148,217,81517,1,0,0:0:0:0:
148,217,81714,2,0,L|306:212,1,155.999995239258
425,310,82503,6,0,L|333:308,1,77.999997619629
347,308,82898,2,0,L|526:289,1,155.999995239258,0|8,0:0|0:0,0:0:0:0:
481,216,83490,1,0,0:0:0:0:
481,216,83688,6,0,L|492:135,1,77.999997619629,4|0,0:2|0:0,0:0:0:0:
485,61,84082,2,0,L|323:74,1,155.999995239258,4|12,0:2|0:2,0:0:0:0:
255,98,84674,2,0,L|241:20,1,77.999997619629,0|10,0:0|0:3,0:0:0:0:
334,147,85267,6,0,L|322:309,1,155.999995239258,4|0,0:3|0:0,0:0:0:0:
250,333,85859,1,0,0:0:0:0:
250,333,86056,2,0,B|223:313|223:313|130:326|130:326|113:355,1,155.999995239258,8|0,0:0|0:0,0:0:0:0:
45,316,86648,1,0,0:0:0:0:
45,316,86846,6,0,B|57:282|57:282|32:193|32:193|8:177,1,155.999995239258
33,103,87438,1,0,0:0:0:0:
33,103,87635,2,0,L|41:15,1,77.999997619629,8|0,0:0|0:0,0:0:0:0:
117,35,88030,2,0,L|110:117,1,77.999997619629,8|0,0:0|0:0,0:0:0:0:
104,190,88424,6,0,P|150:211|86:345,1,233.999992858887
96,267,89214,2,0,L|2:260,1,77.999997619629,8|0,0:0|0:0,0:0:0:0:
18,261,89609,2,0,L|186:254,1,155.999995239258,0|4,0:0|0:2,0:0:0:0:
245,286,90201,5,0,0:0:0:0:
245,286,90398,1,4,0:2:0:0:
363,184,90793,2,0,L|371:274,1,77.999997619629,12|0,0:2|0:0,0:0:0:0:
347,336,91188,2,0,L|428:321,1,77.999997619629,10|0,0:3|0:0,0:0:0:0:
490,362,91582,6,0,P|500:277|468:179,1,155.999995239258,4|0,0:3|0:0,0:0:0:0:
442,142,92174,1,0,0:0:0:0:
442,142,92372,2,0,P|413:108|478:39,1,155.999995239258,8|0,0:0|0:0,0:0:0:0:
321,70,93161,6,0,L|242:69,1,77.999997619629
174,106,93556,2,0,L|144:27,2,77.999997619629,0|0|8,0:0|0:0|0:0,0:0:0:0:
240,146,94148,1,0,0:0:0:0:
240,146,94346,2,0,L|224:310,1,155.999995239258,8|0,0:0|0:0,0:0:0:0:
84,231,95135,6,0,P|65:244|7:233,1,77.999997619629
25,160,95530,2,0,P|56:123|155:157,1,155.999995239258,8|0,0:0|0:0,0:0:0:0:
186,215,96122,1,0,0:0:0:0:
186,215,96319,6,0,P|246:248|324:194,1,155.999995239258
429,100,97109,2,0,L|506:117,1,77.999997619629,8|8,0:1|0:3,0:0:0:0:
505,116,97503,2,0,L|338:125,1,155.999995239258,8|2,0:3|3:1,0:0:0:0:
256,192,107372,12,2,108951,3:3:0:0:
276,251,110530,6,0,L|346:252,1,65,4|0,0:1|0:0,0:0:0:0:
389,295,110924,2,0,B|441:256|441:256|502:294,1,130,0|8,0:0|0:3,0:0:0:0:
461,164,111714,2,0,L|476:77,1,65
501,41,112109,2,0,L|416:57,1,65
387,94,112503,2,0,P|351:74|256:97,1,130,0|8,0:0|0:3,0:0:0:0:
212,124,113096,1,0,0:0:0:0:
212,124,113293,2,0,P|171:142|70:118,1,130
30,100,113885,5,0,0:0:0:0:
30,100,114082,2,0,L|18:253,1,130,0|8,0:0|0:3,0:0:0:0:
68,350,114872,2,0,L|75:277,1,65,8|0,0:3|0:0,0:0:0:0:
124,243,115267,2,0,L|194:263,1,65
248,240,115661,2,0,B|273:298|273:298|344:288,1,130,0|8,0:0|0:3,0:0:0:0:
400,267,116253,2,0,L|442:338,1,65,8|8,0:3|0:3,0:0:0:0:
495,208,116846,6,0,L|505:131,1,65,2|0,0:1|0:0,0:0:0:0:
438,142,117240,2,0,L|431:11,2,130,0|8|0,0:0|0:3|0:0,0:0:0:0:
379,170,118227,1,0,0:0:0:0:
379,170,118424,2,0,L|312:170,2,65
315,283,119214,2,0,L|234:293,1,65,8|0,0:3|0:0,0:0:0:0:
250,290,119609,2,0,L|394:308,1,130
413,362,120201,5,0,0:0:0:0:
413,362,120398,2,0,P|427:287|430:222,1,130,0|8,0:0|0:3,0:0:0:0:
336,142,121188,2,0,L|266:151,1,65,8|0,0:3|0:0,0:0:0:0:
208,166,121582,2,0,L|124:157,2,65
232,226,122174,1,0,0:0:0:0:
232,226,122372,2,0,P|231:151|201:74,1,130,8|8,0:3|0:3,0:0:0:0:
92,52,123161,6,0,L|8:59,2,65,4|0|0,0:1|0:0|0:0,0:0:0:0:
82,116,123753,1,0,0:0:0:0:
82,116,123951,2,0,L|87:250,1,130,8|0,0:3|0:0,0:0:0:0:
144,362,124740,2,0,L|70:358,1,65
18,334,125135,2,0,P|13:247|39:185,1,130,0|8,0:0|0:3,0:0:0:0:
55,149,125727,1,8,0:3:0:0:
55,149,125924,2,0,L|136:160,1,65,8|0,0:3|0:0,0:0:0:0:
179,184,126319,6,0,B|232:147|232:147|303:177,1,130
348,205,126911,1,0,0:0:0:0:
348,205,127109,2,0,L|350:72,1,130,8|0,0:3|0:0,0:0:0:0:
475,109,127898,2,0,L|481:175,1,65
480,173,128293,2,0,P|462:239|506:300,1,130,0|8,0:0|0:3,0:0:0:0:
476,353,128885,1,0,0:0:0:0:
476,353,129082,2,0,L|390:345,1,65,8|0,0:3|0:0,0:0:0:0:
354,314,129477,6,0,L|283:329,2,65,2|0|0,0:3|0:0|0:0,0:0:0:0:
380,254,130069,1,0,0:0:0:0:
380,254,130267,2,0,L|377:110,1,130,8|0,0:3|0:0,0:0:0:0:
259,68,131056,2,0,L|254:151,1,65
313,161,131451,2,0,L|163:149,1,130,0|8,0:0|0:3,0:0:0:0:
123,124,132043,1,8,0:3:0:0:
123,124,132240,1,8,0:3:0:0:
19,203,132635,6,0,L|23:275,1,65
18,332,133030,2,0,L|154:313,1,130,0|8,0:0|0:3,0:0:0:0:
191,266,133622,1,0,0:0:0:0:
191,266,133819,2,0,L|260:293,1,65,8|0,0:0|0:0,0:0:0:0:
290,341,134214,2,0,P|343:318|440:331,1,130,2|2,0:3|0:2,0:0:0:0:
474,345,134806,1,8,0:3:0:0:
474,345,135003,1,4,0:2:0:0:
451,216,135398,1,2,0:3:0:0:
495,365,135793,6,0,B|509:260|509:260|482:205,1,155.999995239258,4|0,0:3|0:0,0:0:0:0:
440,152,136385,1,0,0:0:0:0:
440,152,136582,2,0,B|401:122|401:122|397:1,1,155.999995239258,8|0,0:0|0:0,0:0:0:0:
468,48,137174,1,0,0:0:0:0:
468,48,137372,6,0,P|423:63|373:66,1,77.999997619629
314,67,137767,2,0,P|265:60|216:40,2,77.999997619629,0|0|8,0:0|0:0|0:0,0:0:0:0:
353,134,138359,1,0,0:0:0:0:
353,134,138556,2,0,B|349:190|349:190|358:213|358:213|346:231|346:231|341:309,2,155.999995239258,8|0|0,0:0|0:0|0:0,0:0:0:0:
276,149,139543,5,0,0:0:0:0:
276,149,139740,2,0,L|170:148,1,77.999997619629,8|0,0:0|0:0,0:0:0:0:
124,174,140135,2,0,P|81:146|116:45,1,155.999995239258,0|4,0:0|0:2,0:0:0:0:
175,60,140727,5,0,0:0:0:0:
175,60,140924,2,0,L|263:68,1,77.999997619629,4|0,0:2|0:0,0:0:0:0:
324,37,141319,2,0,L|423:48,1,77.999997619629,4|8,0:2|0:0,0:0:0:0:
476,23,141714,2,0,P|495:91|485:126,1,77.999997619629,10|0,0:3|0:0,0:0:0:0:
467,170,142109,6,0,P|441:226|476:318,1,155.999995239258,4|0,0:3|0:0,0:0:0:0:
410,363,142701,1,0,0:0:0:0:
410,363,142898,2,0,P|366:336|251:367,1,155.999995239258,8|0,0:0|0:0,0:0:0:0:
189,362,143490,1,0,0:0:0:0:
189,362,143688,6,0,P|187:295|172:258,1,77.999997619629
135,224,144082,2,0,P|101:197|49:184,2,77.999997619629,0|0|8,0:0|0:0|0:0,0:0:0:0:
108,297,144674,1,0,0:0:0:0:
108,297,144872,2,0,L|259:248,1,155.999995239258,8|0,0:0|0:0,0:0:0:0:
396,179,145661,6,0,L|394:258,1,77.999997619629
394,256,146056,2,0,L|370:96,1,155.999995239258,8|0,0:0|0:0,0:0:0:0:
356,25,146648,1,0,0:0:0:0:
356,25,146846,6,0,L|447:37,1,77.999997619629,4|0,0:2|0:0,0:0:0:0:
488,90,147240,2,0,L|493:174,1,77.999997619629,4|0,0:2|0:0,0:0:0:0:
486,245,147635,2,0,L|490:334,1,77.999997619629,12|0,0:2|0:0,0:0:0:0:
416,349,148030,2,0,B|396:338|396:338|279:355|279:355|251:339,1,155.999995239258,2|4,0:3|0:3,0:0:0:0:
110,354,148819,6,0,L|25:366,1,77.999997619629
32,364,149214,2,0,B|15:341|15:341|31:229|31:229|8:194,1,155.999995239258
26,139,149806,1,0,0:0:0:0:
26,139,150003,6,0,B|10:57|10:57|77:13,1,155.999995239258
125,73,150596,1,0,0:0:0:0:
125,73,150793,2,0,L|210:76,1,77.999997619629,8|0,0:0|0:0,0:0:0:0:
267,31,151188,2,0,L|354:31,2,77.999997619629,8|0|0,0:0|0:0|0:0,0:0:0:0:
277,108,151780,5,0,0:0:0:0:
277,108,151977,2,0,L|265:199,1,77.999997619629
196,219,152372,2,0,L|367:205,1,155.999995239258,8|0,0:0|0:0,0:0:0:0:
364,361,153161,6,0,L|375:264,1,77.999997619629,4|0,0:2|0:0,0:0:0:0:
429,229,153556,2,0,L|444:140,1,77.999997619629,4|0,0:2|0:0,0:0:0:0:
398,86,153951,2,0,L|486:77,1,77.999997619629,12|8,0:2|0:0,0:0:0:0:
475,78,154346,2,0,L|292:71,1,155.999995239258,2|4,0:3|0:3,0:0:0:0:
249,106,154938,5,0,0:0:0:0:
249,106,155135,2,0,B|209:126|209:126|77:98,1,155.999995239258,0|8,0:0|0:0,0:0:0:0:
46,45,155727,1,0,0:0:0:0:
46,45,155924,2,0,P|13:109|43:202,1,155.999995239258
66,257,156517,5,0,0:0:0:0:
66,257,156714,2,0,L|164:249,1,77.999997619629
175,179,157109,2,0,B|155:158|155:158|15:193,1,155.999995239258,8|8,0:0|0:0,0:0:0:0:
55,343,157898,6,0,L|161:357,1,77.999997619629
209,339,158293,2,0,L|377:323,1,155.999995239258,0|8,0:0|0:0,0:0:0:0:
442,320,158885,1,0,0:0:0:0:
442,320,159082,2,0,L|429:209,1,77.999997619629
493,165,159477,6,0,B|505:129|505:129|400:169,1,130,4|2,3:1|3:2,0:0:0:0:
333,200,160069,1,8,3:2:0:0:
333,200,160267,2,0,L|191:173,1,130,8|8,3:2|3:3,0:0:0:0:
123,225,160859,1,8,3:3:0:0:
123,225,161056,6,0,L|129:39,1,155.999995239258,4|0,0:3|0:0,0:0:0:0:
58,34,161648,1,0,0:0:0:0:
58,34,161846,2,0,B|79:55|79:55|186:46|186:46|203:19,1,155.999995239258,8|0,0:0|0:0,0:0:0:0:
269,58,162438,1,0,0:0:0:0:
269,58,162635,6,0,B|330:104|330:104|412:70,1,155.999995239258
475,43,163227,1,0,0:0:0:0:
475,43,163424,2,0,B|506:69|506:69|478:211,1,155.999995239258,8|8,0:0|0:0,0:0:0:0:
427,236,164017,1,0,0:0:0:0:
427,236,164214,6,0,B|387:250|387:250|399:379,1,155.999995239258
471,337,164806,1,0,0:0:0:0:
471,337,165003,2,0,L|370:321,1,77.999997619629,8|8,0:0|0:0,0:0:0:0:
315,319,165398,2,0,L|225:335,1,77.999997619629,8|0,0:0|0:0,0:0:0:0:
160,341,165793,6,0,L|75:330,2,77.999997619629,4|0|4,0:2|0:0|0:2,0:0:0:0:
189,268,166385,1,0,0:0:0:0:
189,268,166582,2,0,L|190:97,1,155.999995239258,12|10,0:2|0:3,0:0:0:0:
62,202,167372,6,0,P|30:166|28:127,1,77.999997619629,4|0,0:3|0:0,0:0:0:0:
48,62,167767,2,0,P|119:72|96:146,1,155.999995239258,0|8,0:0|0:0,0:0:0:0:
61,202,168359,1,0,0:0:0:0:
61,202,168556,2,0,P|44:246|61:303,1,77.999997619629
90,341,168951,6,0,P|121:362|174:364,1,77.999997619629
238,357,169346,2,0,P|279:334|296:296,1,77.999997619629
312,232,169740,1,8,0:0:0:0:
300,76,170135,2,0,P|286:116|290:160,1,77.999997619629,8|0,0:0|0:0,0:0:0:0:
312,232,170530,6,0,P|373:204|357:119,1,155.999995239258
299,76,171122,1,0,0:0:0:0:
299,76,171319,2,0,P|349:48|447:59,1,155.999995239258,8|0,0:0|0:0,0:0:0:0:
497,204,172109,6,0,L|487:290,1,77.999997619629,4|0,0:2|0:0,0:0:0:0:
412,302,172503,2,0,L|411:217,1,77.999997619629,4|0,0:2|0:0,0:0:0:0:
337,198,172898,2,0,L|250:213,1,77.999997619629,12|8,0:2|0:0,0:0:0:0:
182,222,173293,1,10,0:3:0:0:
336,198,173688,6,0,L|155:189,1,155.999995239258,4|0,0:3|0:0,0:0:0:0:
102,195,174280,1,0,0:0:0:0:
102,195,174477,2,0,B|84:93|84:93|141:118,1,155.999995239258,8|0,0:0|0:0,0:0:0:0:
209,106,175069,1,0,0:0:0:0:
209,106,175267,6,0,L|377:90,1,155.999995239258
414,151,175859,1,0,0:0:0:0:
414,151,176056,2,0,L|405:237,1,77.999997619629,8|0,0:0|0:0,0:0:0:0:
478,257,176451,2,0,P|387:260|317:314,1,155.999995239258,8|0,0:0|0:0,0:0:0:0:
295,361,177043,5,0,0:0:0:0:
295,361,177240,2,0,L|186:350,1,77.999997619629
140,338,177635,1,8,0:0:0:0:
7,256,178030,2,0,L|11:357,1,77.999997619629
10,333,178424,6,0,L|172:309,1,155.999995239258,4|4,0:2|0:2,0:0:0:0:
231,269,179017,1,0,0:0:0:0:
231,269,179214,2,0,P|217:220|218:185,1,77.999997619629,12|8,0:2|0:0,0:0:0:0:
241,119,179609,2,0,P|257:79|301:35,1,77.999997619629,10|0,0:3|0:0,0:0:0:0:
335,105,180003,6,0,L|162:105,1,155.999995239258,4|0,0:3|0:0,0:0:0:0:
100,99,180596,1,0,0:0:0:0:
100,99,180793,2,0,P|83:173|89:207,1,77.999997619629,8|0,0:0|0:0,0:0:0:0:
95,251,181188,2,0,P|110:311|129:343,1,77.999997619629
182,367,181582,6,0,P|229:369|334:327,1,155.999995239258
383,274,182174,1,0,0:0:0:0:
383,274,182372,2,0,P|331:236|317:207,1,77.999997619629,8|0,0:0|0:0,0:0:0:0:
282,159,182767,2,0,P|263:106|261:67,1,77.999997619629,8|0,0:0|0:0,0:0:0:0:
285,10,183161,6,0,P|388:52|351:162,1,233.999992858887
287,162,183951,1,8,0:0:0:0:
282,159,184148,2,0,P|263:106|261:67,1,77.999997619629
130,161,184740,6,0,B|51:153|51:153|5:214,1,155.999995239258,0|2,0:0|0:2,0:0:0:0:
10,293,185332,1,8,0:2:0:0:
10,293,185530,2,0,P|76:286|117:293,1,77.999997619629,2|8,0:1|0:2,0:0:0:0:
162,305,185924,2,0,P|211:328|248:355,1,77.999997619629,8|8,0:0|0:2,0:0:0:0:
230,341,186319,6,0,P|268:319|370:301,1,130,6|8,0:3|0:2,0:0:0:0:
416,310,186911,2,0,P|368:262|354:202,1,130,8|8,0:2|0:2,0:0:0:0:
375,141,187503,2,0,P|398:112|430:118,1,65,2|0,0:2|0:0,0:0:0:0:
476,151,187898,6,0,P|486:92|478:16,1,130,4|4,0:2|0:2,0:0:0:0:
415,33,188490,1,8,0:2:0:0:
415,33,188688,2,0,P|367:42|323:42,1,65,8|0,0:0|0:0,0:0:0:0:
286,41,189082,1,2,0:2:0:0:
167,94,189477,6,0,P|127:96|91:97,1,65,4|8,0:2|0:2,0:0:0:0:
9,164,189872,2,0,P|77:174|155:200,1,130,8|8,0:2|0:0,0:0:0:0:
180,239,190464,1,8,0:2:0:0:
180,239,190661,1,2,0:2:0:0:
164,302,190859,1,2,0:2:0:0:
164,302,191056,5,4,0:2:0:0:
169,366,191253,1,8,0:2:0:0:
169,366,191451,2,0,P|217:347|242:347,1,65,4|8,0:2|0:2,0:0:0:0:
294,350,191846,1,8,0:0:0:0:
294,350,192043,2,0,P|349:363|367:371,1,65,8|2,0:2|0:2,0:0:0:0:
409,307,192437,1,8,0:2:0:0:
480,364,192635,5,6,0:3:0:0:
480,364,192832,2,0,L|478:272,1,65,8|8,0:2|0:2,0:0:0:0:
441,245,193227,2,0,L|448:170,2,65,4|8|4,0:2|0:0|0:2,0:0:0:0:
378,261,193819,2,0,L|238:266,1,130,2|4,0:2|0:2,0:0:0:0:
183,270,194411,5,4,0:2:0:0:
183,270,194609,2,0,P|162:224|163:190,1,65,8|4,0:1|0:2,0:0:0:0:
183,149,195003,2,0,P|191:116|181:74,1,65,8|4,0:0|0:2,0:0:0:0:
133,47,195398,2,0,L|270:37,1,130,2|2,0:2|0:3,0:0:0:0:
296,92,195990,6,0,L|369:78,2,65,8|8|8,0:2|0:1|0:2,0:0:0:0:
263,148,196582,1,8,0:0:0:0:
263,148,196780,2,0,L|274:218,1,65,8|2,0:2|0:2,0:0:0:0:
232,335,197372,6,0,L|305:331,1,65,4|4,0:2|0:2,0:0:0:0:
296,331,197767,2,0,L|151:328,1,130,2|8,0:2|0:0,0:0:0:0:
107,355,198359,2,0,L|21:351,2,65,8|2|8,0:0|0:2|0:0,0:0:0:0:
114,290,198951,6,0,B|104:267|104:267|125:226|125:226|121:155,1,130,2|8,0:3|0:0,0:0:0:0:
117,102,199543,1,8,0:0:0:0:
117,102,199740,2,0,L|113:21,1,65,8|2,0:0|0:2,0:0:0:0:
177,50,200135,2,0,L|29:43,1,130,8|4,0:0|0:2,0:0:0:0:
14,100,200727,5,2,0:2:0:0:
14,100,200924,2,0,L|16:168,1,65,4|2,0:2|0:2,0:0:0:0:
10,229,201319,2,0,L|10:311,2,65,8|8|2,0:0|0:3|0:2,0:0:0:0:
71,207,201911,1,2,0:2:0:0:
71,207,202109,6,0,B|112:205|112:205|134:213|134:213|157:202|157:202|205:197,1,130,2|8,0:3|0:0,0:0:0:0:
261,203,202701,1,8,0:0:0:0:
261,203,202898,2,0,B|303:200|303:200|325:189|325:189|346:197|346:197|392:195,1,130,12|2,0:2|0:2,0:0:0:0:
451,198,203490,1,2,0:2:0:0:
451,198,203688,5,8,0:1:0:0:
501,317,204082,2,0,P|463:308|416:317,1,65,4|4,0:2|0:2,0:0:0:0:
375,330,204477,2,0,P|343:346|303:346,1,65,8|4,0:0|0:2,0:0:0:0:
249,342,204872,1,2,0:2:0:0:
249,342,205069,2,0,P|193:333|158:338,2,65,4|8|4,0:2|0:1|0:2,0:0:0:0:
279,284,205661,6,0,P|221:229|150:218,1,130,2|8,0:1|0:0,0:0:0:0:
126,172,206253,2,0,P|159:168|198:156,1,65,4|2,0:2|0:2,0:0:0:0:
248,131,206648,1,2,0:2:0:0:
248,131,206846,6,0,P|199:127|127:73,1,130,4|8,0:1|0:0,0:0:0:0:
93,31,207438,1,4,0:2:0:0:
93,31,207635,2,0,P|79:77|21:151,1,130,8|2,0:0|0:2,0:0:0:0:
15,271,208424,6,0,L|103:264,1,65,2|8,0:3|0:2,0:0:0:0:
132,227,208819,2,0,L|126:309,1,65,8|4,0:2|0:2,0:0:0:0:
122,356,209214,2,0,B|155:349|155:349|226:370|226:370|251:363,1,130,8|2,0:0|0:2,0:0:0:0:
309,345,209806,1,2,0:2:0:0:
309,345,210003,5,8,0:0:0:0:
372,359,210201,1,8,0:0:0:0:
372,359,210398,1,4,0:2:0:0:
436,353,210596,1,4,0:2:0:0:
436,353,210793,2,0,B|457:321|457:321|436:284|436:284|437:215,1,130,4|2,0:1|0:1,0:0:0:0:
507,95,211582,6,0,B|489:121|489:121|390:138|390:138|364:122,1,155.999995239258,4|0,0:3|0:0,0:0:0:0:
292,135,212174,1,0,0:0:0:0:
292,135,212372,2,0,B|265:155|265:155|170:146|170:146|152:126,1,155.999995239258,2|0,0:2|0:0,0:0:0:0:
73,121,212964,1,0,0:0:0:0:
73,121,213161,6,0,P|80:76|72:40,1,77.999997619629
4,81,213556,2,0,P|0:132|12:167,1,77.999997619629
74,197,213951,2,0,P|82:253|69:293,1,77.999997619629,2|0,0:2|0:0,0:0:0:0:
6,241,214346,2,0,P|2:291|17:325,1,77.999997619629,2|0,0:2|0:0,0:0:0:0:
78,355,214740,6,0,P|162:309|70:278,1,233.999992858887
142,228,215530,1,8,0:0:0:0:
219,225,215727,1,8,0:0:0:0:
292,250,215924,1,2,0:2:0:0:
341,310,216122,1,2,0:2:0:0:
341,310,216319,6,0,B|379:328|379:328|385:197,1,155.999995239258,4|4,0:2|0:2,0:0:0:0:
360,139,216911,1,0,0:0:0:0:
360,139,217109,2,0,B|368:20|368:20|394:57,1,155.999995239258,6|10,0:2|0:2,0:0:0:0:
443,105,217701,1,2,0:2:0:0:
443,105,217898,6,0,L|357:97,1,77.999997619629,4|0,0:3|0:0,0:0:0:0:
287,99,218293,2,0,L|199:90,1,77.999997619629
139,55,218688,2,0,L|48:44,1,77.999997619629,2|0,0:2|0:0,0:0:0:0:
64,123,219082,2,0,L|161:134,1,77.999997619629
119,206,219477,6,0,L|110:288,1,77.999997619629
64,347,219872,2,0,P|123:361|145:354,1,77.999997619629,2|0,0:2|0:0,0:0:0:0:
191,299,220267,2,0,L|201:213,2,77.999997619629,2|8|2,0:2|0:0|0:2,0:0:0:0:
217,372,220859,1,2,0:2:0:0:
217,372,221056,6,0,B|261:331|325:358|325:358|386:384|450:330,1,233.999992858887,2|0,0:2|0:0,0:0:0:0:
491,286,221846,2,0,P|507:248|500:184,1,77.999997619629,8|8,0:0|0:0,0:0:0:0:
499,134,222240,1,2,0:2:0:0:
415,265,222635,6,0,P|421:220|409:174,1,77.999997619629,4|0,0:2|0:0,0:0:0:0:
386,115,223030,2,0,P|370:81|323:47,1,77.999997619629,4|0,0:2|0:0,0:0:0:0:
268,24,223424,2,0,P|217:14|157:28,1,77.999997619629,14|0,0:2|0:2,0:0:0:0:
115,35,223819,2,0,P|71:57|48:89,1,77.999997619629,10|8,0:3|0:1,0:0:0:0:
24,151,224214,6,0,P|31:214|98:165,1,155.999995239258,4|0,0:3|0:0,0:0:0:0:
159,140,224806,1,0,0:0:0:0:
159,140,225003,2,0,P|205:133|217:226,1,155.999995239258,10|0,0:2|0:0,0:0:0:0:
170,277,225596,1,0,0:0:0:0:
170,277,225793,6,0,P|169:322|266:326,1,155.999995239258,0|2,0:0|0:2,0:0:0:0:
316,281,226385,1,8,0:0:0:0:
316,281,226582,2,0,P|357:254|396:338,1,155.999995239258,10|10,0:2|0:2,0:0:0:0:
472,365,227174,1,10,0:2:0:0:
472,365,227372,6,0,P|501:282|462:136,1,233.999992858887,2|0,0:2|0:0,0:0:0:0:
409,91,228161,1,10,0:2:0:0:
338,57,228359,1,8,0:0:0:0:
260,57,228556,1,10,0:2:0:0:
189,89,228753,1,10,0:2:0:0:
189,89,228951,6,0,P|129:104|91:92,1,77.999997619629,4|0,0:2|0:0,0:0:0:0:
38,81,229346,2,0,P|19:140|32:175,1,77.999997619629,12|0,0:2|0:0,0:0:0:0:
71,213,229740,2,0,P|76:257|62:292,1,77.999997619629,14|2,0:2|0:0,0:0:0:0:
17,350,230135,2,0,L|105:346,1,77.999997619629,10|2,0:3|0:0,0:0:0:0:
167,316,230530,6,0,B|206:304|206:304|283:337|283:337|316:327,1,155.999995239258,4|0,0:3|0:0,0:0:0:0:
390,338,231122,1,0,0:0:0:0:
390,338,231319,2,0,B|411:318|411:318|425:221|425:221|404:192,1,155.999995239258,10|2,0:2|0:2,0:0:0:0:
342,154,231911,1,2,0:2:0:0:
342,154,232109,6,0,B|337:30|337:30|367:67,1,155.999995239258,2|0,0:2|0:0,0:0:0:0:
428,87,232701,1,0,0:0:0:0:
428,87,232898,2,0,L|340:84,1,77.999997619629,10|8,0:2|0:0,0:0:0:0:
272,90,233293,2,0,L|187:86,1,77.999997619629,10|8,0:2|0:0,0:0:0:0:
118,107,233688,6,0,P|84:69|23:127,1,155.999995239258,2|0,0:3|0:0,0:0:0:0:
64,193,234280,1,0,0:0:0:0:
64,193,234477,2,0,L|53:298,1,77.999997619629,10|0,0:2|0:0,0:0:0:0:
12,339,234872,2,0,L|170:309,1,155.999995239258,8|4,0:0|0:1,0:0:0:0:
237,340,235464,5,8,0:0:0:0:
237,340,235661,2,0,P|287:353|337:340,1,77.999997619629,0|8,0:0|0:0,0:0:0:0:
390,339,236056,2,0,P|429:333|477:298,1,77.999997619629,2|10,0:0|0:2,0:0:0:0:
506,249,236451,1,8,0:0:0:0:
433,141,236846,6,0,B|408:77|444:10|444:10|465:47|463:77,1,195,12|4,0:3|0:2,0:0:0:0:
433,141,237635,2,0,L|291:133,1,130,8|8,0:0|0:0,0:0:0:0:
203,62,238227,1,8,0:0:0:0:
203,62,238424,2,0,P|208:105|209:158,1,65,8|4,0:0|0:2,0:0:0:0:
178,184,238819,2,0,P|177:228|185:268,1,65,8|4,0:0|0:2,0:0:0:0:
214,304,239214,2,0,L|61:296,1,130,8|2,0:1|0:2,0:0:0:0:
10,189,240003,6,0,L|214:175,1,195,2|2,0:2|0:2,0:0:0:0:
266,195,240793,1,2,0:2:0:0:
266,195,240990,2,0,P|318:184|346:193,1,65,4|2,0:2|0:2,0:0:0:0:
414,183,241385,1,4,0:2:0:0:
436,259,241582,2,0,P|381:254|357:256,2,65,4|8|4,0:2|0:0|0:2,0:0:0:0:
500,268,242174,1,8,0:0:0:0:
500,268,242372,2,0,P|507:189|494:132,1,130,8|4,0:0|0:1,0:0:0:0:
440,22,243161,6,0,P|423:94|428:157,1,130,4|2,0:2|0:2,0:0:0:0:
363,131,243753,1,4,0:2:0:0:
363,131,243951,2,0,P|308:122|223:135,1,130,2|4,0:2|0:2,0:0:0:0:
107,105,244740,2,0,P|108:55|112:25,2,65,2|8|10,0:2|0:1|0:2,0:0:0:0:
116,169,245332,1,2,0:2:0:0:
116,169,245530,2,0,P|128:226|178:287,1,130,4|8,0:2|0:0,0:0:0:0:
276,358,246319,6,0,L|68:367,1,195,2|4,0:3|0:2,0:0:0:0:
16,363,247109,1,4,0:2:0:0:
16,363,247306,2,0,L|45:231,1,130,4|4,0:2|0:2,0:0:0:0:
87,187,247898,2,0,P|68:144|74:106,1,65,4|4,0:2|0:2,0:0:0:0:
81,62,248293,2,0,P|102:32|141:18,1,65,2|4,0:2|0:2,0:0:0:0:
192,20,248688,2,0,P|231:44|247:75,1,65,8|8,0:0|0:0,0:0:0:0:
257,122,249082,2,0,P|255:168|225:200,1,65,4|8,0:2|0:0,0:0:0:0:
206,235,249477,6,0,P|190:278|308:324,1,195,4|8,0:1|0:0,0:0:0:0:
354,304,250267,1,8,0:2:0:0:
354,304,250464,2,0,P|399:290|417:299,1,65,8|8,0:0|0:0,0:0:0:0:
500,200,251056,2,0,P|452:193|366:229,1,130,8|8,0:0|0:2,0:0:0:0:
379,154,251648,1,8,0:0:0:0:
379,154,251846,2,0,P|398:107|398:20,1,130,8|8,0:2|0:0,0:0:0:0:
275,66,252635,6,0,L|127:68,1,130,4|8,0:2|0:0,0:0:0:0:
92,28,253227,1,4,0:2:0:0:
92,28,253424,2,0,L|97:164,1,130,4|8,0:2|0:0,0:0:0:0:
97,223,254017,1,8,0:0:0:0:
97,223,254214,2,0,L|26:220,2,65,2|8|8,0:3|0:1|0:0,0:0:0:0:
102,287,254806,1,8,0:2:0:0:
102,287,255003,2,0,L|234:273,1,130,8|2,0:3|0:1,0:0:0:0:
333,354,255793,6,0,P|370:322|447:336,2,130,4|2|2,0:3|0:2|0:2,0:0:0:0:
343,289,256780,1,2,0:2:0:0:
343,289,256977,2,0,P|350:247|348:209,1,65,8|2,0:0|0:2,0:0:0:0:
326,163,257372,2,0,P|315:106|344:22,2,130,8|2|8,0:0|0:2|0:0,0:0:0:0:
444,108,258556,1,4,0:2:0:0:
430,237,258951,6,0,B|363:266|303:222|303:222|275:284|197:291,1,260,2|8,0:3|0:0,0:0:0:0:
74,295,260135,2,0,P|33:284|4:261,1,65,8|8,0:0|0:0,0:0:0:0:
5,206,260530,1,2,0:3:0:0:
133,226,260924,1,2,0:3:0:0:
261,208,261319,1,4,0:3:0:0:
372,140,261714,1,4,0:2:0:0:
410,15,262109,1,2,0:1:0:0:
