osu file format v9

[General]
AudioFilename: Tooi sekai no unknown X.mp3
AudioLeadIn: 0
PreviewTime: 107825
Countdown: 0
SampleSet: Soft
StackLeniency: 0.7
Mode: 0
LetterboxInBreaks: 1

[Editor]
DistanceSpacing: 1
BeatDivisor: 4
GridSize: 8

[Metadata]
Title:Tooi Sekai no Unknown X
Artist:SYO
Creator:Reiji-RJ
Version:Normal
Source:Touhou
Tags:unknownx of a far away world sound holic unfound adventure icebeam komeiji yuki

[Difficulty]
HPDrainRate:5
CircleSize:4
OverallDifficulty:5
ApproachRate:5
SliderMultiplier:1.3
SliderTickRate:1

[Events]
//Background and Video events
0,0,"bg.jpg"
//Break Periods
//Storyboard Layer 0 (Background)
//Storyboard Layer 1 (Fail)
//Storyboard Layer 2 (Pass)
//Storyboard Layer 3 (Foreground)
//Storyboard Sound Samples
//Background Colour Transformations
3,100,163,162,255

[TimingPoints]
15706,472.44094488189,4,2,1,70,1,0
27044,-100,4,2,1,20,0,0
28934,-100,4,2,1,70,0,0
30824,-100,4,2,0,50,0,0
30942,-100,4,2,1,100,0,0
47950,-100,4,2,1,20,0,0
50194,-100,4,2,1,100,0,0
51729,-100,4,2,1,20,0,0
53973,-100,4,2,1,100,0,0
78186,-100,4,2,1,21,0,0
80430,-100,4,2,1,100,0,0
81965,-100,4,2,1,20,0,0
84209,-100,4,2,1,100,0,0
93186,-133.333333333333,4,2,1,70,0,0
105942,-100,4,2,1,100,0,0
108304,-100,4,2,1,100,0,1
136768,-100,4,2,1,20,0,1
138540,-100,4,2,1,100,0,0

[Colours]
Combo1 : 218,255,187
Combo2 : 4,185,108
Combo3 : 181,200,6
Combo4 : 56,114,108

[HitObjects]
168,232,15706,2,0,B|24:240,2,130,4|12|4
296,232,17123,1,12
344,112,17595,2,4,B|488:120,2,130,4|12|4
216,112,19013,1,12
320,192,19485,6,0,B|400:184,2,65,4|0|12
256,304,20430,1,4
256,304,20902,1,12
192,192,21375,2,0,B|48:216,1,130,4|12
152,112,22320,2,0,B|232:112,2,65,4|0|12
256,192,23265,6,0,B|312:216|384:216,2,130,4|12|4
256,320,24682,1,12
256,192,25154,2,4,B|200:168|128:168,2,130,4|12|4
256,64,26572,1,12
256,192,27044,12,4,28934
256,192,29406,5,12
360,272,29879,2,0,B|400:280|432:304,2,65,4|4|12
256,192,30824,5,4
256,192,32241,1,4
152,112,32713,6,0,B|216:96|296:112,1,130,4|12
384,192,33658,2,0,B|320:200|240:192,1,130,4|12
136,248,34603,1,4
240,328,35076,1,12
352,264,35548,1,4
472,320,36020,1,12
432,200,36493,6,4,B|448:136|432:72,2,130,4|12|4
320,128,37910,1,12
192,160,38383,2,4,B|120:160|64:136,2,130,4|12|4
320,128,39800,1,12
320,256,40272,6,0,B|384:272,2,65,4|0|12
200,304,41217,2,4,B|136:312|64:296,1,130,4|12
144,192,42162,2,4,B|272:184,1,130,4|12
192,88,43107,2,0,B|112:80,2,65,4|0|12
320,96,44052,6,4,B|360:144|376:216,2,130,4|12|4
256,208,45469,1,12
160,296,45942,2,4,B|224:288|296:304,1,130,4|12
416,296,46887,1,4
416,296,47359,1,12
256,192,47831,12,8,50194
192,144,50666,6,0,B|256:128|328:136,1,130,0|8
256,192,51611,12,8,53973
320,256,54446,6,4,B|184:264,1,130,0|8
168,136,55391,2,0,B|96:128,2,65,4|0|12
296,112,56335,1,4
296,112,56808,1,12
328,240,57280,2,0,B|408:248,2,65,4|0|12
208,288,58225,6,4,B|168:232|176:160,1,130,4|12
296,112,59170,2,4,B|432:128,1,130,4|12
344,232,60115,2,0,B|312:288,2,65,4|0|12
216,192,61060,2,0,B|144:192,2,65,4|0|12
320,112,62005,2,4,B|256:96|184:112,1,130,4|12
272,208,62950,6,4,B|336:216|408:208,2,130,4|12|4
152,264,64367,1,12
80,152,64839,2,0,B|136:120|216:120,1,130,4|12
336,120,65784,2,0,B|408:120,2,65,4|0|12
256,224,66729,6,0,B|256:296,2,65,4|0|12
248,96,67674,2,4,B|184:104|112:96,1,130,4|12
56,208,68619,2,4,B|120:200|192:208,1,130,4|12
312,216,69564,1,4
440,192,70036,1,12
360,96,70509,6,4,B|296:72|232:96,2,130,4|12|4
312,216,71926,1,12
208,288,72398,2,4,B|72:288,1,130,4|12
168,192,73343,2,4,B|232:184|304:192,1,130,4|12
376,88,74288,6,0,B|456:80,2,65,4|0|12
248,104,75233,2,4,B|112:96,2,130,4|12|4
344,192,76650,1,12
224,248,77123,1,4
104,192,77595,1,12
256,192,78068,12,8,80430
192,120,80902,6,4,B|336:128,1,130,0|8
256,192,81847,12,8,84209
192,288,84682,6,4,B|336:272,1,130,0|8
216,192,85627,2,0,B|136:192,2,65,4|0|12
344,160,86572,1,4
344,160,87044,1,12
248,72,87517,2,4,B|312:64|392:72,2,130,4|12|4
136,136,88934,5,12
120,264,89406,2,4,B|272:272,1,130,4|12
368,208,90351,2,0,B|440:208,2,65,4|0|12
256,136,91296,2,0,B|304:80,2,65,4|0|12
256,264,92241,1,4
256,264,92713,1,12
120,224,93186,6,0,B|160:168|88:104|120:32,2,194.999994188547,2|2|0
256,152,96020,1,2
392,160,96965,2,0,B|352:216|424:280|392:352,2,194.999994188547,2|2|0
256,304,100745,6,0,B|152:320|56:304,2,194.999994188547,2|2|0
256,192,103580,1,2
384,272,104524,2,0,B|416:168|384:72,1,194.999994188547,2|2
256,72,105942,5,0
352,160,106414,1,2
320,288,106887,1,0
192,288,107359,1,0
160,160,107831,1,0
256,72,108304,6,0,B|320:80|400:72,1,130,4|12
320,184,109249,2,4,B|248:192|184:184,1,130,4|12
72,120,110194,1,4
120,240,110666,2,0,B|64:280,2,65,12|0|4
232,304,111611,2,4,B|384:280,2,130,12|4|12
256,176,113028,1,4
344,80,113501,6,0,B|272:64|216:80,1,130,12|4
128,176,114446,2,0,B|64:160,2,65,12|0|4
256,176,115391,1,12
344,272,115863,6,0,B|416:264,2,65,4|0|12
256,176,116808,1,4
136,216,117280,2,0,B|152:280|224:312,1,130,12|4
256,176,118225,2,0,B|256:96,2,65,12|0|4
384,176,119170,1,12
384,176,119643,6,0,B|456:184,2,65,4|0|12
320,288,120587,1,4
192,288,121060,1,12
192,160,121532,2,0,B|256:128|320:160,3,130,4|12|4|12
312,288,123422,6,4,B|376:296|448:288,2,130,4|12|4
200,224,124839,2,4,B|136:208|64:224,1,130,12|4
152,120,125784,2,0,B|88:96,2,65,12|0|4
280,152,126729,2,4,B|424:160,1,130,12|4
344,272,127674,2,4,B|208:296,1,130,12|4
120,208,128619,5,12
136,80,129091,1,4
264,112,129564,1,12
248,240,130036,1,4
120,208,130509,1,12
136,80,130981,6,0,B|208:88|264:56,2,130,4|12|4
120,208,132398,2,4,B|184:232|256:208,1,130,12|4
320,320,133343,2,0,B|392:296,2,65,12|0|4
192,320,134288,1,12
256,208,134761,5,4
256,208,135233,1,12
384,168,135705,1,4
288,80,136178,2,0,B|208:64|160:112,1,130,12|4
256,192,136768,12,4,138540
