osu file format v10

[General]
AudioFilename: LOVE B.B.B.mp3
AudioLeadIn: 1996
PreviewTime: 89512
Countdown: 1
SampleSet: Soft
StackLeniency: 0.7
Mode: 0
LetterboxInBreaks: 1

[Editor]
Bookmarks: 9743
DistanceSpacing: 2
BeatDivisor: 4
GridSize: 4

[Metadata]
Title:LOVE B.B.B
TitleUnicode:LOVE B.B.B
Artist:SWAN K feat. Asuka M
ArtistUnicode:SWAN K feat. Asuka M
Creator:Auto
Version:Normal
Source:Beatmania IIDX 19 Lincle
Tags:
BeatmapID:184259
BeatmapSetID:58172

[Difficulty]
HPDrainRate:3
CircleSize:3
OverallDifficulty:4
ApproachRate:6
SliderMultiplier:1.2
SliderTickRate:1

[Events]
//Background and Video events
0,0,"bg.jpg"
//Break Periods
2,78617,88466
//Storyboard Layer 0 (Background)
//Storyboard Layer 1 (Fail)
//Storyboard Layer 2 (Pass)
//Storyboard Layer 3 (Foreground)
//Storyboard Sound Samples
//Background Colour Transformations
3,100,163,162,255

[TimingPoints]
730,346.820809248555,4,2,0,75,1,0
22922,-100,4,2,0,75,0,0
43735,-100,4,1,0,50,0,0
45123,-100,4,2,0,50,0,0
46510,-100,4,2,0,75,0,0
47546,-100,4,2,0,75,0,0
50668,-100,4,2,0,75,0,0
111795,-100,4,2,0,40,0,0
113095,-100,4,2,0,5,0,0

[HitObjects]
77,188,730,2,0,B|84:132|124:95|156:96,1,120
186,209,1423,2,0,B|221:156|301:136,1,120
370,228,2117,1,0,0:0:0
431,124,2464,2,0,B|369:75|302:88,1,120
269,194,3157,5,0,0:0:0
269,194,3331,1,0,0:0:0
269,194,3504,2,0,B|263:280|172:292,1,120
89,325,4198,2,0,B|88:239|149:173,1,120
68,102,4891,1,0,0:0:0
186,123,5238,2,0,B|312:122,1,120
375,220,5932,6,0,B|352:291,1,60
356,277,6279,2,0,B|229:277,1,120
129,332,6972,2,0,B|82:269|131:197,1,120
235,192,7666,1,0,0:0:0
355,188,8013,2,0,B|373:121|318:68,1,120
207,62,8706,5,0,0:0:0
207,62,8880,1,0,0:0:0
207,62,9053,2,0,B|114:64|66:112,1,120
62,208,9747,2,0,B|129:170|209:165,1,120
242,267,10440,2,0,B|156:271|114:320,1,120
243,345,11134,1,0,0:0:0
450,192,11481,5,0,0:0:0
450,192,11568,1,0,0:0:0
450,192,11654,1,0,0:0:0
450,192,11741,1,0,0:0:0
450,192,11828,2,0,B|450:126,1,60
369,221,12175,2,0,B|368:156,1,60
347,43,12521,2,0,B|302:106,1,60
265,202,12868,1,0,0:0:0
147,71,13215,2,0,B|148:151,1,60
78,229,13562,2,0,B|116:294,1,60
112,315,13822,1,0,0:0:0
150,312,13909,2,0,B|188:308,2,30
241,233,14256,2,0,B|293:232,2,30
330,312,14602,6,0,B|250:282,1,60
375,225,14949,2,0,B|341:144,1,60
236,205,15296,2,0,B|284:132,1,60
189,64,15643,1,0,0:0:0
145,237,15990,2,0,B|84:184,1,60
79,315,16336,2,0,B|153:330,1,60
172,328,16597,1,0,0:0:0
211,308,16683,2,0,B|256:308,2,30
290,217,17030,5,0,0:0:0
290,217,17117,1,0,0:0:0
290,217,17203,1,0,0:0:0
290,217,17290,1,0,0:0:0
290,217,17377,2,0,B|222:195,1,60
115,226,17724,2,0,B|130:143,1,60
182,60,18071,2,0,B|232:117,1,60
340,91,18417,1,0,0:0:0
442,235,18764,2,0,B|356:220,1,60
307,318,19111,2,0,B|381:334,1,60
313,221,19458,2,0,B|247:257,1,60
157,312,19805,1,0,0:0:0
256,47,20151,5,0,0:0:0
256,95,20383,1,0,0:0:0
256,142,20614,1,0,0:0:0
256,189,20845,1,0,0:0:0
256,236,21076,1,0,0:0:0
256,284,21308,1,0,0:0:0
256,332,21539,2,0,B|196:340|128:304|60:240|64:184,1,240
67,209,22579,1,0,0:0:0
260,68,22926,6,0,B|336:68,1,60,4|0,0:0|0:0,0:0:0
340,188,23273,2,0,B|408:188,1,60
420,308,23620,2,0,B|344:308,1,60
252,252,23966,1,0,0:0:0
88,312,24313,2,0,B|88:232,1,60
168,164,24660,2,0,B|168:88,1,60
276,160,25007,2,0,B|276:84,1,60
392,68,25354,1,0,0:0:0
268,60,25701,6,0,B|208:68,1,60
148,172,26047,2,0,B|84:128,1,60
88,260,26394,2,0,B|112:336,1,60
228,328,26741,1,0,0:0:0
328,180,27088,2,0,B|364:256,1,60
452,304,27435,2,0,B|440:232,1,60
432,124,27782,2,0,B|352:100,1,60
256,132,28128,1,0,0:0:0
156,196,28475,6,0,B|104:164,1,60
132,280,28822,1,0,0:0:0
236,340,28995,2,0,B|248:256,1,60
336,204,29342,1,0,0:0:0
384,312,29516,1,0,0:0:0
440,80,29862,1,0,0:0:0
316,100,30036,2,0,B|236:112,1,60
136,96,30383,1,0,0:0:0
224,176,30556,2,0,B|296:188,1,60
200,276,30903,1,0,0:0:0
88,324,31250,6,0,B|76:240,1,60
180,200,31597,1,0,0:0:0
72,152,31770,2,0,B|128:120,1,60
232,68,32117,1,0,0:0:0
136,140,32290,1,0,0:0:0
320,292,32637,1,0,0:0:0
392,196,32810,2,0,B|400:276,1,60
468,160,33157,1,0,0:0:0
376,84,33331,2,0,B|296:84,1,60
200,116,33677,1,0,0:0:0
112,288,34024,5,0,0:0:0
332,192,34371,1,0,0:0:0
332,192,34545,1,0,0:0:0
332,192,34718,1,0,0:0:0
112,96,35065,1,0,0:0:0
112,96,35238,1,0,0:0:0
256,288,35585,1,0,0:0:0
312,56,35932,1,0,0:0:0
364,84,36105,1,0,0:0:0
408,128,36279,1,0,0:0:0
432,184,36452,1,0,0:0:0
400,96,36799,5,0,0:0:0
180,192,37146,1,0,0:0:0
180,192,37320,1,0,0:0:0
180,192,37493,1,0,0:0:0
400,288,37840,1,0,0:0:0
400,288,38013,1,0,0:0:0
256,96,38360,1,0,0:0:0
200,328,38707,1,0,0:0:0
148,300,38880,1,0,0:0:0
104,256,39054,1,0,0:0:0
80,200,39227,1,0,0:0:0
256,36,39573,5,0,0:0:0
376,244,39920,1,0,0:0:0
352,220,40094,1,0,0:0:0
328,196,40267,1,0,0:0:0
96,128,40614,1,0,0:0:0
128,140,40787,1,0,0:0:0
292,316,41134,1,0,0:0:0
328,80,41481,1,0,0:0:0
312,112,41654,1,0,0:0:0
300,144,41828,1,0,0:0:0
284,176,42001,1,0,0:0:0
92,320,42348,6,0,B|64:220|96:116,1,180
172,228,43042,2,0,B|188:112|272:72,1,180
344,164,43735,2,0,B|392:168,3,30
336,216,44082,2,0,B|380:248,3,30
304,252,44429,2,0,B|320:296,4,30
68,304,45123,6,0,B|68:224,1,60
108,132,45469,2,0,B|176:104,1,60
228,212,45816,2,0,B|156:232,1,60
240,128,46163,1,0,0:0:0
416,88,46510,2,0,B|456:152|436:224,1,120
236,328,47203,2,0,B|316:324|344:248,1,120
104,192,47897,6,0,B|160:160,1,60
248,84,48244,2,0,B|172:80,1,60
256,180,48591,2,0,B|308:244,1,60
192,292,48938,1,0,0:0:0
372,312,49458,5,0,0:0:0
384,132,49718,1,0,0:0:0
224,48,49978,1,0,0:0:0
132,204,50238,1,0,0:0:0
244,344,50498,1,0,0:0:0
300,236,50672,6,0,B|216:236,1,60
136,296,51019,1,0,0:0:0
136,296,51192,1,0,0:0:0
68,128,51365,2,0,B|152:128,1,60
216,48,51712,1,0,0:0:0
216,48,51886,1,0,0:0:0
336,56,52059,6,0,B|336:136,1,60
412,208,52406,1,0,0:0:0
412,208,52579,1,0,0:0:0
296,244,52753,2,0,B|296:328,1,60
180,276,53099,1,0,0:0:0
180,276,53273,1,0,0:0:0
80,208,53446,6,0,B|160:112|224:92,1,180
336,92,54140,2,0,B|420:128|460:224,1,180
356,284,54834,2,0,B|308:264,6,30
236,288,55527,2,0,B|224:240,2,30
144,212,55874,2,0,B|176:164,2,30
112,96,56221,6,0,B|180:96,1,60
260,180,56568,1,0,0:0:0
416,104,56914,2,0,B|444:184,1,60
368,260,57261,1,0,0:0:0
368,260,57348,1,0,0:0:0
368,260,57435,1,0,0:0:0
264,320,57608,6,0,B|200:300,1,60
100,248,57955,1,0,0:0:0
248,152,58302,2,0,B|164:124,1,60
84,76,58649,1,0,0:0:0
84,76,58735,1,0,0:0:0
84,76,58822,1,0,0:0:0
128,188,58995,6,0,B|180:156,1,60
276,84,59342,1,0,0:0:0
444,256,59689,2,0,B|364:248,1,60
280,308,60036,1,0,0:0:0
280,308,60123,1,0,0:0:0
280,308,60209,1,0,0:0:0
164,272,60383,6,0,B|124:240,2,30
232,172,60730,2,0,B|180:156,2,30
244,52,61076,2,0,B|196:60,2,30
116,144,61423,2,0,B|80:128,2,30
84,260,61770,6,0,B|168:304|332:324|456:216|464:152,1,440
456,72,63157,2,0,B|380:60|296:48|260:48|220:60|192:68|136:88|92:124|40:188,1,440
212,296,64718,5,0,0:0:0
388,264,64978,1,0,0:0:0
384,84,65238,1,0,0:0:0
204,84,65498,1,0,0:0:0
96,228,65758,1,0,0:0:0
168,324,65932,1,0,0:0:0
344,292,66192,1,0,0:0:0
424,132,66452,1,0,0:0:0
324,68,66625,1,0,0:0:0
152,128,66886,1,0,0:0:0
256,276,67146,1,0,0:0:0
136,296,67319,6,0,B|64:256|56:184,1,120
172,160,67839,1,0,0:0:0
168,40,68013,2,0,B|252:76|276:136,1,120
384,100,68533,1,0,0:0:0
436,208,68706,2,0,B|360:184|320:232,1,120
272,336,69227,1,0,0:0:0
156,308,69400,2,0,B|184:248|132:192,1,120
256,180,69920,1,0,0:0:0
200,72,70094,6,0,B|108:92|96:152,1,120
184,224,70614,1,0,0:0:0
280,296,70787,2,0,B|236:288,2,30
400,312,71134,2,0,B|380:248,1,60
464,164,71481,2,0,B|424:96|384:72|372:72,1,120
292,156,72001,1,0,0:0:0
176,128,72175,2,0,B|168:100,2,30
60,148,72521,2,0,B|116:200,1,60
160,296,72868,6,0,B|240:296,1,60
304,212,73215,1,0,0:0:0
100,88,73562,2,0,B|168:68,1,60
276,48,73909,2,0,B|348:76,1,60
240,144,74256,2,0,B|160:156,1,60
96,192,74602,1,0,0:0:0
184,328,74949,6,0,B|236:260|300:244,1,120
452,92,75643,2,0,B|408:152|340:152,1,120
116,100,76336,2,0,B|136:176|220:188,1,120
412,288,77030,2,0,B|448:212|404:148,1,120
224,312,77724,2,0,B|152:284|112:224,1,120
236,192,78244,1,0,0:0:0
236,192,78417,1,0,0:0:0
72,92,89516,6,0,B|108:160,1,60
60,256,89862,2,0,B|140:228,1,60
224,184,90209,1,0,0:0:0
224,184,90296,1,0,0:0:0
224,184,90383,1,0,0:0:0
236,304,90556,1,0,0:0:0
352,180,90903,2,0,B|384:252,1,60
436,128,91250,2,0,B|372:88,1,60
352,84,91510,1,0,0:0:0
312,84,91597,2,0,B|288:60,2,30
196,108,91943,1,0,0:0:0
240,220,92290,6,0,B|184:256,1,60
272,340,92637,2,0,B|344:288,1,60
368,196,92984,1,0,0:0:0
368,196,93071,1,0,0:0:0
368,196,93157,1,0,0:0:0
284,108,93331,1,0,0:0:0
116,132,93677,2,0,B|124:216,1,60
124,312,94024,2,0,B|200:280,1,60
212,292,94284,1,0,0:0:0
248,308,94371,2,0,B|280:292,2,30
364,332,94718,1,0,0:0:0
436,236,95065,6,0,B|440:160|384:112,1,120
280,156,95585,1,0,0:0:0
160,156,95758,2,0,B|184:96,1,60
60,96,96105,1,0,0:0:0
104,264,96452,2,0,B|184:272,1,60
280,244,96799,1,0,0:0:0
380,312,96972,2,0,B|404:272,4,30
364,192,97493,1,0,0:0:0
256,192,97839,12,0,100440,0:0:0
60,112,100614,6,0,B|72:176|144:204,1,120
236,136,101134,1,0,0:0:0
328,60,101308,2,0,B|400:104|400:176,1,120
328,248,101828,1,0,0:0:0
168,288,102175,1,0,0:0:0
88,204,102348,2,0,B|168:168,1,60
224,92,102695,2,0,B|180:84,2,30
336,140,103042,2,0,B|288:164,2,30
380,252,103388,6,0,B|340:312|256:320,1,120
208,220,103909,1,0,0:0:0
92,252,104082,2,0,B|136:176|96:120,1,120
204,68,104602,1,0,0:0:0
420,172,104949,1,0,0:0:0
320,240,105123,2,0,B|400:252,1,60
292,332,105469,2,0,B|244:328,2,30
180,292,105816,2,0,B|180:248,2,30
76,236,106163,6,0,B|68:152|132:112,1,120
204,48,106683,1,0,0:0:0
204,168,106857,2,0,B|264:112|332:116,1,120
416,172,107377,1,0,0:0:0
360,280,107550,2,0,B|296:236|236:276,1,120
128,296,108071,1,0,0:0:0
180,188,108244,2,0,B|224:184,2,30
104,92,108591,2,0,B|116:48,2,30
224,80,108938,6,0,B|412:80,1,180
340,180,109631,2,0,B|140:180,1,180
256,252,110325,2,0,B|256:324,1,60
140,276,110672,2,0,B|72:308,1,60
100,180,111019,2,0,B|72:148,2,30
152,72,111365,1,0,0:0:0
152,72,111539,1,0,0:0:0
256,192,111712,12,0,113620,0:0:0
