osu file format v14

[General]
AudioFilename: ~SUWAKI.mp3
AudioLeadIn: 0
PreviewTime: 104032
Countdown: 0
SampleSet: Soft
StackLeniency: 0.7
Mode: 3
LetterboxInBreaks: 0
SpecialStyle: 0
WidescreenStoryboard: 0

[Editor]
DistanceSpacing: 1.2
BeatDivisor: 4
GridSize: 8
TimelineZoom: 1

[Metadata]
Title:Shungiku
TitleUnicode:春菊
Artist:SUWAKI
ArtistUnicode:SUWAKI
Creator:Marirose
Version:Normal
Source:Dynamix
Tags:Chun Ju K-shoot MANIA
BeatmapID:566929
BeatmapSetID:246059

[Difficulty]
HPDrainRate:7
CircleSize:4
OverallDifficulty:7
ApproachRate:5
SliderMultiplier:1.4
SliderTickRate:1

[Events]
//Background and Video events
0,0,"BG.jpg",0,0
//Break Periods
//Storyboard Layer 0 (Background)
//Storyboard Layer 1 (Fail)
//Storyboard Layer 2 (Pass)
//Storyboard Layer 3 (Foreground)
//Storyboard Sound Samples

[TimingPoints]
2980,350.877192982456,4,2,1,30,1,0
25436,-100,4,2,1,30,0,1
42979,-100,4,2,1,30,0,0
43681,-100,4,2,1,30,0,1
44383,-100,4,2,1,30,0,0
45085,-100,4,2,1,30,0,1
47892,-100,4,2,1,30,0,0
59120,-100,4,2,1,30,0,1
59822,-100,4,2,1,30,0,0
60523,-100,4,2,1,30,0,1
61225,-100,4,2,1,30,0,0
61927,-100,4,2,1,30,0,1
62629,-100,4,2,1,30,0,0
63330,-100,4,2,1,30,0,1
64383,-100,4,2,1,30,0,0
64734,-100,4,2,1,30,0,1
65436,-100,4,2,1,30,0,0
66137,-100,4,2,1,30,0,1
66839,-100,4,2,1,30,0,0
67541,-100,4,2,1,30,0,1
68594,-100,4,2,1,30,0,0
68944,-100,4,2,1,30,0,1
69997,-100,4,2,1,30,0,0
70348,-100,4,2,1,30,0,1
81576,-100,4,2,1,30,0,0
104032,-100,4,2,1,30,0,1
126488,-100,4,2,1,30,0,0

[HitObjects]
320,192,3330,5,8,0:0:0:0:
320,192,4032,1,8,0:0:0:0:
320,192,4734,1,8,0:0:0:0:
320,192,5436,1,8,0:0:0:0:
192,192,6137,1,8,0:0:0:0:
192,192,6839,1,8,0:0:0:0:
192,192,7541,1,8,0:0:0:0:
192,192,8243,1,8,0:0:0:0:
64,192,8944,1,8,0:0:0:0:
64,192,9646,1,8,0:0:0:0:
64,192,10348,1,8,0:0:0:0:
64,192,11050,1,8,0:0:0:0:
448,192,11751,1,8,0:0:0:0:
448,192,12453,1,8,0:0:0:0:
448,192,13155,1,8,0:0:0:0:
448,192,13857,1,8,0:0:0:0:
64,192,14208,1,0,0:0:0:0:
320,192,14558,1,8,0:0:0:0:
64,192,14909,1,0,0:0:0:0:
320,192,15260,1,8,0:0:0:0:
64,192,15611,1,0,0:0:0:0:
320,192,15962,1,8,0:0:0:0:
64,192,16313,1,0,0:0:0:0:
320,192,16664,1,8,0:0:0:0:
192,192,17015,1,0,0:0:0:0:
448,192,17365,1,8,0:0:0:0:
192,192,17716,1,0,0:0:0:0:
448,192,18067,1,8,0:0:0:0:
192,192,18418,1,0,0:0:0:0:
448,192,18769,1,8,0:0:0:0:
192,192,19120,1,0,0:0:0:0:
448,192,19471,1,8,0:0:0:0:
192,192,19822,1,0,0:0:0:0:
320,192,20172,1,8,0:0:0:0:
64,192,20523,1,0,0:0:0:0:
448,192,20874,1,8,0:0:0:0:
320,192,21225,1,0,0:0:0:0:
64,192,21576,1,8,0:0:0:0:
192,192,21927,1,0,0:0:0:0:
320,192,22278,1,8,0:0:0:0:
448,192,22629,1,0,0:0:0:0:
320,192,22979,1,8,0:0:0:0:
192,192,23330,1,0,0:0:0:0:
64,192,23681,1,8,0:0:0:0:
320,192,24032,128,0,25436:0:0:0:0:
192,192,24734,128,0,25436:0:0:0:0:
448,192,25436,1,4,0:0:0:0:
64,192,25436,1,2,0:0:0:0:
320,192,25787,1,8,0:0:0:0:
64,192,26137,1,2,0:0:0:0:
320,192,26488,1,8,0:0:0:0:
64,192,26839,1,2,0:0:0:0:
320,192,27190,1,8,0:0:0:0:
64,192,27541,1,2,0:0:0:0:
192,192,27892,1,8,0:0:0:0:
320,192,28067,1,2,0:0:0:0:
448,192,28243,1,2,0:0:0:0:
192,192,28594,1,8,0:0:0:0:
320,192,28944,1,2,0:0:0:0:
192,192,29295,1,8,0:0:0:0:
64,192,29646,1,2,0:0:0:0:
320,192,29997,1,8,0:0:0:0:
192,192,30172,1,2,0:0:0:0:
448,192,30348,1,2,0:0:0:0:
64,192,30523,1,2,0:0:0:0:
320,192,30699,1,8,0:0:0:0:
192,192,31050,1,2,0:0:0:0:
448,192,31401,1,8,0:0:0:0:
192,192,31751,1,2,0:0:0:0:
448,192,32102,1,8,0:0:0:0:
192,192,32453,1,2,0:0:0:0:
448,192,32804,1,8,0:0:0:0:
320,192,33155,1,2,0:0:0:0:
192,192,33506,1,8,0:0:0:0:
320,192,33681,1,2,0:0:0:0:
64,192,33857,1,2,0:0:0:0:
448,192,34208,1,8,0:0:0:0:
192,192,34558,1,2,0:0:0:0:
448,192,34909,1,8,0:0:0:0:
320,192,35260,1,2,0:0:0:0:
64,192,35436,1,2,0:0:0:0:
448,192,35611,1,8,0:0:0:0:
192,192,35787,1,2,0:0:0:0:
64,192,35962,1,2,0:0:0:0:
64,192,36137,1,2,0:0:0:0:
320,192,36313,1,8,0:0:0:0:
448,192,36488,1,2,0:0:0:0:
192,192,36664,1,2,0:0:0:0:
320,192,37015,1,8,0:0:0:0:
192,192,37365,1,2,0:0:0:0:
320,192,37716,1,8,0:0:0:0:
192,192,38067,1,2,0:0:0:0:
320,192,38418,1,8,0:0:0:0:
64,192,38769,1,2,0:0:0:0:
192,192,39120,1,8,0:0:0:0:
320,192,39295,1,2,0:0:0:0:
448,192,39471,1,2,0:0:0:0:
192,192,39822,1,8,0:0:0:0:
320,192,40172,1,2,0:0:0:0:
192,192,40523,1,8,0:0:0:0:
448,192,40874,1,2,0:0:0:0:
320,192,41225,1,8,0:0:0:0:
192,192,41401,1,2,0:0:0:0:
448,192,41576,1,2,0:0:0:0:
64,192,41751,1,2,0:0:0:0:
320,192,41927,1,8,0:0:0:0:
448,192,42278,1,2,0:0:0:0:
192,192,42629,1,8,0:0:0:0:
320,192,42979,128,0,43681:0:0:0:0:
192,192,43681,1,2,0:0:0:0:
448,192,44032,1,8,0:0:0:0:
64,192,44383,128,0,45085:0:0:0:0:
320,192,45085,1,2,0:0:0:0:
192,192,45436,1,8,0:0:0:0:
448,192,45787,1,2,0:0:0:0:
64,192,46137,1,8,0:0:0:0:
192,192,46488,128,2,47190:0:0:0:0:
320,192,47190,128,2,47892:0:0:0:0:
448,192,47541,128,8,47892:0:0:0:0:
64,192,47892,5,2,0:0:0:0:
192,192,47892,1,4,0:0:0:0:
320,192,48243,1,8,0:0:0:0:
64,192,48418,1,2,0:0:0:0:
64,192,48769,1,2,0:0:0:0:
448,192,48944,1,8,0:0:0:0:
64,192,49295,1,2,0:0:0:0:
320,192,49646,1,8,0:0:0:0:
64,192,49822,1,2,0:0:0:0:
64,192,50172,1,2,0:0:0:0:
448,192,50348,1,8,0:0:0:0:
192,192,50699,1,2,0:0:0:0:
320,192,51050,1,8,0:0:0:0:
192,192,51225,1,2,0:0:0:0:
192,192,51576,1,2,0:0:0:0:
448,192,51751,1,8,0:0:0:0:
192,192,52102,1,2,0:0:0:0:
320,192,52453,1,8,0:0:0:0:
192,192,52629,1,2,0:0:0:0:
192,192,53155,1,10,0:0:0:0:
320,192,53330,1,2,0:0:0:0:
448,192,53506,1,2,0:0:0:0:
64,192,53857,1,10,0:0:0:0:
448,192,54208,1,2,0:0:0:0:
64,192,54558,1,10,0:0:0:0:
320,192,54909,1,2,0:0:0:0:
192,192,55260,1,10,0:0:0:0:
320,192,55611,1,2,0:0:0:0:
64,192,55962,1,10,0:0:0:0:
448,192,56313,1,2,0:0:0:0:
192,192,56664,1,10,0:0:0:0:
448,192,57015,1,2,0:0:0:0:
320,192,57365,1,10,0:0:0:0:
192,192,57716,1,2,0:0:0:0:
64,192,58067,1,10,0:0:0:0:
320,192,58418,1,2,0:0:0:0:
192,192,58594,1,2,0:0:0:0:
320,192,58769,1,10,0:0:0:0:
192,192,58944,1,2,0:0:0:0:
64,192,59120,128,2,59822:0:0:0:0:
448,192,59120,1,4,0:0:0:0:
320,192,59822,128,2,60172:0:0:0:0:
448,192,60172,128,8,60523:0:0:0:0:
64,192,60523,128,2,61225:0:0:0:0:
320,192,61225,128,2,61576:0:0:0:0:
192,192,61576,128,8,61927:0:0:0:0:
448,192,61927,128,2,62278:0:0:0:0:
64,192,62278,1,8,0:0:0:0:
320,192,62629,128,2,62979:0:0:0:0:
64,192,62979,128,8,63330:0:0:0:0:
448,192,63330,128,2,63681:0:0:0:0:
320,192,63681,128,8,64032:0:0:0:0:
64,192,64032,128,2,64383:0:0:0:0:
448,192,64383,128,8,64734:0:0:0:0:
64,192,64734,128,2,65436:0:0:0:0:
320,192,65436,128,2,65787:0:0:0:0:
448,192,65787,128,8,66137:0:0:0:0:
64,192,66137,128,2,66839:0:0:0:0:
448,192,66839,128,2,67190:0:0:0:0:
320,192,67190,128,8,67541:0:0:0:0:
64,192,67541,128,2,67892:0:0:0:0:
448,192,67892,1,8,0:0:0:0:
320,192,68243,128,2,68594:0:0:0:0:
448,192,68594,128,8,68944:0:0:0:0:
192,192,68944,128,2,69295:0:0:0:0:
320,192,69295,128,8,69646:0:0:0:0:
64,192,69646,128,2,69997:0:0:0:0:
320,192,69997,128,8,70348:0:0:0:0:
64,192,70348,1,2,0:0:0:0:
448,192,70348,1,4,0:0:0:0:
448,192,70699,1,8,0:0:0:0:
192,192,71050,1,2,0:0:0:0:
448,192,71401,1,8,0:0:0:0:
64,192,71751,1,2,0:0:0:0:
448,192,72102,1,8,0:0:0:0:
192,192,72453,1,2,0:0:0:0:
448,192,72804,1,8,0:0:0:0:
192,192,72979,1,2,0:0:0:0:
64,192,73155,1,2,0:0:0:0:
320,192,73506,1,8,0:0:0:0:
192,192,73857,1,2,0:0:0:0:
320,192,74208,1,8,0:0:0:0:
64,192,74558,1,2,0:0:0:0:
320,192,74909,1,8,0:0:0:0:
192,192,75260,1,2,0:0:0:0:
64,192,75436,1,2,0:0:0:0:
320,192,75611,1,8,0:0:0:0:
192,192,75787,1,2,0:0:0:0:
448,192,75962,1,4,0:0:0:0:
64,192,75962,1,2,0:0:0:0:
64,192,76313,1,8,0:0:0:0:
320,192,76664,1,2,0:0:0:0:
64,192,77015,1,8,0:0:0:0:
320,192,77365,1,4,0:0:0:0:
448,192,77365,1,2,0:0:0:0:
320,192,77716,1,8,0:0:0:0:
192,192,78067,1,2,0:0:0:0:
320,192,78418,1,8,0:0:0:0:
448,192,78594,1,2,0:0:0:0:
192,192,78769,1,2,0:0:0:0:
64,192,78769,1,4,0:0:0:0:
192,192,79120,1,8,0:0:0:0:
448,192,79471,1,4,0:0:0:0:
320,192,79471,1,2,0:0:0:0:
320,192,79822,1,8,0:0:0:0:
448,192,79997,1,2,0:0:0:0:
64,192,80172,1,4,0:0:0:0:
192,192,80172,1,2,0:0:0:0:
320,192,80348,1,2,0:0:0:0:
64,192,80523,1,8,0:0:0:0:
192,192,80699,1,2,0:0:0:0:
320,192,80874,128,2,81576:0:0:0:0:
448,192,80874,1,4,0:0:0:0:
64,192,81576,128,2,82979:0:0:0:0:
192,192,81576,1,4,0:0:0:0:
448,192,82979,128,0,84383:0:0:0:0:
192,192,84383,128,0,85787:0:0:0:0:
320,192,85787,128,0,87190:0:0:0:0:
64,192,87190,128,0,88594:0:0:0:0:
320,192,88594,128,0,89997:0:0:0:0:
448,192,89997,128,0,91401:0:0:0:0:
192,192,91401,128,0,92102:0:0:0:0:
64,192,92102,128,0,92804:0:0:0:0:
320,192,92804,1,2,0:0:0:0:
448,192,93155,1,8,0:0:0:0:
64,192,93506,128,0,93857:0:0:0:0:
192,192,93857,128,0,94208:0:0:0:0:
320,192,94208,1,2,0:0:0:0:
448,192,94558,1,8,0:0:0:0:
192,192,94909,128,0,95260:0:0:0:0:
320,192,95260,128,0,95611:0:0:0:0:
448,192,95611,1,2,0:0:0:0:
192,192,95962,1,8,0:0:0:0:
448,192,96313,128,0,96664:0:0:0:0:
320,192,96664,128,0,97015:0:0:0:0:
192,192,97015,1,2,0:0:0:0:
320,192,97365,1,8,0:0:0:0:
64,192,97716,128,0,98067:0:0:0:0:
192,192,98067,128,0,98418:0:0:0:0:
320,192,98418,1,2,0:0:0:0:
64,192,98769,128,8,99120:0:0:0:0:
192,192,99120,1,2,0:0:0:0:
192,192,99471,128,8,99822:0:0:0:0:
320,192,99822,1,2,0:0:0:0:
320,192,100172,128,8,100523:0:0:0:0:
448,192,100523,1,2,0:0:0:0:
448,192,100874,128,8,101225:0:0:0:0:
64,192,101225,128,2,101576:0:0:0:0:
192,192,101576,128,10,101927:0:0:0:0:
320,192,101927,128,2,102278:0:0:0:0:
448,192,102278,128,10,102629:0:0:0:0:
64,192,102629,128,2,104032:0:0:0:0:
320,192,103330,128,2,104032:0:0:0:0:
448,192,104032,1,4,0:0:0:0:
192,192,104032,1,2,0:0:0:0:
320,192,104208,1,0,0:0:0:0:
192,192,104383,1,8,0:0:0:0:
64,192,104558,1,0,0:0:0:0:
448,192,104734,1,2,0:0:0:0:
192,192,105085,1,8,0:0:0:0:
320,192,105260,1,0,0:0:0:0:
448,192,105436,1,2,0:0:0:0:
320,192,105787,1,8,0:0:0:0:
192,192,106137,1,2,0:0:0:0:
64,192,106488,1,8,0:0:0:0:
320,192,106839,1,2,0:0:0:0:
320,192,107190,1,8,0:0:0:0:
64,192,107365,1,0,0:0:0:0:
448,192,107541,1,2,0:0:0:0:
448,192,107716,1,0,0:0:0:0:
64,192,107892,1,8,0:0:0:0:
192,192,108067,1,0,0:0:0:0:
320,192,108243,1,2,0:0:0:0:
320,192,108594,1,8,0:0:0:0:
192,192,108769,1,0,0:0:0:0:
448,192,108944,1,2,0:0:0:0:
192,192,109120,1,2,0:0:0:0:
320,192,109295,1,8,0:0:0:0:
448,192,109471,1,2,0:0:0:0:
64,192,109646,1,2,0:0:0:0:
192,192,109822,1,0,0:0:0:0:
320,192,109997,1,8,0:0:0:0:
448,192,110172,1,0,0:0:0:0:
192,192,110348,1,2,0:0:0:0:
320,192,110699,1,8,0:0:0:0:
192,192,110874,1,0,0:0:0:0:
64,192,111050,1,2,0:0:0:0:
448,192,111401,1,8,0:0:0:0:
192,192,111751,1,2,0:0:0:0:
320,192,111927,1,0,0:0:0:0:
448,192,112102,1,8,0:0:0:0:
192,192,112453,1,2,0:0:0:0:
192,192,112979,1,0,0:0:0:0:
320,192,113155,1,2,0:0:0:0:
448,192,113506,1,8,0:0:0:0:
64,192,113857,1,2,0:0:0:0:
320,192,114208,1,8,0:0:0:0:
64,192,114558,1,2,0:0:0:0:
320,192,114734,1,2,0:0:0:0:
192,192,114909,1,8,0:0:0:0:
320,192,115085,1,2,0:0:0:0:
64,192,115260,1,4,0:0:0:0:
448,192,115260,1,2,0:0:0:0:
192,192,115436,1,0,0:0:0:0:
320,192,115611,1,8,0:0:0:0:
448,192,115787,1,0,0:0:0:0:
192,192,115962,1,2,0:0:0:0:
192,192,116313,1,8,0:0:0:0:
320,192,116488,1,0,0:0:0:0:
448,192,116664,128,2,117015:0:0:0:0:
320,192,117015,1,8,0:0:0:0:
192,192,117190,1,0,0:0:0:0:
64,192,117365,1,2,0:0:0:0:
320,192,117541,1,0,0:0:0:0:
64,192,117716,1,8,0:0:0:0:
192,192,117892,1,2,0:0:0:0:
320,192,118067,1,2,0:0:0:0:
320,192,118418,1,8,0:0:0:0:
448,192,118594,1,0,0:0:0:0:
192,192,118769,1,2,0:0:0:0:
192,192,118944,1,0,0:0:0:0:
320,192,119120,1,8,0:0:0:0:
64,192,119295,1,0,0:0:0:0:
448,192,119471,1,2,0:0:0:0:
192,192,119646,1,0,0:0:0:0:
448,192,119822,1,8,0:0:0:0:
64,192,119997,1,0,0:0:0:0:
320,192,120172,1,2,0:0:0:0:
320,192,120348,1,2,0:0:0:0:
192,192,120523,1,8,0:0:0:0:
192,192,120699,1,2,0:0:0:0:
448,192,120874,1,2,0:0:0:0:
320,192,120874,1,4,0:0:0:0:
448,192,121225,1,8,0:0:0:0:
192,192,121401,1,2,0:0:0:0:
64,192,121576,1,2,0:0:0:0:
320,192,121751,1,2,0:0:0:0:
192,192,121927,1,8,0:0:0:0:
448,192,122102,1,2,0:0:0:0:
64,192,122278,1,4,0:0:0:0:
192,192,122278,128,2,122629:0:0:0:0:
320,192,122629,1,8,0:0:0:0:
448,192,122804,1,2,0:0:0:0:
448,192,122979,1,2,0:0:0:0:
192,192,123155,1,2,0:0:0:0:
448,192,123330,1,8,0:0:0:0:
192,192,123506,1,2,0:0:0:0:
320,192,123681,1,2,0:0:0:0:
448,192,123681,1,4,0:0:0:0:
320,192,124208,1,2,0:0:0:0:
64,192,124383,1,4,0:0:0:0:
192,192,124383,1,2,0:0:0:0:
64,192,124734,1,8,0:0:0:0:
192,192,124909,1,2,0:0:0:0:
448,192,125085,1,4,0:0:0:0:
320,192,125085,1,2,0:0:0:0:
64,192,125260,1,2,0:0:0:0:
320,192,125436,1,12,0:0:0:0:
192,192,125611,1,2,0:0:0:0:
448,192,125787,128,2,126137:0:0:0:0:
64,192,125787,1,4,0:0:0:0:
320,192,126137,1,8,0:0:0:0:
448,192,126488,1,2,0:0:0:0:
64,192,126488,1,4,0:0:0:0:
