osu file format v5

[General]
AudioFilename: Hop Skip Jump.mp3
AudioLeadIn: 1004
PreviewTime: 45840
Countdown: 1
SampleSet: Normal
StackLeniency: 0.7
Mode: 0
LetterboxInBreaks: 1
EditorBookmarks: 1054

[Metadata]
Title:Hop! Skip! Jump! (TV Size)
Artist:SUWA Hideo
Creator:Zerostarry
Version:Normal
Source:Bomberman Jetterz
Tags:

[Difficulty]
HPDrainRate:6
CircleSize:5
OverallDifficulty:6
SliderMultiplier:1.4
SliderTickRate:2

[Events]
//Background and Video events
1,0,"bomb.avi"
0,0,"untitled.JPG"
//Break Periods
//Storyboard Layer 0 (Background)
//Storyboard Layer 1 (Failing)
//Storyboard Layer 2 (Passing)
//Storyboard Layer 3 (Foreground)
//Storyboard Sound Samples
//Background Colour Transformations
3,100,163,162,255

[TimingPoints]
1055,428.571428571429,4,1,0,100,1
17768,428.571428571429,4,2,0,100,0
31375,428.571428571429,4,1,0,100,0
38339,428.571428571429,4,1,0,100,0
39412,-100,4,2,0,100,0
40269,-100,4,1,0,100,0
40911,428.571428571429,4,2,0,100,0
41983,-100,4,1,0,100,0

[Colours]
Combo1 : 255,0,128
Combo2 : 255,255,255

[HitObjects]
256,48,1054,1,4
56,192,1483,6,0,B|232:192,1,140
256,192,2126,1,0
256,192,2340,1,2
256,192,2769,1,2
256,256,2983,6,0,B|396:256,1,140
456,256,3626,1,0
456,256,3840,1,0
456,256,4055,1,2
456,256,4483,1,2
456,128,4912,6,0,B|456:56,1,70
392,56,5340,2,0,B|320:56,1,70
320,120,5769,1,0
256,120,5983,1,0
256,184,6197,1,0
256,184,6412,2,0,B|256:336,2,140
256,120,7483,5,4
184,232,7912,1,4
328,232,8340,1,4
456,232,8769,5,2
456,232,8983,1,2
256,272,9840,5,2
304,232,10055,1,2
256,192,10269,1,2
208,152,10483,1,2
256,112,10697,1,2
384,128,11126,6,4,B|384:296,1,140
256,192,11769,12,0,14126
128,128,14555,6,4,B|128:296,1,140
256,192,15197,12,0,17554
256,328,17983,5,2
64,80,18840,5,0
128,80,19055,1,0
192,80,19269,1,0
192,144,19483,2,2,B|352:144,1,140
332,144,20126,1,2
456,144,20555,5,0
456,208,20769,1,0
456,272,20983,1,0
456,272,21197,2,0,B|304:272,3,140
256,296,22697,1,0
256,232,22912,1,0
192,232,23126,1,0
128,232,23340,1,0
128,168,23555,2,8,B|128:24,3,140
128,28,25055,1,2
304,88,25697,5,0
368,88,25912,1,0
432,88,26126,1,0
432,152,26340,2,2,B|432:232,3,70
432,344,27412,5,0
432,280,27626,1,0
368,280,27840,1,0
304,280,28055,2,0,B|144:280,2,140
304,216,29126,1,0
240,216,29340,1,0
176,216,29555,1,0
176,152,29769,1,0
112,152,29983,1,0
112,88,30197,1,0
112,24,30412,2,8,B|252:24,2,140
256,88,31483,5,0
176,192,31912,1,0
336,192,32340,1,0
256,288,32769,1,8
256,288,33197,5,0
336,192,33626,1,0
176,192,34055,1,0
256,96,34483,1,8
256,96,34912,1,8
384,96,35340,5,0
448,96,35555,1,0
448,160,35769,1,0
448,224,35983,1,0
448,288,36197,1,0
384,288,36412,1,0
320,288,36626,2,2,B|152:288,1,140
112,288,37269,1,2
112,40,38555,5,0
112,104,38769,1,0
176,104,38983,2,0,B|336:104,1,140
376,104,39626,1,0
376,168,39840,2,0,B|224:168,1,140
232,232,40483,1,0
296,232,40697,2,0,B|472:232,1,140
440,296,41340,1,0
376,296,41555,2,0,B|224:296,1,140
176,296,42197,5,0
112,296,42412,2,2,B|112:144,1,140
48,160,43055,1,6
48,96,43269,1,6
112,96,43483,1,6
176,96,43697,1,6
256,192,44126,12,0,45412
64,160,45840,6,2,B|136:112|208:168,1,140
192,224,46483,1,0
192,288,46697,1,0
256,288,46912,2,2,B|328:336|400:280,1,140
392,224,47555,6,2,B|440:152|384:80,1,140
328,96,48197,1,0
264,96,48412,1,0
200,96,48626,2,2,B|141:50|69:98,1,140
72,224,49483,5,0
136,224,49697,1,0
176,272,49912,1,0
216,224,50126,1,0
280,224,50340,1,0
320,272,50555,1,0
360,224,50769,1,0
424,224,50983,1,0
424,224,51412,1,8
424,224,51626,1,8
256,24,52055,6,2,B|256:168,3,140
256,164,53555,1,2
128,160,53983,5,8
128,160,54197,1,8
128,224,54412,6,0,B|40:224,4,70
192,224,55483,5,0
192,224,55697,1,8
192,224,55912,1,8
320,224,56340,6,2,B|392:272|464:216,1,140
448,160,56983,1,0
448,96,57197,2,2,B|389:50|317:98,1,140
320,160,57840,2,2,B|160:160,1,140
180,160,58483,1,8
180,160,58697,1,8
256,256,59126,5,2
256,256,59340,1,2
320,256,59555,6,0,B|408:256,1,70
392,192,59983,1,0
456,192,60197,2,0,B|456:120,1,70
456,56,60626,2,2,B|296:56,1,140
320,120,61269,6,0,B|240:120,1,70
184,120,61697,1,0
184,184,61912,2,0,B|104:184,1,70
48,184,62340,2,2,B|48:288,2,70
80,88,63197,5,0
144,88,63411,1,0
184,40,63626,1,0
224,88,63840,1,0
288,88,64054,1,0
328,40,64269,1,0
368,88,64483,1,0
432,88,64697,1,0
432,88,65126,1,8
432,88,65340,1,8
256,360,65769,6,2,B|256:216,3,140
256,220,67269,1,2
128,104,68126,5,0
192,104,68340,1,0
256,104,68555,1,0
320,104,68769,1,0
384,104,68983,1,0
256,192,69412,6,2,B|256:344,1,140
256,192,70055,12,0,72412
184,64,72840,6,2,B|336:64,1,140
256,192,73483,12,0,75840
256,192,76269,5,2
256,192,76697,1,2
256,128,76912,5,2
200,160,77126,1,2
200,224,77340,1,2
256,256,77555,1,2
312,232,77769,1,2
312,168,77983,1,2
256,128,78197,1,2
256,192,78412,1,6
