osu file format v5

[General]
AudioFilename: bomber.mp3
AudioLeadIn: 0
PreviewTime: 41307
Countdown: 0
SampleSet: Normal
StackLeniency: 0.7
Mode: 0
LetterboxInBreaks: 1

[Metadata]
Title:Boku wa Gakeppuchi (TV Size)
Artist:SUWA Hideo
Creator:Zerostarry
Version:Intense
Source:Bomberman Jetterz
Tags:BEAUTIFUL MALE FAIYAA

[Difficulty]
HPDrainRate:7
CircleSize:5
OverallDifficulty:7
SliderMultiplier:1.7
SliderTickRate:2

[Events]
//Background and Video events
0,0,"bomberman.PNG"
1,-200,"bomber.avi"
//Break Periods
//Storyboard Layer 0 (Background)
//Storyboard Layer 1 (Failing)
//Storyboard Layer 2 (Passing)
//Storyboard Layer 3 (Foreground)
//Storyboard Sound Samples
//Background Colour Transformations
3,100,163,162,255

[TimingPoints]
4520,399.996711096301,4,1,0,50,1

[Colours]
Combo1 : 255,128,192
Combo2 : 255,255,255

[HitObjects]
256,192,2520,12,2,3720
104,80,4519,5,2
408,80,4919,1,2
256,160,5319,5,0
336,168,5519,6,2,B|312:248|232:240|176:224,1,170
232,304,6119,1,0
312,304,6319,1,0
392,304,6519,2,2,B|504:304|472:176,2,170
144,56,7719,5,2
144,328,8119,1,2
224,192,8519,5,0
312,192,8719,6,2,B|400:232|480:192,1,170
480,104,9319,1,0
432,32,9519,1,0
392,104,9719,1,0
304,104,9919,2,0,B|256:64|192:152|128:88,2,170
408,304,10919,5,2
104,304,11319,1,2
256,224,11719,5,0
256,136,11919,6,2,B|296:160|368:128,1,85
416,104,12319,1,0
344,64,12519,2,2,B|296:40|240:72,1,85
176,64,12919,2,2,B|88:136|192:224,2,170
368,56,14119,5,2
368,328,14519,1,2
288,192,14919,5,0
200,192,15119,6,2,B|176:296|48:256,1,170
72,176,15719,1,0
72,88,15919,1,0
152,88,16119,2,0,B|232:16|336:112,2,170
152,176,17119,5,0
192,248,17319,1,0
232,176,17519,1,0
280,248,17719,2,0,B|368:248|368:184,1,85
424,168,18119,1,0
408,80,18319,2,0,B|352:40|296:64,1,85
256,96,18719,1,0
256,96,18919,1,0
88,96,19319,5,2
32,160,19519,1,0
88,216,19719,1,0
88,296,19919,1,2
256,320,20519,6,0,B|312:320|344:264,1,85
392,224,20919,1,0
392,224,21119,1,0
392,224,21319,2,0,B|464:224|472:160,1,85
464,104,21719,1,0
464,104,21919,1,0
464,104,22119,2,0,B|392:112|376:72,1,85
256,56,22719,5,2
256,56,22919,1,2
96,120,23319,5,0
56,192,23519,2,0,B|40:240|40:296|72:312|144:320,1,170
184,256,24119,1,0
240,320,24319,1,0
296,256,24519,1,0
352,320,24719,2,0,B|440:320|456:232|448:192,1,170
448,120,25319,1,0
256,120,25719,5,2
208,48,25919,1,0
160,120,26119,1,0
72,120,26319,1,2
72,240,26919,6,0,B|72:328|208:344,1,170
272,320,27519,1,0
344,280,27719,1,0
344,192,27919,1,0
256,192,28119,2,0,B|256:104,1,85
256,24,28519,1,0
256,24,28719,1,0
184,128,29119,5,2
328,128,29319,1,2
464,224,29719,5,0
432,304,29919,1,0
352,328,30119,1,0
264,336,30319,2,0,B|152:304|120:216,1,170
56,192,30919,1,0
56,104,31119,1,0
256,40,31519,6,0,B|360:40|440:120,1,170
416,176,32119,1,0
328,176,32319,2,0,B|240:224|136:160,1,170
56,304,33119,5,0
136,336,33319,2,0,B|256:336|320:264,1,170
376,288,33919,1,0
464,288,34119,1,0
464,200,34319,1,0
256,192,34519,12,0,36119
80,64,36319,5,0
160,80,36519,1,0
232,128,36719,2,0,B|320:168|424:112,1,170
424,208,37319,1,0
448,288,37519,2,0,B|360:320|264:288,1,170
200,256,38119,1,0
136,192,38319,1,0
112,112,38519,1,0
160,40,38719,1,0
416,40,39319,6,0,B|472:112|416:216,1,170
368,136,39919,1,0
304,192,40119,1,0
240,136,40319,1,0
176,192,40519,1,0
112,136,40719,1,0
48,192,40919,1,0
112,248,41119,1,0
112,248,41319,1,0
256,56,42519,5,6
144,248,42919,1,6
368,248,43319,1,6
448,248,43519,5,8
448,248,43719,1,8
448,160,43919,6,0,B|368:112|264:168,1,170
200,160,44519,1,0
112,160,44719,1,0
24,160,44919,1,0
24,328,45319,1,0
24,240,45519,1,0
168,328,45919,5,2
256,328,46119,1,2
336,296,46319,1,2
336,208,46519,2,2,B|312:168|256:168,1,85
96,168,47119,1,2
256,56,47519,6,0,B|296:24|344:64,1,85
408,96,47919,1,0
448,168,48119,1,0
440,248,48319,1,0
256,328,48919,5,6
368,136,49319,1,6
144,136,49719,1,6
64,136,49919,5,8
64,136,50119,1,8
64,216,50319,6,0,B|96:320|200:280,1,170
256,224,50919,1,0
320,280,51119,1,0
408,280,51319,1,0
408,192,51519,1,0
256,104,51919,6,0,B|160:56|72:112,1,170
96,184,52519,2,2,B|178:237|272:184,3,170
424,192,53919,5,0
368,120,54119,1,0
424,56,54319,1,0
368,120,54519,1,0
312,56,54719,1,0
368,120,54919,1,0
200,120,55319,6,0,B|104:120|88:240,1,170
176,224,55919,2,0,B|280:224|272:352,1,170
360,336,56519,2,0,B|464:336|480:240|464:192,3,170
472,144,57919,5,0
424,72,58119,1,0
376,144,58319,1,0
376,232,58519,2,0,B|280:232|264:120,1,170
256,40,59119,2,0,B|160:40|144:184,1,170
152,240,59719,1,0
432,192,60319,5,0
344,192,60519,1,0
256,192,60719,1,0
168,192,60919,1,0
80,192,61119,1,0
256,192,61519,2,2,B|256:368,1,170
336,328,62119,5,8
336,328,62219,1,0
336,328,62319,1,0
176,328,62519,1,8
176,328,62619,1,0
176,328,62719,1,0
256,176,63119,5,8
256,176,63219,1,0
256,176,63319,1,0
200,112,63519,1,0
112,120,63719,1,0
40,72,63919,1,0
40,160,64119,2,0,B|40:336,2,170
176,56,65319,5,8
176,56,65419,1,0
176,56,65519,1,0
336,56,65719,1,8
336,56,65819,1,0
336,56,65919,1,0
256,208,66319,5,8
256,208,66419,1,0
256,208,66519,1,0
192,264,66719,5,0
256,320,66919,1,0
320,264,67119,1,0
320,176,67319,2,2,B|304:128|256:112|200:128|184:168|192:192,2,170
120,112,68519,5,8
120,112,68619,1,0
120,112,68719,1,0
120,272,68919,1,8
120,272,69019,1,0
120,272,69119,1,0
272,192,69519,5,8
272,192,69619,1,0
272,192,69719,1,0
360,192,69919,5,0
416,256,70119,2,0,B|496:208|432:104,2,170
392,112,71719,5,8
392,112,71819,1,0
392,112,71919,1,0
392,272,72119,1,8
392,272,72219,1,0
392,272,72319,1,0
240,192,72719,5,8
240,192,72819,1,0
240,192,72919,1,0
184,256,73119,5,0
128,192,73319,1,0
72,256,73519,1,0
128,320,73719,1,0
128,320,73919,1,2
208,320,74119,5,2
296,320,74319,1,2
376,320,74519,1,8
440,264,74719,1,0
392,192,74919,1,2
448,128,75119,1,2
392,56,75319,1,8
304,56,75519,1,2
216,56,75719,1,2
128,56,75919,1,2
72,120,76119,1,8
256,312,77119,5,2
168,168,77319,1,2
336,168,77519,1,2
