osu file format v9

[General]
AudioFilename: 12 - EMPRESS OST - SUPER STAR MITSURU - ALL MY TURN -Kono turn ni oreno subetewo kakeru-.mp3
AudioLeadIn: 0
PreviewTime: 15885
Countdown: 0
SampleSet: Normal
StackLeniency: 1
Mode: 1
LetterboxInBreaks: 0

[Editor]
Bookmarks: 73061
DistanceSpacing: 1
BeatDivisor: 4
GridSize: 8

[Metadata]
Title:All My Turn
Artist:SUPER STAR ~MITSURU~
Creator:LesTrucsRose
Version:Taiko
Source:Beatmania IIDX
Tags:Mustaash 16 empress game techno Kono turn ni oreno subetewo kakeru

[Difficulty]
HPDrainRate:5
CircleSize:5
OverallDifficulty:5
ApproachRate:5
SliderMultiplier:1.4
SliderTickRate:1

[Events]
//Background and Video events
0,0,"bg.png"
//Break Periods
2,66555,71861
2,84908,87744
//Storyboard Layer 0 (Background)
//Storyboard Layer 1 (Fail)
//Storyboard Layer 2 (Pass)
//Storyboard Layer 3 (Foreground)
//Storyboard Sound Samples
//Background Colour Transformations
3,100,163,162,255

[TimingPoints]
5650,352.941176470588,4,1,1,100,1,0
28238,-100,4,1,1,0,0,0
28326,-100,4,1,1,100,0,0

[Colours]
Combo1 : 0,64,0
Combo2 : 85,85,85
Combo3 : 0,196,0

[HitObjects]
256,192,5650,1,0
256,192,5826,1,8
256,192,6002,1,0
256,192,6179,1,8
256,192,6532,1,8
256,192,6708,1,0
208,304,6885,1,8
256,192,7061,1,8
256,192,7149,1,8
256,192,7238,1,0
256,192,7326,1,8
256,192,7414,1,8
256,192,7502,1,0
256,192,7591,1,8
256,192,7944,1,8
256,192,8120,1,0
256,192,8297,1,8
256,192,8473,1,0
256,192,8738,1,0
256,192,9002,1,0
256,192,9355,1,8
256,192,9532,1,0
256,192,9708,1,8
256,192,9885,1,0
256,192,10149,1,0
256,192,10414,1,0
256,192,10767,1,8
256,192,10944,1,0
256,192,11032,1,0
256,192,11120,1,8
256,192,11208,1,0
256,192,11297,1,8
256,192,11473,1,0
256,192,11649,1,8
256,192,11826,1,0
256,192,12002,1,8
256,192,12179,1,0
256,192,12355,1,8
256,192,12532,1,0
256,192,12708,1,12
256,192,13061,1,8
256,192,13238,1,0
256,192,13414,1,8
256,192,13590,1,0
256,192,13767,1,8
256,192,13943,1,0
256,192,14120,1,12
256,192,14473,1,8
256,192,14561,1,8
256,192,14649,1,0
256,192,14738,1,0
256,192,14826,1,8
256,192,14914,1,8
256,192,15002,1,0
256,192,15091,1,0
256,192,15179,1,8
256,192,15267,1,8
256,192,15355,1,0
256,192,15444,1,0
256,192,15532,1,4
256,192,16591,1,0
256,192,16679,1,0
256,192,16767,1,0
256,192,16855,1,0
256,192,16944,1,8
256,192,17032,1,0
256,192,17120,1,0
256,192,17208,1,8
256,192,17296,1,0
256,192,17384,1,0
256,192,17473,1,8
256,192,17561,1,0
256,192,17649,1,0
256,192,17738,1,8
256,192,17826,1,0
256,192,17914,1,0
256,192,18002,1,8
256,192,18090,1,0
256,192,18178,1,0
256,192,18267,1,8
112,112,18355,1,8
112,112,18443,1,0
192,56,18620,1,8
192,56,18708,1,0
256,120,18885,1,8
256,120,18974,1,0
320,56,19149,1,8
320,56,19238,1,0
384,120,19414,1,8
440,192,19591,1,0
376,264,19767,1,8
376,264,19855,1,0
376,264,19944,1,0
352,304,20032,1,8
352,304,20120,1,0
352,304,20209,1,0
304,320,20297,1,8
304,320,20385,1,0
304,320,20474,1,0
256,336,20561,1,8
256,336,20649,1,0
256,336,20738,1,0
208,320,20826,1,8
208,320,20914,1,0
208,320,21003,1,0
376,264,21179,1,0
376,264,21267,1,8
376,264,21355,1,0
376,264,21444,1,0
352,304,21532,1,8
352,304,21620,1,0
352,304,21709,1,0
304,320,21797,1,8
304,320,21885,1,0
304,320,21974,1,0
256,336,22061,1,8
256,336,22149,1,0
256,336,22238,1,0
208,320,22326,1,8
208,320,22414,1,0
208,320,22503,1,0
208,320,22591,1,0
96,88,22767,2,0,B|448:72|0:296|408:240,1,420
112,112,24002,1,8
112,112,24090,1,0
192,56,24267,1,8
192,56,24355,1,0
256,120,24532,1,8
256,120,24621,1,0
320,56,24796,1,8
320,56,24885,1,0
384,120,25061,1,8
440,192,25238,1,0
376,352,25414,1,0
376,352,25502,1,0
376,352,25591,1,8
376,352,25679,1,0
256,272,25944,1,0
256,272,26032,1,0
256,272,26121,1,8
256,272,26209,1,0
136,192,26473,1,0
136,192,26561,1,0
136,192,26650,1,8
136,192,26738,1,0
24,104,27002,1,0
24,104,27090,1,0
24,104,27179,1,8
24,104,27267,1,0
232,136,27708,1,8
232,136,27885,1,8
232,136,28061,1,8
232,136,28238,1,8
264,232,28414,1,8
264,232,28502,1,0
264,232,28679,1,8
264,232,28767,1,0
264,232,28944,1,8
264,232,29032,1,0
144,128,29208,1,8
144,128,29473,1,0
264,232,29826,1,8
264,232,29914,1,0
264,232,30091,1,8
264,232,30179,1,0
264,232,30356,1,8
264,232,30444,1,0
144,128,30620,1,8
144,128,30885,1,0
256,112,31238,1,0
256,112,31414,1,0
256,112,31591,1,0
256,112,31767,1,8
256,112,31944,1,0
256,112,32120,1,0
256,112,32297,1,0
256,112,32473,1,8
256,112,32649,1,0
256,112,32825,1,0
256,112,33002,1,0
256,112,33178,1,8
256,112,33355,1,0
256,112,33531,1,0
256,112,33708,1,0
256,112,33884,1,12
208,192,34944,1,8
136,192,35120,1,0
96,192,35208,1,0
120,160,35297,1,8
120,88,35473,1,0
160,24,35649,1,8
256,112,35826,1,0
256,112,36002,1,0
256,112,36179,1,0
256,112,36355,1,12
256,112,36532,1,0
256,200,36708,1,0
256,200,36797,1,0
256,200,36885,1,0
256,200,36973,1,0
256,200,37061,1,0
256,200,37150,1,0
256,200,37238,1,0
256,200,37326,1,0
256,200,37414,1,0
256,200,37503,1,0
256,200,37591,1,0
256,200,37679,1,0
256,200,37767,1,0
256,200,37856,1,0
256,200,37944,1,0
256,200,38032,1,0
256,200,38120,1,8
256,200,38209,1,8
256,200,38297,1,8
256,200,38385,1,8
256,200,38473,1,0
256,200,38562,1,0
256,200,38650,1,0
256,200,38738,1,0
256,200,38826,1,8
256,200,38915,1,8
256,200,39002,1,8
256,200,39091,1,8
240,72,39179,1,0
240,72,39267,1,0
272,56,39355,1,0
256,200,39444,1,0
256,200,39532,1,0
328,224,39708,1,0
328,224,39885,1,8
328,224,40061,1,0
328,224,40238,1,0
344,200,40414,1,0
344,200,40591,1,8
328,224,40767,1,0
328,224,40944,1,0
344,200,41120,1,0
344,200,41297,1,8
328,224,41473,1,0
328,224,41650,1,0
344,200,41826,1,0
344,200,42003,1,8
328,224,42179,1,0
328,224,42356,1,0
344,200,42532,1,0
344,200,42709,1,8
328,224,42885,1,0
328,224,43062,1,0
344,200,43238,1,0
344,200,43415,1,8
328,224,43591,1,0
160,168,43767,1,0
112,112,43944,1,8
112,112,44032,1,0
192,56,44209,1,8
192,56,44297,1,0
256,120,44474,1,8
232,96,44561,1,0
320,56,44738,1,8
320,56,44827,1,0
320,56,45002,1,8
320,56,45091,1,0
336,80,45179,1,4
248,192,45355,1,0
248,192,45532,1,8
248,192,45620,1,0
248,192,45797,1,8
248,192,45885,1,0
248,192,46061,1,8
248,192,46149,1,0
248,192,46238,1,8
248,192,46414,1,8
248,192,46591,1,8
248,192,46767,1,0
248,192,46944,1,8
248,192,47032,1,8
248,192,47120,1,0
248,192,47208,1,8
248,192,47297,1,8
248,192,47473,1,0
248,192,47561,1,8
248,192,47738,1,0
248,192,47826,1,0
248,192,47914,1,8
248,192,48002,1,4
248,192,48179,1,8
248,192,48355,1,8
248,192,48444,1,8
248,192,48532,1,0
248,192,48620,1,8
248,192,48708,1,8
248,192,48885,1,0
248,192,48973,1,8
248,192,49149,1,0
248,192,49238,1,8
248,192,49414,1,0
248,192,49502,1,0
248,192,49591,1,0
248,192,49679,1,0
248,192,49767,1,8
248,192,49855,1,8
248,192,49944,1,8
248,192,50032,1,8
248,192,50120,1,0
248,192,50208,1,0
256,192,50209,1,0
248,192,50297,1,0
256,192,50297,1,0
248,192,50385,1,0
256,192,50385,1,0
248,192,50473,1,8
256,192,50473,1,0
248,192,50561,1,8
256,192,50562,1,8
248,192,50650,1,8
256,192,50650,1,0
248,192,50738,1,8
256,192,50738,1,0
256,192,50826,1,8
256,192,50914,1,0
256,192,51002,1,0
256,192,51091,1,8
256,192,51179,1,0
256,192,51267,1,0
256,192,51356,1,8
256,192,51444,1,0
256,192,51532,1,0
256,192,51620,1,8
256,192,51708,1,0
256,192,51796,1,0
256,192,51885,1,8
112,112,51973,1,8
112,112,52061,1,0
192,56,52238,1,8
192,56,52326,1,0
256,120,52503,1,8
256,120,52592,1,0
320,56,52767,1,8
320,56,52856,1,0
384,120,53032,1,8
440,192,53209,1,0
376,264,53385,1,8
376,264,53473,1,0
376,264,53562,1,0
352,304,53650,1,8
352,304,53738,1,0
352,304,53827,1,0
304,320,53915,1,8
304,320,54003,1,0
304,320,54092,1,0
256,336,54179,1,8
256,336,54267,1,0
256,336,54356,1,0
208,320,54444,1,8
208,320,54532,1,0
208,320,54621,1,0
376,264,54797,1,0
376,264,54885,1,8
376,264,54973,1,0
376,264,55062,1,0
352,304,55150,1,8
352,304,55238,1,0
352,304,55327,1,0
304,320,55415,1,8
304,320,55503,1,0
304,320,55592,1,0
256,336,55679,1,8
256,336,55767,1,0
256,336,55856,1,0
208,320,55944,1,8
208,320,56032,1,0
208,320,56121,1,0
208,320,56209,1,0
96,88,56385,2,0,B|448:72|0:296|496:232,1,487.5
192,56,57885,1,8
192,56,57973,1,0
256,120,58150,1,8
256,120,58239,1,0
320,56,58414,1,8
320,56,58503,1,0
384,120,58679,1,8
384,120,58767,1,0
392,184,58944,1,0
328,176,59120,1,0
376,352,59385,1,0
376,352,59473,1,0
376,352,59562,1,8
376,352,59650,1,0
256,272,59915,1,0
256,272,60003,1,0
256,272,60092,1,8
256,272,60180,1,0
136,192,60444,1,0
136,192,60532,1,0
136,192,60621,1,8
136,192,60709,1,0
24,104,60973,1,0
24,104,61061,1,0
24,104,61150,1,8
24,104,61238,1,0
232,136,61591,1,8
232,136,61768,1,8
232,136,61944,1,8
232,136,62121,1,8
256,192,62297,12,0,66355
64,72,73061,5,2
64,112,73149,1,0
64,152,73238,1,0
64,192,73326,1,0
64,232,73414,1,4
128,272,73591,1,2
128,272,73679,1,0
192,232,73855,1,2
192,192,73944,1,0
192,152,74032,1,0
192,112,74120,1,0
256,72,74297,1,2
256,144,74473,1,2
256,224,74649,1,8
256,224,74738,1,0
256,224,74826,1,0
328,192,75002,1,2
328,192,75091,1,0
400,192,75267,1,2
400,152,75355,1,0
400,112,75444,1,0
72,160,75532,1,0
72,160,75708,1,8
72,160,75885,1,0
360,72,75973,1,0
328,96,76061,1,0
288,96,76149,1,0
256,72,76238,1,4
184,72,76414,1,2
184,72,76502,1,4
112,72,76679,1,2
112,112,76767,1,0
112,152,76855,1,0
248,232,76944,1,0
248,232,77120,1,8
248,232,77297,1,8
248,232,77473,1,8
112,304,77561,1,0
112,344,77649,1,0
184,344,77826,1,2
184,344,77914,1,0
256,312,78091,1,2
256,272,78179,1,0
256,232,78267,1,0
256,192,78355,1,0
184,192,78532,1,2
112,192,78708,1,2
112,152,78797,1,0
112,112,78885,1,0
112,72,78973,1,0
112,32,79061,1,4
176,72,79238,1,2
176,72,79326,1,0
232,128,79502,1,2
256,96,79591,1,0
280,64,79679,1,0
304,32,79767,1,4
360,80,79944,1,2
360,80,80032,1,0
416,32,80208,1,2
440,64,80297,1,0
464,96,80385,1,0
488,128,80473,1,4
448,192,80649,1,2
448,192,80738,1,0
488,256,80914,1,2
464,288,81003,1,0
440,320,81091,1,0
416,352,81179,1,4
368,296,81355,1,2
368,296,81444,1,0
312,352,81620,1,2
288,320,81709,1,0
264,288,81797,1,0
240,256,81885,1,4
144,184,82061,1,8
144,184,82149,1,0
144,184,82326,1,8
144,184,82414,1,0
40,120,82591,1,4
152,88,82767,1,8
152,88,82855,1,0
152,88,83032,1,8
152,88,83120,1,0
320,64,83297,2,0,B|360:64,16,35,0|0|0|0|0|0|0|0|0|0|0|0|0|0|0|0|4
256,192,88944,5,8
256,192,89120,1,0
256,192,89297,1,8
256,192,89649,1,0
256,192,89826,1,8
256,192,89914,1,0
256,192,90179,1,0
256,192,90355,1,8
256,192,90531,1,0
256,192,90708,1,8
256,192,91060,1,0
256,192,91237,1,8
256,192,91325,1,0
256,192,91591,1,8
256,192,91767,1,0
256,192,91943,1,8
256,192,92120,1,0
256,192,92472,1,8
256,192,92649,1,0
256,192,92737,1,8
256,192,93002,1,8
256,192,93178,1,0
256,192,93354,1,8
256,192,93531,1,0
256,192,93797,1,0
256,192,94061,1,0
256,192,94238,1,0
256,192,94414,1,0
256,192,94591,1,8
256,192,94855,1,8
256,192,95120,1,8
256,192,95473,1,0
256,192,95649,1,0
256,192,95825,1,0
256,192,96002,1,8
256,192,96266,1,8
256,192,96531,1,8
256,192,96885,1,0
256,192,96973,1,0
256,192,97061,1,8
256,192,97149,1,0
256,192,97238,1,0
256,192,97326,1,0
256,192,97414,1,8
256,192,97679,1,8
256,192,97944,1,8
256,192,98208,1,8
256,192,98473,1,8
256,192,98649,1,0
256,192,98826,1,8
256,192,99002,12,0,100149
256,192,100238,5,8
256,192,100414,1,0
256,192,100591,1,8
256,192,100943,1,0
256,192,101120,1,8
256,192,101208,1,0
256,192,101473,1,0
256,192,101649,1,8
256,192,101825,1,0
256,192,102002,1,8
256,192,102354,1,0
256,192,102531,1,8
256,192,102619,1,0
256,192,102885,1,8
256,192,103061,1,0
256,192,103237,1,8
256,192,103414,1,0
256,192,103766,1,8
256,192,103943,1,0
256,192,104031,1,8
256,192,104296,1,8
256,192,104472,1,0
256,192,104648,1,8
256,192,104825,1,0
256,192,105091,1,0
256,192,105355,1,0
256,192,105532,1,0
256,192,105708,1,0
256,192,105885,1,8
256,192,106149,1,8
256,192,106414,1,8
256,192,106767,1,0
256,192,106943,1,0
256,192,107119,1,0
256,192,107296,1,0
256,192,107561,1,0
256,192,107826,1,0
256,192,108002,1,8
256,192,108266,1,8
256,192,108532,1,8
256,192,108708,1,8
256,192,108973,1,8
256,192,109238,1,8
256,192,109502,1,8
256,192,109767,1,8
256,192,109943,1,0
256,192,110120,1,8
256,192,110296,12,0,111443
256,192,111708,5,0
256,192,111885,1,0
256,192,112238,1,0
256,192,112414,1,0
256,192,112767,1,0
256,192,113120,1,0
256,192,113473,1,0
256,192,113649,1,0
