osu file format v8

[General]
AudioFilename: tehsong.mp3
AudioLeadIn: 1500
PreviewTime: 62694
Countdown: 0
SampleSet: Normal
StackLeniency: 0.7
Mode: 0
LetterboxInBreaks: 0

[Editor]
Bookmarks: 14694,25988,37282,48576,62694,73988,85282
DistanceSpacing: 0.5
BeatDivisor: 4
GridSize: 8

[Metadata]
Title:THANK YOU FOR PLAYING
Artist:SUPER STAR -MITSURU-
Creator:Natteke
Version:Another
Source:Beatmania IIDX
Tags:tkiller Garven climbb65588

[Difficulty]
HPDrainRate:8
CircleSize:4
OverallDifficulty:7
ApproachRate:8
SliderMultiplier:1.6
SliderTickRate:0.5

[Events]
//Background and Video events
0,0,"purplebgfomymaplol.png"
//Break Periods
//Storyboard Layer 0 (Background)
//Storyboard Layer 1 (Fail)
//Storyboard Layer 2 (Pass)
//Storyboard Layer 3 (Foreground)
Sprite,Foreground,Centre,"ntk.png",320,240 M,0,576,,320,200 F,0,576,664,0,1 S,0,576,664,1.816,1.024 S,0,664,,1.024 F,0,664,1282,1 F,0,1282,13988,1 F,0,13988,14517,1,0 F,0,14517,25811,0 F,0,25811,25988,0,0.4960001 F,0,25988,26252,0.4960001,1 F,0,26252,36752,1 F,0,36752,37105,1,0 F,0,37105,48399,0 F,0,48399,48488,0 F,0,48488,48752,0,1 F,0,48752,62252,1 F,0,62252,62694,1,0 F,0,62694,73811,0 F,0,73811,74164,0,1 F,0,74164,84752,1 F,0,84752,85282,1,0
Sprite,Foreground,Centre,"tk.png",320,240 M,0,14517,,320,302 F,0,14517,14694,0,1 S,0,14517,14694,1.856,1.032 F,0,14694,25811,1 F,0,25811,25988,1,0 F,0,25988,37194,0 F,0,37194,37458,0,1 F,0,37458,48223,1 F,0,48223,48399,1 F,0,48399,48576,1,0 F,0,48576,62517,0 F,0,62517,62605,0 F,0,62605,62870,0,1 F,0,62870,73811,1 F,0,73811,73988,1,0 F,0,73988,85105,0 F,0,85105,85458,0,1 F,0,85458,98338,1 F,0,98338,98867,1,0
//Storyboard Sound Samples
//Background Colour Transformations
3,100,163,162,255

[TimingPoints]
576.454545454545,352.941176470588,4,1,1,70,1,0
664,-100,4,2,1,70,0,0
12223,-200,4,2,1,0,0,0
14517,-100,4,2,1,65,0,0
23517,-100,4,1,1,39,0,0
23694,-100,4,1,1,50,0,0
23870,-100,4,1,1,60,0,0
24047,-100,4,1,1,70,0,0
24223,-100,4,1,1,80,0,0
24664,-100,4,1,1,60,0,0
26076,-100,4,2,1,80,0,0
34458,-100,4,1,1,45,0,0
34811,-100,4,1,1,50,0,0
35164,-100,4,1,1,55,0,0
35517,-100,4,1,1,60,0,0
37194,-100,4,1,1,44,0,0
45752,-100,4,1,1,34,0,0
46105,-100,4,1,1,45,0,0
46458,-100,4,1,1,56,0,0
46811,-100,4,1,1,61,0,0
48620,-100,4,2,1,79,0,0
48841,-100,4,1,1,69,0,0
49017,-100,4,2,1,79,0,0
49194,-100,4,1,1,70,0,0
49370,-100,4,2,1,79,0,0
49547,-100,4,1,1,69,0,0
49723,-100,4,2,1,79,0,0
49899,-100,4,1,1,70,0,0
50075,-100,4,2,1,79,0,0
50251,-100,4,1,1,70,0,0
50427,-100,4,2,1,79,0,0
50603,-100,4,1,1,70,0,0
50779,-100,4,2,1,79,0,0
50955,-100,4,1,1,70,0,0
51488,-100,4,2,1,81,0,0
51664,-100,4,1,1,70,0,0
51840,-100,4,2,1,70,0,0
52016,-100,4,1,1,70,0,0
52192,-100,4,2,1,79,0,0
52368,-100,4,1,1,70,0,0
52544,-100,4,2,1,81,0,0
52811,-100,4,1,1,71,0,0
52899,-100,4,2,1,80,0,0
53076,-100,4,1,1,71,0,0
53252,-100,4,2,1,81,0,0
53429,-100,4,1,1,69,0,0
53605,-100,4,2,1,81,0,0
53782,-100,4,1,1,70,0,0
54311,-100,4,2,1,81,0,0
56694,-100,4,1,1,60,0,0
61105,-100,4,1,1,70,0,0
62517,-100,4,2,1,81,0,0
71164,-100,4,1,1,39,0,0
71517,-100,4,1,1,51,0,0
71870,-100,4,1,1,61,0,0
72223,-100,4,1,1,70,0,0
74782,-100,4,2,1,70,0,0
74958,-100,4,1,1,70,0,0
75134,-100,4,2,1,70,0,0
75355,-100,4,1,1,70,0,0
75488,-100,4,2,1,70,0,0
75708,-100,4,1,1,70,0,0
75840,-100,4,2,1,70,0,0
76061,-100,4,1,1,70,0,0
76193,-100,4,2,1,70,0,0
76414,-100,4,1,1,70,0,0
77605,-100,4,2,1,70,0,0
77781,-100,4,1,1,70,0,0
77958,-100,4,2,1,70,0,0
78179,-100,4,1,1,70,0,0
79679,-100,4,2,1,70,0,0
79944,-100,4,1,1,70,0,0
80032,-100,4,2,1,70,0,0
80297,-100,4,1,1,70,0,0
80385,-100,4,2,1,70,0,0
80649,-100,4,1,1,70,0,0
80737,-100,4,2,1,70,0,0
81002,-100,4,1,1,70,0,0
81090,-100,4,2,1,70,0,0
81355,-100,4,1,1,70,0,0
81443,-100,4,2,1,70,0,0
81708,-100,4,1,1,70,0,0
81796,-100,4,2,1,70,0,0
82061,-100,4,1,1,70,0,0
82149,-100,4,2,1,70,0,0
82414,-100,4,1,1,70,0,0
82502,-100,4,2,1,70,0,0
82767,-100,4,1,1,70,0,0
82855,-100,4,2,1,70,0,0
83120,-100,4,1,1,70,0,0
83208,-100,4,2,1,70,0,0
83473,-100,4,1,1,70,0,0
83561,-100,4,2,1,70,0,0
83826,-100,4,1,1,50,0,0
85370,-100,4,2,1,69,0,0
93572,375,4,2,1,69,1,0
94502,413.793103448276,4,2,1,69,1,0
94915,428.571428571429,4,2,1,69,1,0
95343,468.75,4,2,1,69,1,0
95811,515.021459227468,4,2,1,69,1,0
96329,562.851782363977,4,2,1,69,1,0
96929,1202.40480961924,4,2,1,69,1,0
98262,413.793103448276,4,2,1,69,1,0
98736,-100,4,2,1,0,0,0

[Colours]
Combo1 : 17,254,176
Combo2 : 173,255,95
Combo3 : 255,88,100
Combo4 : 255,94,55

[HitObjects]
96,304,576,1,4
160,240,752,1,0
184,152,929,1,0
152,72,1105,1,2
152,72,1458,1,2
184,152,1635,1,0
264,192,1811,1,2
352,176,1988,6,0,B|376:128|360:88,1,80,2|0
184,152,2341,2,0,B|160:200|176:240,1,80,2|0
272,344,2694,2,0,B|296:296|280:256,1,80,2|0
56,240,3047,2,0,B|32:288|48:328,1,80,2|0
152,344,3399,5,2
192,264,3576,1,0
280,248,3752,1,0
360,288,3929,1,2
360,288,4282,1,2
280,248,4458,1,0
256,160,4635,1,2
296,80,4811,6,0,B|344:64|384:96,1,80,2|0
280,248,5164,2,0,B|232:264|192:232,1,80,2|0
112,104,5517,2,0,B|160:88|200:120,1,80,2|0
96,272,5870,2,0,B|48:288|8:256,1,80,2|0
112,104,6223,5,2
184,56,6399,1,0
264,88,6576,1,0
248,176,6752,1,2
248,176,7105,1,2
264,88,7282,1,0
352,72,7458,1,2
408,144,7635,5,0
336,208,7811,1,0
384,288,7988,1,0
464,280,8164,1,2
488,192,8341,6,0,B|416:192|416:240|312:240,1,160,0|2
24,192,9047,2,0,B|96:192|96:144|200:144,1,160,2|0
160,232,9576,2,0,B|160:176|160:176|144:112|144:112|144:56,1,160,2|0
256,192,10105,2,0,B|256:248|256:248|272:312|272:312|272:368,2,160,2|2|0
352,232,10988,1,2
352,232,11076,1,2
352,232,11164,2,0,B|352:176|352:176|368:112|368:112|368:56,1,160,2|0
248,96,11694,5,0
280,184,11870,2,0,B|320:168,5,26.6666666666667
280,184,12223,2,0,B|216:224|248:272|184:320,1,160
256,192,13282,12,0,14341
96,88,14694,5,4
104,112,14782,1,0
120,136,14870,1,2
144,152,14958,1,0
168,160,15047,1,8
192,168,15135,1,0
216,168,15223,1,2
240,168,15311,1,0
264,160,15399,1,4
288,152,15488,1,0
312,138,15576,2,0,B|328:122|352:122,5,40,2|0|8|0|2|0
376,120,16105,5,4
400,128,16194,1,0
424,144,16282,1,2
440,168,16370,1,0
448,192,16458,1,8
448,216,16547,1,0
440,240,16635,1,2
424,256,16723,1,0
400,272,16811,1,4
376,280,16899,1,0
348,286,16988,2,0,B|320:294|289:277,4,40,2|0|8|0|2
160,248,17517,5,4
160,220,17605,1,0
160,191,17694,1,2
160,163,17782,1,0
160,135,17870,2,2,L|160:79|192:39,1,80,8|2
352,136,18223,5,4
352,163,18311,1,0
352,191,18400,1,2
352,218,18488,1,0
352,245,18576,2,2,L|352:301|320:341,1,80,8|2
278,282,18929,6,0,L|230:266,3,40,4|0|2|0
238,226,19282,2,0,L|275:213,3,40,8|0|2|0
278,170,19635,2,0,L|230:154,3,40,4|0|2|0
238,114,19988,2,0,L|275:101,4,40,8|0|2|0|4
88,272,20694,5,8
95,254,20782,1,0
106,238,20870,1,2
120,224,20958,1,0
137,214,21047,2,0,B|149:198|176:200,3,40,4|0|2|0
192,192,21399,5,8
214,187,21488,1,0
236,187,21576,1,2
258,189,21664,1,0
278,198,21752,2,0,B|300:199|313:220,3,40,4|0|2|0
328,224,22105,5,8
350,235,22194,1,0
375,235,22282,1,2
399,229,22370,1,0
418,212,22458,2,0,B|441:198|442:164,3,40,4|0|2|0
440,160,22811,5,4
433,133,22899,1,0
419,108,22988,1,4
398,89,23076,1,0
372,78,23164,1,4
256,288,23517,5,0
280,272,23605,1,0
256,256,23694,1,0
232,240,23782,1,0
256,224,23870,1,0
280,208,23958,1,0
256,192,24047,1,0
232,176,24135,1,0
256,160,24224,1,0
280,144,24312,1,0
256,128,24400,1,0
232,112,24488,1,0
256,96,24576,1,0
144,64,24752,6,0,B|120:48,4,20
368,128,25105,2,0,B|392:112,4,20
144,184,25458,2,0,B|120:168,4,20
368,240,25811,2,0,B|392:224,3,20
368,240,25988,6,0,B|344:272|296:272,1,80,4|2
144,144,26341,2,0,B|168:112|216:112,1,80,4|2
207,303,26694,2,0,B|176:280|176:233,1,80,4|2
304,80,27047,2,0,B|336:103|335:150,1,80,4|2
256,192,27399,5,4
232,192,27488,1,0
213,197,27576,1,2
196,208,27664,1,0
183,223,27752,2,0,B|155:263|162:301,1,80,4|2
256,192,28105,5,4
280,192,28194,1,0
299,187,28282,1,2
316,176,28370,1,0
329,161,28458,2,0,B|357:121|350:83,1,80,4|4
128,80,28811,6,0,B|100:120|107:158,1,80,4|2
184,320,29164,2,0,B|212:280|205:242,1,80,4|2
320,256,29517,2,0,B|307:208|273:189,1,80,4|2
384,112,29870,2,0,B|339:91|303:104,1,80,4|2
201,179,30223,5,4
183,189,30311,1,0
165,198,30399,2,0,B|129:215|129:215|86:276|86:276|30:304,2,160,2|2|2
183,189,31194,1,4
200,176,31282,2,0,B|232:136|200:88,1,80,4|2
24,120,31635,6,0,B|80:192,1,80,4|2
160,120,31988,2,0,B|216:48,1,80,4|2
304,120,32341,2,0,B|360:192,1,80,4|2
448,120,32694,2,0,B|504:48,1,80,4|2
440,224,33047,6,0,B|464:264|432:312,1,80,4|2
256,168,33399,2,0,B|256:248,1,80,4|2
72,224,33752,2,0,B|48:264|80:312,1,80,4|2
256,352,34105,1,4
256,328,34194,1,0
256,304,34282,1,4
272,288,34370,1,0
288,272,34458,6,0,B|328:240,3,40,0|0|0|0
304,224,34811,2,0,B|272:184,3,40,0|0|0|0
288,176,35164,2,0,B|336:136,3,40,0|0|0|0
304,128,35517,1,0
288,112,35605,1,0
272,96,35694,1,0
256,80,35782,1,0
240,64,35870,1,0
128,120,36047,6,0,B|152:144,4,20
256,312,36399,6,0,B|257:278,4,20
384,120,36752,6,0,B|360:144,4,20
352,192,37105,5,0
256,192,37281,1,0
160,192,37458,1,0
272,328,37635,5,8
296,328,37723,1,0
320,328,37811,1,0
344,328,37899,2,0,L|424:328|464:288,1,120
240,56,38341,5,8
216,56,38429,1,0
192,56,38517,1,0
168,56,38605,2,0,L|88:56|48:96,1,120
136,200,39047,5,8
152,176,39135,1,0
168,200,39223,1,0
184,176,39311,1,0
200,200,39399,1,0
216,176,39488,1,0
232,200,39576,1,0
248,176,39664,1,0
264,200,39752,1,8
280,176,39840,1,0
296,200,39928,1,0
312,176,40017,1,0
328,200,40105,2,0,L|352:200|344:176|384:176,1,80
256,72,40458,5,8
232,72,40546,1,0
208,72,40634,1,0
184,72,40722,2,0,L|104:72|64:112,1,120
256,312,41164,5,8
280,312,41252,1,0
304,312,41340,1,0
328,312,41429,2,0,L|408:312|448:272,1,120
368,192,41870,6,0,L|368:136|352:104,1,80,8|0
144,192,42223,2,0,L|144:248|160:280,1,80
245,240,42576,5,8
245,216,42664,1,0
245,192,42752,1,0
245,160,42841,1,0
269,144,42929,2,0,L|269:240,1,80,4|0
160,216,43282,5,8
160,192,43370,1,0
160,168,43458,1,0
160,144,43546,2,0,L|160:64|200:24,1,120
352,168,43988,5,8
352,192,44076,1,0
352,216,44164,1,0
352,240,44252,2,0,L|352:320|312:360,1,120
296,216,44694,6,0,L|296:280,1,40,8|0
280,200,44870,2,0,L|280:272,1,40
264,184,45047,2,0,L|264:232,1,40
248,168,45223,2,0,L|248:224,1,40
232,152,45399,2,0,L|232:200,1,40,8|0
216,136,45576,2,0,L|216:192,1,40
200,119,45752,6,0,B|160:159,3,40
184,96,46105,2,0,L|128:96,3,40,8|0|0|0
200,80,46458,2,0,L|160:40,3,40
216,56,46811,2,0,L|216:0,4,40,8|0|0|0|4
344,200,47341,6,0,L|360:216,4,20,0|0|0|0|4
256,288,47694,2,0,L|256:308,4,20,0|0|0|0|4
168,200,48047,2,0,L|152:216,4,20,0|0|0|0|4
200,88,48399,1,0
312,88,48576,6,0,B|328:128|304:168,1,80,0|2
200,296,48929,2,0,B|184:256|208:216,1,80,0|2
371,168,49282,2,0,B|351:206|305:213,1,80,0|2
140,215,49635,2,0,B|160:177|206:170,1,80,0|2
256,88,49988,5,0
312,192,50164,1,2
408,264,50341,1,0
400,176,50517,1,2
344,112,50694,1,0
424,104,50870,1,2
408,264,51047,1,0
240,256,51223,1,0
192,176,51399,6,0,B|144:200|144:256,1,80,0|2
256,104,51752,2,0,B|256:16,1,80,0|2
320,176,52105,2,0,B|368:200|368:256,1,80,0|2
256,248,52458,2,0,B|256:336,1,80,0|2
256,328,52723,1,0
256,328,52811,5,0
168,248,52988,1,0
256,168,53164,1,0
344,88,53341,1,0
256,8,53517,1,0
168,88,53694,1,0
168,88,53782,1,0
168,88,53870,2,0,B|136:128|176:184,1,80
256,248,54223,5,4
64,192,54399,5,2
256,8,54752,1,2
256,376,55105,1,2
448,192,55458,1,2
352,104,55635,5,0
256,8,55811,1,2
256,376,56164,1,2
64,192,56517,1,2
448,192,56870,1,0
400,313,57047,5,4
384,295,57135,1,0
369,276,57223,1,0
354,257,57311,1,0
330,255,57399,1,0
306,255,57488,1,0
282,254,57576,1,0
258,254,57664,1,0
256,232,57752,5,0
232,232,57840,1,0
208,231,57928,1,0
184,231,58017,1,0
160,229,58105,1,0
145,210,58193,1,0
130,191,58281,1,0
114,173,58369,1,0
104,152,58458,6,0,B|80:112,3,40,4|0|0|0
96,160,58811,2,0,B|49:152,3,40
88,168,59164,2,0,B|52:198,3,40
88,184,59517,2,0,B|88:230,3,40
120,192,59870,5,4
136,208,59958,1,0
152,224,60047,1,0
168,240,60135,1,0
184,256,60223,1,0
208,256,60311,1,0
232,256,60399,1,0
256,256,60488,1,0
280,256,60576,6,4,B|368:256|368:256|392:184|392:184|496:184,1,240
336,88,61370,5,0
184,88,61547,1,0
168,104,61635,1,0
144,216,61811,1,0
128,232,61899,1,0
72,336,62076,1,0
56,352,62164,1,4
384,288,62694,6,0,L|416:248,3,40,4|0|2|0
400,232,63047,2,0,L|360:208,3,40,8|0|2|0
360,184,63399,2,0,L|400:144,3,40,4|0|2|0
384,128,63752,2,0,L|352:88,3,40,8|0|2|0
336,88,64105,2,0,L|280:112,1,40,4|0
272,96,64282,2,0,L|224:72,1,40,2|0
208,72,64458,2,0,L|168:80,1,40,8|0
144,96,64635,2,0,L|96:80,1,40,2|0
80,88,64811,2,0,L|64:136,3,40,4|0|2|0
72,152,65164,2,0,L|96:192,1,40,8|0
96,216,65341,2,0,L|80:264,1,40,2|0
80,280,65517,6,0,L|112:320,3,40,4|0|2|0
128,328,65870,1,8
154,338,65958,1,0
182,336,66047,1,2
208,328,66135,1,0
232,312,66223,2,0,B|256:296|264:264,3,40,4|0|2|0
264,256,66576,1,8
256,232,66664,1,0
238,210,66752,1,2
217,190,66841,1,0
200,168,66929,2,0,B|184:144|200:112,3,40,4|0|2|0
200,104,67282,5,8
216,80,67370,1,0
240,64,67458,1,2
264,56,67547,1,0
291,52,67635,1,4
317,59,67723,1,0
342,70,67811,1,2
363,88,67899,1,4
377,112,67988,1,4
384,136,68076,1,0
398,160,68164,1,4
417,179,68252,1,0
441,192,68341,6,0,B|465:208|465:232,3,40,4|0|2|0
468,251,68694,1,8
458,277,68782,1,0
443,300,68870,1,2
419,314,68958,1,0
391,321,69047,2,0,B|367:329|343:321,3,40,4|0|2|0
324,316,69399,1,8
298,303,69488,1,0
278,282,69576,1,2
253,268,69664,1,0
227,255,69752,2,0,B|203:247|171:255,3,40,4|0|2|0
160,259,70105,5,8
133,267,70194,1,0
105,269,70282,1,2
80,257,70370,1,0
64,234,70458,1,4
70,206,70547,1,0
90,187,70635,1,2
116,178,70723,1,0
140,164,70811,1,8
158,143,70899,1,0
167,116,70988,1,2
168,88,71076,1,0
171,60,71164,6,0,B|178:32|219:18,3,40
222,22,71517,1,0
250,24,71605,1,0
275,36,71694,1,0
296,54,71782,1,0
308,79,71870,1,0
310,107,71958,1,0
302,134,72047,1,0
299,162,72135,1,0
308,188,72223,1,0
321,213,72311,1,0
338,235,72399,1,0
363,249,72488,1,0
388,261,72576,2,0,B|421:271|448:267|488:243|493:200|468:160|449:151,1,160
452,144,73017,5,0
431,125,73105,1,0
404,114,73194,1,0
376,119,73282,1,0
349,129,73370,1,0
329,149,73458,1,0
317,175,73547,1,0
300,197,73635,1,0
280,216,73723,1,0
254,227,73811,1,4
226,226,73899,1,4
200,216,73988,6,0,B|168:176|176:128|208:104,2,120,4|0|0
280,136,74694,2,0,B|296:88|272:56,1,80,0|2
120,256,75047,2,0,B|104:304|128:336,1,80,0|2
125,332,75311,1,0
125,332,75399,5,0
384,240,75576,1,2
384,240,75664,1,0
384,240,75752,1,0
128,168,75929,1,2
128,168,76017,1,0
128,168,76105,1,0
384,80,76282,1,2
384,80,76370,1,0
384,80,76458,5,0
256,128,76635,1,0
256,240,76811,2,0,B|256:280|256:280|280:328|280:328|280:376,2,120
256,128,77517,2,0,B|256:24,1,80,0|2
176,192,77870,2,0,B|128:192|104:232,1,80,0|2
107,226,78135,1,0
107,226,78223,6,0,B|80:264|96:312,1,80
192,352,78576,1,0
176,272,78752,1,0
248,304,78929,1,0
240,224,79105,1,0
312,256,79282,1,0
304,176,79458,1,0
376,208,79635,6,0,B|416:208,3,40,4|0|2|0
392,176,79988,2,0,B|416:136,3,40,0|0|2|0
376,144,80341,2,0,B|368:96,3,40,0|0|2|0
344,136,80694,2,0,B|304:120,3,40,0|0|2|0
328,160,81047,5,0
318,182,81135,1,0
313,205,81223,1,2
317,229,81311,1,0
324,252,81399,1,0
324,276,81488,1,0
312,297,81576,1,2
292,310,81664,1,0
269,316,81752,5,0
245,316,81841,1,0
222,308,81929,1,2
205,291,82017,1,0
198,268,82105,1,0
199,244,82194,1,0
208,222,82282,1,2
208,198,82370,1,0
204,170,82458,5,0
189,146,82547,1,0
167,128,82635,1,2
139,123,82723,1,0
112,129,82811,1,0
92,148,82899,1,0
82,174,82988,5,2
81,202,83076,1,0
89,229,83164,1,0
96,256,83252,1,0
97,284,83341,1,2
87,310,83429,1,0
69,331,83517,2,0,B|50:359|5:363,3,40,0|0|2|0
66,358,83870,5,0
93,365,83958,1,0
121,368,84047,1,0
149,365,84135,1,0
175,355,84223,1,0
199,340,84311,1,0
219,321,84399,1,0
244,307,84488,1,0
272,305,84576,1,0
299,311,84664,1,0
321,329,84752,1,0
344,345,84841,1,0
370,355,84929,2,0,B|392:364|418:343,4,40,0|0|0|0|4
451,277,85458,5,2
471,167,85635,1,0
429,63,85811,1,2
61,107,86164,5,2
41,217,86341,1,0
83,321,86517,1,2
194,302,86694,5,0
286,276,86870,1,0
235,194,87047,1,2
219,288,87223,5,0
311,262,87399,1,0
260,180,87576,1,0
246,274,87752,5,2
338,248,87928,1,0
287,166,88105,1,2
202,121,88282,1,0
108,102,88458,1,0
12,112,88635,1,2
12,112,88988,5,2
108,102,89164,1,0
202,121,89341,1,0
287,166,89517,1,2
338,248,89694,1,0
246,274,89870,1,0
310,202,90047,5,0
361,284,90224,1,2
269,310,90400,1,0
336,242,90576,5,0
387,324,90753,1,0
295,350,90929,1,2
199,351,91105,1,0
112,310,91282,1,0
38,249,91458,1,2
38,249,91811,5,2
116,265,91988,1,0
195,267,92164,1,0
274,259,92341,1,2
352,244,92517,1,0
429,223,92694,1,0
486,167,92870,1,2
486,166,93223,5,2
408,182,93400,1,0
329,184,93572,1,0
250,176,93759,1,2
172,161,93947,1,0
95,140,94134,1,0
44,84,94322,1,2
44,84,94708,5,2
32,168,94915,2,0,B|32:272,1,80
104,344,95343,2,0,B|104:264,1,80
168,160,95811,2,0,B|168:256,1,80
232,320,96329,2,0,B|232:208,1,80
296,160,96929,2,0,B|296:232,1,60
432,320,98262,2,0,B|432:288,5,26.6666666666667,0|0|0|0|0|2
256,192,98883,12,0,101572
