osu file format v8

[General]
AudioFilename: 1-07 She is my wife.mp3
AudioLeadIn: 0
PreviewTime: 44822
Countdown: 0
SampleSet: Soft
StackLeniency: 0.7
Mode: 0
LetterboxInBreaks: 1

[Editor]
DistanceSpacing: 0.7
BeatDivisor: 4
GridSize: 8

[Metadata]
Title:She is my wife
Artist:SUPER STAR -MITSURU-
Creator:yeahyeahyeahhh
Version:Beginner
Source:Beatmania IIDX
Tags:Sirus IIDX17 Natteke Rokodo Roko-Don

[Difficulty]
HPDrainRate:3
CircleSize:3
OverallDifficulty:3
ApproachRate:3
SliderMultiplier:1.4
SliderTickRate:1

[Events]
//Background and Video events
Video,-2430,"1713.AVI"
0,0,"___Mystical____by_xXMonsterManiacXx.jpg"
//Break Periods
//Storyboard Layer 0 (Background)
//Storyboard Layer 1 (Fail)
//Storyboard Layer 2 (Pass)
//Storyboard Layer 3 (Foreground)
//Storyboard Sound Samples
//Background Colour Transformations
3,100,163,162,255

[TimingPoints]
379,705.882352941176,4,1,0,50,1,0
8849,-100,4,1,1,19,0,0
11849,-100,4,2,1,41,0,0
13261,-100,4,2,1,20,0,0
13614,-100,4,2,2,30,0,0
13967,-100,4,2,1,39,0,0
16084,-100,4,2,1,19,0,0
16437,-100,4,1,2,20,0,0
16790,-100,4,2,1,41,0,0
21731,-100,4,2,1,21,0,0
22084,-100,4,1,2,20,0,0
22437,-100,4,2,1,40,0,0
24555,-100,4,2,1,20,0,0
24908,-100,4,2,2,31,0,0
25261,-100,4,2,1,40,0,0
29496,-100,4,2,1,21,0,0
30378,-100,4,2,1,20,0,0
30496,-100,4,2,1,21,0,0
30731,-100,4,2,2,20,0,0
30849,-100,4,2,1,20,0,0
33202,-100,4,1,2,20,0,0
34084,-100,4,2,1,40,0,0
34967,-100,4,2,1,28,0,0
36202,-100,4,2,2,30,0,0
36555,-100,4,2,1,40,0,0
41849,-100,4,2,2,31,0,0
42202,-100,4,2,1,40,0,0
43967,-100,4,1,1,38,0,0
46966,352.941176470588,4,1,1,49,1,0
68054,-100,4,1,1,31,0,0
68671,-100,4,1,1,39,0,0
69201,-100,4,1,1,49,0,0
69642,-100,4,1,1,61,0,0
69995,-100,4,1,1,72,0,0
70348,-100,4,1,1,49,0,0
76701,-100,4,2,1,50,0,0
78024,-100,4,1,1,50,0,0
79524,-100,4,2,1,50,0,0
80848,-100,4,1,1,50,0,0
82348,-100,4,2,1,50,0,0
84995,-100,4,2,1,70,0,0
85171,-100,4,1,1,50,0,0
85436,-100,4,2,1,60,0,0
85524,-100,4,1,1,50,0,0
86142,-100,4,2,1,60,0,0
86230,-100,4,1,1,50,0,0
86848,-100,4,2,1,60,0,0
86936,-100,4,1,1,50,0,0
87554,-100,4,2,1,60,0,0
87642,-100,4,1,1,51,0,0
87907,-100,4,2,0,50,0,0
88966,-100,4,2,0,50,0,0
89671,-100,4,2,0,50,0,0
90730,-100,4,1,1,50,0,0
99201,-100,4,1,1,40,0,0
99907,-100,4,1,1,50,0,0
100701,-100,4,1,1,61,0,0
101054,-100,4,1,1,70,0,0
101407,-100,4,1,1,50,0,0

[Colours]
Combo1 : 17,254,176
Combo2 : 173,255,95
Combo3 : 255,88,100
Combo4 : 255,94,55

[HitObjects]
200,304,11673,2,4,B|168:321|72:320|64:241|72:177,1,210,4|6
192,120,13437,5,4
256,88,13790,1,8
320,120,14143,1,0
392,128,14496,6,0,B|392:113|392:81|368:57|336:49,2,105,6|6|6
152,272,16967,6,0,B|88:272,2,35,2|2|6
360,272,18378,6,0,B|424:272,2,35,2|2|2
256,240,19261,2,0,B|256:120,1,105,2|2
256,64,20143,5,6
184,184,20849,1,2
328,184,21555,1,2
384,144,21908,1,4
320,112,22261,2,0,B|272:72,4,35,0|2|2|2|6
184,272,24026,6,0,B|208:296,2,35,6|2|2
112,192,24908,2,0,B|224:192,1,105,2|2
288,192,25790,1,6
32,104,27202,6,0,B|24:72|32:40|64:24|112:32,2,105,2|2|2
104,96,28614,2,0,B|240:168,1,140,6|0
288,192,29673,6,2,B|320:208,15,23.3333333333333,2|2|2|2|2|2|6|2|2|10|2|2|2|2|2|6
392,88,32143,5,2
256,136,32849,1,2
120,88,33555,1,4
256,48,34261,6,0,B|296:40|368:72|376:152|304:216,1,210,6|6
256,192,35673,2,0,B|208:240|216:320|285:344|325:336,1,210,6|6
384,304,37084,2,0,B|432:256|424:176|354:151|314:159,1,210,6|6
256,192,38496,2,0,B|208:224|152:192,2,105,6|2|2
256,120,39908,1,6
256,264,42379,6,0,B|256:312,2,35,2|2|6
72,48,44143,5,4
256,192,45555,12,0,46966
120,192,48377,5,0
392,192,49789,1,0
256,56,51201,5,4
256,332,52260,5,8
160,304,52613,2,0,B|80:184,1,140,4|8
256,96,53671,5,8
256,192,54024,2,8,B|256:352,1,140,0|8
416,216,55083,6,0,B|339:100,1,140,8|0
256,48,55789,1,8
176,104,56142,1,0
256,160,56495,6,0,B|256:232,2,70,0|0|4
368,320,57554,1,4
144,320,58260,1,4
432,168,59671,6,0,B|448:128|432:88|384:64|336:88,1,140,0|8
320,168,60377,2,0,B|296:200|256:208|208:200|192:160,1,140,0|8
152,80,61083,6,0,B|128:64|80:88|64:128|80:168,1,140,0|8
184,192,61789,2,0,B|352:192,1,140,0|8
328,96,62495,6,0,B|392:112|448:168|450:259|376:336,1,280
296,280,63554,1,8
208,232,63907,2,0,B|168:240|144:280|144:320|184:360,2,140,0|8|0
296,280,64966,1,8
384,320,65318,6,0,B|424:312|448:272|448:232|408:192,1,140,4|8
328,192,66024,2,0,B|188:192,1,140,0|8
128,264,66730,6,0,B|88:256|64:216|64:176|104:136,1,140,0|8
168,96,67436,2,0,B|308:96,1,140,0|8
392,144,68142,5,0
328,216,68495,1,0
256,144,68848,1,0
184,216,69201,1,0
120,144,69554,1,0
184,72,69907,6,4,B|352:72,2,140
120,144,70966,1,4
256,280,71671,1,4
392,144,72377,1,4
256,280,73083,6,0,B|256:144,2,105
256,328,73789,1,4
400,80,75024,1,0
152,72,75907,6,0,B|264:48,2,105
104,88,76613,1,4
240,136,77142,1,2
336,160,77495,2,2,B|403:178,2,70,2|2|2
408,296,79436,5,4
272,248,79965,1,2
176,224,80318,2,2,B|109:206,2,70,2|2|2
304,208,82260,6,0,B|344:248|344:312|296:360|216:328,2,210,0|2|0
208,176,83671,2,0,B|168:136|168:80|216:24|296:56,2,210,2|2|2
304,144,85083,1,4
256,192,85171,12,4,87907
256,192,89318,5,2
256,80,90730,6,0,B|104:80,1,140,4|8
56,160,91436,2,0,B|224:160,1,140,0|8
256,240,92142,2,0,B|104:240,1,140,0|8
56,160,92848,1,0
120,88,93201,6,0,B|48:40,2,70,8|0|0
216,80,93907,2,0,B|216:224,1,140,8|0
192,320,94613,2,0,B|224:336|256:352|312:336|344:304,1,140,8|0
408,264,95318,2,0,B|256:184,1,140,8|0
184,216,96024,1,8
192,320,96377,6,0,B|120:320|48:264|40:176|80:96,1,280,4|0
168,144,97436,1,8
192,48,97789,2,0,B|261:47|333:103|341:191|310:250,1,280
216,232,98848,1,8
136,288,99201,2,0,L|256:344|392:280,1,280
432,192,100260,1,0
360,128,100613,1,0
272,168,100966,5,4
184,120,101318,1,4
104,184,101671,1,4
152,272,102024,6,0,B|304:272,1,140,4|0
392,256,102730,2,0,B|392:112,1,140,4|0
312,64,103436,2,0,B|160:64,1,140,4|0
120,144,104142,6,0,B|120:288,2,140,0|0|4
216,160,105201,1,8
312,184,105554,2,0,L|448:104,1,140,0|8
352,48,106260,1,0
256,72,106613,1,8
160,96,106966,2,0,L|88:224,1,140,0|8
151,290,107671,6,0,L|256:320|352:288,1,210,4|0
352,240,108377,2,0,L|256:206|152:238,1,210,4|0
112,256,109083,2,4,L|16:296,2,105,4|4|4
112,208,109789,2,4,L|16:168,2,105
