osu file format v8

[General]
AudioFilename: 1-07 She is my wife.mp3
AudioLeadIn: 0
PreviewTime: 44822
Countdown: 0
SampleSet: Normal
StackLeniency: 0.7
Mode: 0
LetterboxInBreaks: 1

[Editor]
DistanceSpacing: 0.5
BeatDivisor: 4
GridSize: 8

[Metadata]
Title:She is my wife
Artist:SUPER STAR -MITSURU-
Creator:yeahyeahyeahhh
Version:Another
Source:Beatmania IIDX
Tags:Sirus IIDX17 Natteke Rokodo Roko-Don

[Difficulty]
HPDrainRate:7
CircleSize:4
OverallDifficulty:8
ApproachRate:8
SliderMultiplier:1.8
SliderTickRate:1

[Events]
//Background and Video events
Video,-2430,"1713.AVI"
0,0,"___Mystical____by_xXMonsterManiacXx.jpg"
//Break Periods
//Storyboard Layer 0 (Background)
//Storyboard Layer 1 (Fail)
//Storyboard Layer 2 (Pass)
//Storyboard Layer 3 (Foreground)
//Storyboard Sound Samples
//Background Colour Transformations
3,100,163,162,255

[TimingPoints]
379,705.882352941176,4,1,0,50,1,0
8849,-100,4,1,1,19,0,0
11849,-100,4,2,1,41,0,0
13261,-100,4,2,1,20,0,0
13614,-100,4,2,2,30,0,0
13967,-100,4,2,1,39,0,0
16084,-100,4,2,1,19,0,0
16437,-100,4,1,2,20,0,0
16790,-100,4,2,1,41,0,0
18908,-100,4,2,1,21,0,0
19261,-100,4,2,1,19,0,0
19437,-100,4,2,2,29,0,0
19614,-100,4,2,1,41,0,0
21731,-100,4,2,1,21,0,0
22084,-100,4,1,2,20,0,0
22437,-100,4,2,1,40,0,0
24555,-100,4,2,1,20,0,0
24908,-100,4,2,2,31,0,0
25261,-100,4,2,1,40,0,0
29496,-100,4,2,1,21,0,0
30378,-100,4,2,1,20,0,0
30496,-100,4,2,1,21,0,0
30731,-100,4,2,2,20,0,0
30849,-100,4,2,1,20,0,0
33202,-100,4,1,2,20,0,0
34084,-100,4,2,1,40,0,0
34967,-100,4,2,1,28,0,0
36202,-100,4,2,2,30,0,0
36555,-100,4,2,1,40,0,0
41849,-100,4,2,2,31,0,0
42202,-100,4,2,1,40,0,0
43948,-100,4,1,1,38,0,0
46966,352.941176470588,4,1,1,49,1,0
68054,-100,4,1,1,31,0,0
68671,-100,4,1,1,39,0,0
69201,-100,4,1,1,49,0,0
69642,-100,4,1,1,61,0,0
69995,-100,4,1,1,72,0,0
70348,-100,4,1,1,49,0,0
76701,-100,4,2,1,50,0,0
78024,-100,4,1,1,50,0,0
79524,-100,4,2,1,50,0,0
80848,-100,4,1,1,50,0,0
82348,-100,4,2,1,50,0,0
84995,-100,4,2,1,70,0,0
85171,-100,4,1,1,50,0,0
85436,-100,4,2,1,60,0,0
85524,-100,4,1,1,50,0,0
86142,-100,4,2,1,60,0,0
86230,-100,4,1,1,50,0,0
86848,-100,4,2,1,60,0,0
86936,-100,4,1,1,50,0,0
87554,-100,4,2,1,60,0,0
87642,-100,4,1,1,51,0,0
87907,-100,4,2,0,50,0,0
88966,-100,4,2,0,50,0,0
89671,-100,4,2,0,50,0,0
90730,-100,4,1,1,50,0,0
99201,-100,4,1,1,40,0,0
99907,-100,4,1,1,50,0,0
100701,-100,4,1,1,61,0,0
101054,-100,4,1,1,70,0,0
101407,-100,4,1,1,50,0,0

[Colours]
Combo1 : 17,254,176
Combo2 : 173,255,95
Combo3 : 255,88,100
Combo4 : 255,94,55

[HitObjects]
448,192,11673,1,4
448,192,12026,1,0
384,152,12202,1,4
320,192,12378,1,0
448,120,12731,5,6
384,224,13084,1,0
320,120,13437,1,4
192,120,13790,1,8
128,224,14143,1,0
64,120,14496,5,6
256,56,15026,1,6
448,120,15555,1,6
344,88,15908,5,0
256,176,16261,1,4
168,88,16614,1,4
64,192,16967,5,2
128,232,17143,1,2
192,192,17320,1,6
64,264,17673,1,0
192,320,18026,1,0
320,264,18378,5,2
384,224,18555,1,2
448,264,18731,1,2
320,184,19084,5,4
256,224,19261,1,0
192,184,19437,1,8
64,264,19790,1,2
192,320,20143,5,6
256,136,20849,1,2
320,320,21555,1,2
448,264,21908,1,4
320,184,22261,1,4
384,224,22437,5,2
448,184,22614,1,2
384,144,22790,1,2
320,104,22967,1,6
192,104,23320,1,0
256,224,23673,1,0
192,104,24026,5,6
128,144,24202,1,2
64,184,24378,1,2
64,184,24731,1,4
192,176,25084,1,8
256,64,25437,1,2
320,176,25790,1,6
448,184,26143,5,0
384,72,26496,1,0
256,136,26849,1,4
128,72,27202,1,2
128,72,27731,1,2
128,72,28261,1,2
256,64,28614,2,0,B|296:112|208:144|272:224,1,140,6|4
392,256,29673,5,6
376,264,29790,1,2
360,272,29908,1,2
344,280,30026,1,2
328,288,30143,1,2
312,296,30261,1,2
296,304,30378,1,6
280,312,30496,1,2
264,320,30614,1,2
248,312,30731,5,10
232,304,30849,1,2
216,296,30967,1,2
200,288,31084,1,2
184,280,31202,1,2
168,272,31320,1,2
152,264,31437,1,6
136,256,32143,5,2
126,252,32849,1,2
256,40,33378,5,4
256,48,33467,1,4
256,56,33555,1,4
200,144,33731,1,4
312,144,33908,1,4
312,144,34261,1,6
312,144,34614,5,0
368,192,34790,1,4
424,144,34967,1,0
312,240,35320,5,6
256,192,35496,1,2
200,240,35673,1,6
144,96,36026,5,0
368,96,36379,1,8
200,144,36731,5,2
144,192,36908,1,2
88,144,37084,1,6
256,96,37437,1,0
424,144,37790,1,0
256,192,38143,1,4
256,192,38496,5,6
88,280,39026,1,2
256,352,39555,1,2
256,352,39908,1,6
424,280,40437,5,4
368,232,40614,1,0
256,280,40967,1,4
144,232,41320,1,0
256,176,41673,1,4
144,232,42026,1,8
88,104,42379,5,2
144,152,42555,1,2
200,104,42731,1,6
368,56,43084,1,0
256,152,43437,1,0
144,56,43790,1,4
32,152,44143,1,4
256,192,45555,12,0,46966
128,192,48377,5,0
384,192,49789,1,0
256,128,51201,5,4
256,128,51377,1,4
256,128,51554,1,4
176,224,51907,5,0
256,280,52083,1,0
336,224,52260,1,0
208,64,52436,5,0
208,64,52524,1,0
208,64,52613,1,4
208,64,52789,2,0,B|112:80,1,90,0|8
176,160,53142,2,0,B|80:176,1,90
336,128,53495,2,0,B|240:144,1,90,0|8
208,64,53848,5,0
176,240,54024,1,0
304,320,54201,2,0,B|400:304,1,90,0|8
336,224,54554,2,0,B|432:208,1,90
176,256,54907,2,0,B|272:240,1,90,0|8
304,320,55260,5,0
336,128,55436,1,0
314,133,55524,1,0
290,137,55613,1,0
266,141,55701,1,0
243,145,55789,1,8
219,149,55877,1,0
195,153,55966,1,0
172,158,56054,1,0
148,162,56142,1,8
125,166,56230,1,0
101,170,56318,1,0
77,174,56407,1,0
54,178,56495,2,0,B|6:186,4,45,8|0|0|0|4
256,88,57113,5,4
416,192,57377,1,4
416,192,57554,1,4
256,264,57818,1,4
96,192,58083,1,4
96,192,58260,1,4
200,352,58966,5,0
296,320,59142,1,0
296,320,59230,1,0
296,320,59318,2,0,B|328:376,2,60
400,312,59671,6,0,B|432:264|384:200,1,90,4|0
280,144,60024,2,0,B|248:192|296:256,1,90,8|0
400,157,60377,2,0,B|432:120|400:72,1,90,0|0
280,144,60730,5,8
112,72,60907,1,0
32,208,61083,6,8,B|96:296,1,90,0|0
160,160,61436,2,0,B|176:248,1,90,8|0
280,144,61789,2,0,B|280:240,1,90,0|0
400,158,62142,1,8
400,312,62318,5,0
400,312,62407,1,0
400,312,62495,1,0
400,160,62671,1,0
280,234,62848,1,8
160,160,63024,5,0
160,160,63113,1,0
160,160,63201,1,0
280,232,63377,1,0
160,160,63554,1,8
160,312,63730,1,0
400,312,63907,6,0,B|304:304,1,90,0|0
120,248,64260,2,0,B|216:240,1,90,8|0
320,152,64613,1,0
116,122,64789,5,0
139,116,64877,1,0
162,111,64966,1,8
186,104,65054,1,0
209,100,65142,1,0
233,94,65230,1,0
255,89,65318,6,0,B|349:67,1,90,4|0
379,278,65671,2,0,B|359:191,1,90,8|0
360,192,65936,1,0
360,192,66024,1,0
169,315,66201,2,0,B|257:295,1,90,0|8
132,105,66554,2,0,B|153:193,1,90,0|0
342,68,66907,5,0
440,176,67083,1,8
280,208,67260,1,8
280,208,67348,1,0
280,208,67436,2,0,B|184:232,1,90,0|0
80,136,67789,2,0,B|176:112,1,90,8|0
40,256,68142,5,0
64,272,68230,1,0
88,288,68318,1,0
112,304,68407,1,0
136,288,68495,1,0
160,272,68583,1,0
184,256,68671,5,0
208,272,68760,1,0
232,288,68848,1,0
256,304,68936,1,0
280,288,69024,1,0
304,272,69113,1,0
328,256,69201,1,0
352,272,69289,1,0
376,288,69377,1,0
400,304,69466,1,0
424,288,69554,1,0
360,152,69730,6,0,B|400:144,4,22.5,0|0|0|0|4
151,116,70083,6,0,B|111:123,4,22.5,0|0|0|0|4
176,112,70348,1,0
199,109,70436,1,0
223,106,70524,1,0
247,104,70613,1,4
271,101,70701,1,0
295,99,70789,1,0
319,96,70877,1,0
343,94,70966,1,4
392,224,71142,5,0
448,128,71318,1,8
344,320,71495,1,0
320,312,71583,1,0
296,304,71671,1,4
120,224,71848,5,0
64,128,72024,1,8
168,320,72201,1,0
192,312,72289,1,0
216,304,72377,1,4
392,224,72554,5,0
343,94,72730,1,8
169,94,72907,1,0
120,224,73083,1,4
256,352,73348,5,0
256,352,73436,1,0
256,224,73613,1,0
392,320,73789,5,4
416,320,73877,1,0
440,312,73966,1,0
456,296,74054,1,0
472,272,74142,1,8
480,248,74230,1,0
480,224,74318,1,0
472,200,74407,1,0
456,176,74495,5,0
432,160,74583,1,0
408,152,74671,1,0
384,152,74760,1,0
360,160,74848,1,8
336,168,74936,1,0
312,176,75024,1,0
288,184,75113,1,0
264,192,75201,5,0
240,200,75289,1,0
216,208,75377,1,0
192,216,75466,1,0
168,224,75554,1,8
144,232,75642,1,0
120,240,75730,1,0
96,240,75818,1,0
72,232,75907,5,0
48,216,75995,1,0
32,192,76083,1,0
24,168,76171,1,0
24,144,76260,1,8
32,120,76348,1,0
48,96,76436,1,0
64,80,76524,1,0
88,72,76613,1,4
192,40,76789,5,2
320,40,77142,1,2
320,40,77495,5,2
424,72,77671,1,0
320,40,77848,1,2
192,104,78201,5,4
88,72,78377,1,4
320,136,78730,5,4
192,248,78995,1,4
320,248,79260,1,0
320,248,79348,1,0
320,248,79436,1,4
320,344,79613,5,2
192,344,79966,1,2
192,344,80318,5,2
88,312,80495,1,0
192,344,80671,1,2
320,280,81024,5,0
424,312,81201,1,0
192,248,81554,5,0
320,136,81818,1,0
192,136,82083,1,0
192,136,82171,1,0
192,136,82260,1,0
192,136,82436,5,2
136,248,82789,1,2
256,320,83142,1,2
376,248,83495,1,2
320,136,83848,1,2
432,152,84201,5,2
256,64,84554,1,2
80,152,84907,1,2
88,64,85083,5,4
64,64,85171,1,0
40,72,85260,1,0
24,88,85348,1,0
8,112,85436,1,8
0,136,85524,1,0
0,160,85613,1,0
8,184,85701,1,0
24,208,85789,5,0
48,224,85877,1,0
72,232,85966,1,0
96,232,86054,1,0
120,224,86142,1,8
144,216,86230,1,0
168,200,86318,1,0
192,192,86407,1,0
216,192,86495,5,0
240,200,86583,1,0
264,208,86671,1,0
288,224,86760,1,0
312,232,86848,1,8
336,232,86936,1,0
360,224,87024,1,0
384,208,87113,1,0
408,192,87201,5,0
432,192,87289,1,0
456,200,87377,1,0
472,216,87466,1,0
488,240,87554,1,8
496,264,87642,1,0
496,288,87730,1,0
488,312,87818,1,0
472,336,87907,5,4
472,336,89318,1,2
328,352,90024,5,2
304,344,90113,1,2
280,336,90201,1,2
256,328,90289,1,2
232,320,90377,1,2
208,312,90466,1,2
184,304,90554,1,2
160,296,90642,1,2
136,288,90730,6,0,B|48:256,1,90,4|0
32,240,90995,1,0
16,216,91083,1,8
8,192,91171,2,0,B|2:145|53:122,1,90
152,40,91524,6,0,B|192:72|233:73,1,90
256,80,91789,1,8
280,80,91877,1,0
304,80,91966,1,0
328,72,92054,1,0
352,64,92142,6,0,B|400:48|464:72,1,90
464,72,92407,1,0
488,192,92583,2,0,B|432:208|392:184,3,90
376,176,93201,1,8
352,168,93289,1,0
328,160,93377,1,0
304,160,93466,1,0
280,160,93554,5,0
256,168,93642,1,0
232,176,93730,1,0
208,184,93818,2,0,B|160:200|120:176,1,90
144,64,94171,6,0,B|80:48|40:112,1,90
8,168,94524,1,0
0,192,94613,1,8
0,216,94701,1,0
8,240,94789,1,0
24,264,94877,1,0
48,272,94966,5,0
72,272,95054,1,0
96,264,95142,1,0
120,256,95230,1,0
144,272,95318,5,8
168,264,95407,1,0
192,256,95495,1,0
216,248,95583,1,0
240,264,95671,5,0
264,256,95760,1,0
288,248,95848,1,0
312,240,95936,1,0
336,256,96024,5,0
304,144,96201,1,0
416,144,96377,5,4
440,144,96466,1,0
464,160,96554,1,0
480,184,96642,1,0
488,208,96730,1,8
488,232,96818,2,0,B|472:288|416:280,1,90
312,240,97171,1,0
192,256,97348,5,0
168,264,97436,1,8
144,272,97524,1,0
120,272,97613,1,0
96,264,97701,1,0
80,248,97789,5,0
64,224,97877,1,0
56,200,97966,1,0
56,176,98054,1,0
64,152,98142,1,8
80,128,98230,2,0,B|112:88|168:104,1,90
256,136,98583,1,0
352,176,98760,5,0
376,184,98848,1,8
400,192,98936,1,0
424,192,99024,1,0
448,184,99113,1,0
464,168,99201,5,0
480,144,99289,1,0
488,120,99377,1,0
488,96,99466,1,0
480,72,99554,1,8
464,56,99642,1,0
440,40,99730,5,0
416,32,99818,1,0
392,24,99907,1,0
368,24,99995,1,0
344,32,100083,1,0
320,40,100171,1,0
296,48,100260,1,8
272,56,100348,1,0
248,64,100436,1,0
224,72,100524,1,0
200,72,100613,1,0
136,144,100789,6,0,B|112:136,4,22.5,0|0|0|0|4
368,160,101142,6,0,B|392:152,4,22.5,0|0|0|0|4
344,168,101407,1,0
320,176,101495,1,0
296,184,101583,1,0
272,192,101671,1,4
248,200,101760,1,0
224,208,101848,1,0
200,216,101936,1,0
176,224,102024,1,4
72,192,102201,5,0
200,120,102377,1,8
312,264,102554,1,0
312,264,102642,1,0
312,264,102730,1,4
440,192,102907,5,0
312,120,103083,1,8
200,264,103260,1,0
200,264,103348,1,0
200,264,103436,1,4
184,144,103613,2,0,B|224:120|224:64,1,90,0|8
328,144,103966,2,0,B|288:120|288:64,1,90
256,224,104407,5,0
256,224,104495,1,0
256,328,104671,1,0
120,320,104848,5,4
96,320,104936,1,0
72,312,105024,1,0
56,296,105113,1,0
40,272,105201,1,8
32,248,105289,1,0
32,224,105377,1,0
40,200,105466,1,0
56,176,105554,5,0
80,160,105642,1,0
104,152,105730,1,0
128,152,105818,1,0
152,160,105907,1,8
176,168,105995,1,0
200,176,106083,1,0
224,184,106171,1,0
248,192,106260,5,0
272,200,106348,1,0
296,208,106436,1,0
320,216,106524,1,0
344,224,106613,1,8
368,232,106701,1,0
392,240,106789,1,0
416,240,106877,1,0
440,232,106966,5,0
464,216,107054,1,0
480,192,107142,1,0
488,168,107230,1,0
488,144,107318,1,8
480,120,107407,1,0
464,96,107495,1,0
448,80,107583,1,0
424,72,107671,5,4
400,72,107760,1,0
376,80,107848,1,0
352,88,107936,1,0
328,88,108024,1,8
304,80,108113,1,0
280,72,108201,1,0
256,72,108289,1,0
232,80,108377,5,4
208,88,108466,1,0
184,88,108554,1,0
160,80,108642,1,0
136,64,108730,2,0,B|104:40,8,22.5,0|0|0|0|0|0|0|0|4
112,192,109348,5,4
256,248,109613,1,4
328,160,109789,1,4
256,40,110054,1,4
136,64,110318,1,4
