osu file format v14

[General]
AudioFilename: [SDVX III ] She is my wife [EXH].mp3
AudioLeadIn: 0
PreviewTime: -1
Countdown: 1
SampleSet: Normal
StackLeniency: 0.7
Mode: 3
LetterboxInBreaks: 1
SpecialStyle: 0
WidescreenStoryboard: 0

[Editor]
DistanceSpacing: 1
BeatDivisor: 16
GridSize: 8
TimelineZoom: 2.4

[Metadata]
Title:She is my wife
TitleUnicode:She is my wife
Artist:SUPER STAR -MITSURU-
ArtistUnicode:SUPER STAR 満-MITSURU-
Creator:Hellgert
Version:Your wife
Source:SOUND VOLTEX III -GRAVITY WAS-
Tags:
BeatmapID:937438
BeatmapSetID:435164

[Difficulty]
HPDrainRate:8
CircleSize:4
OverallDifficulty:8
ApproachRate:5
SliderMultiplier:1.4
SliderTickRate:1

[Events]
//Background and Video events
0,0,"mzi.mbieyiql.1200x1200-75.jpg",0,0
//Break Periods
//Storyboard Layer 0 (Background)
//Storyboard Layer 1 (Fail)
//Storyboard Layer 2 (Pass)
//Storyboard Layer 3 (Foreground)
//Storyboard Sound Samples

[TimingPoints]
615,705.882352941176,4,1,0,30,1,0
47243,352.941176470588,4,1,0,30,1,0

[HitObjects]
448,192,615,5,0,0:0:0:0:
64,192,615,1,0,0:0:0:0:
448,192,1085,1,0,0:0:0:0:
192,192,1556,1,0,0:0:0:0:
448,192,1791,1,0,0:0:0:0:
192,192,2026,1,0,0:0:0:0:
320,192,2262,1,0,0:0:0:0:
448,192,2497,1,0,0:0:0:0:
192,192,2614,1,0,0:0:0:0:
320,192,2732,1,0,0:0:0:0:
448,192,2850,1,0,0:0:0:0:
192,192,2967,1,0,0:0:0:0:
320,192,3085,1,0,0:0:0:0:
448,192,3203,1,0,0:0:0:0:
320,192,3320,1,0,0:0:0:0:
192,192,3438,1,0,0:0:0:0:
64,192,3556,1,0,0:0:0:0:
192,192,3673,1,0,0:0:0:0:
320,192,3791,1,0,0:0:0:0:
448,192,3909,1,0,0:0:0:0:
320,192,4026,1,0,0:0:0:0:
64,192,4144,1,0,0:0:0:0:
192,192,4262,1,0,0:0:0:0:
320,192,4379,1,0,0:0:0:0:
448,192,4497,1,0,0:0:0:0:
192,192,4614,1,0,0:0:0:0:
320,192,4732,1,0,0:0:0:0:
448,192,4850,1,0,0:0:0:0:
320,192,4967,1,0,0:0:0:0:
192,192,5085,1,0,0:0:0:0:
64,192,5203,1,0,0:0:0:0:
448,192,5438,1,0,0:0:0:0:
192,192,5673,1,0,0:0:0:0:
192,192,5909,1,0,0:0:0:0:
64,192,5909,1,0,0:0:0:0:
320,192,7438,1,0,0:0:0:0:
448,192,7438,1,0,0:0:0:0:
448,192,10497,1,0,0:0:0:0:
64,192,10732,1,0,0:0:0:0:
320,192,10967,1,0,0:0:0:0:
448,192,11203,1,0,0:0:0:0:
320,192,11438,1,0,0:0:0:0:
64,192,11673,1,0,0:0:0:0:
192,192,11909,1,0,0:0:0:0:
448,192,12262,1,0,0:0:0:0:
192,192,12438,1,0,0:0:0:0:
192,192,12614,1,0,0:0:0:0:
320,192,12967,1,0,0:0:0:0:
448,192,13320,1,0,0:0:0:0:
64,192,13673,1,0,0:0:0:0:
448,192,14026,1,0,0:0:0:0:
192,192,14379,1,0,0:0:0:0:
448,192,14732,1,0,0:0:0:0:
320,192,15203,1,0,0:0:0:0:
192,192,15791,1,0,0:0:0:0:
448,192,16497,1,0,0:0:0:0:
448,192,16585,1,0,0:0:0:0:
448,192,16673,1,0,0:0:0:0:
448,192,16762,1,0,0:0:0:0:
448,192,16850,1,0,0:0:0:0:
192,192,16850,1,0,0:0:0:0:
64,192,16850,1,0,0:0:0:0:
320,192,17203,1,0,0:0:0:0:
448,192,17379,1,0,0:0:0:0:
448,192,17556,1,0,0:0:0:0:
192,192,17909,1,0,0:0:0:0:
448,192,18262,1,0,0:0:0:0:
320,192,18614,1,0,0:0:0:0:
192,192,18791,1,0,0:0:0:0:
192,192,18967,1,0,0:0:0:0:
448,192,19320,1,0,0:0:0:0:
192,192,19673,1,0,0:0:0:0:
448,192,20026,1,0,0:0:0:0:
320,192,20379,1,0,0:0:0:0:
320,192,21085,1,0,0:0:0:0:
64,192,21791,1,0,0:0:0:0:
320,192,22497,1,0,0:0:0:0:
192,192,22497,1,0,0:0:0:0:
64,192,22497,1,0,0:0:0:0:
448,192,22673,1,0,0:0:0:0:
448,192,22850,1,0,0:0:0:0:
192,192,23026,1,0,0:0:0:0:
192,192,23203,1,0,0:0:0:0:
448,192,23556,1,0,0:0:0:0:
64,192,23909,1,0,0:0:0:0:
320,192,24262,1,0,0:0:0:0:
448,192,24438,1,0,0:0:0:0:
448,192,24614,1,0,0:0:0:0:
192,192,24967,1,0,0:0:0:0:
320,192,25144,1,0,0:0:0:0:
448,192,25673,1,0,0:0:0:0:
192,192,26026,1,0,0:0:0:0:
192,192,26379,1,0,0:0:0:0:
448,192,26732,1,0,0:0:0:0:
320,192,27085,1,0,0:0:0:0:
192,192,27438,1,0,0:0:0:0:
448,192,27909,1,0,0:0:0:0:
192,192,28497,1,0,0:0:0:0:
448,192,28850,1,0,0:0:0:0:
320,192,29203,1,0,0:0:0:0:
192,192,29556,1,0,0:0:0:0:
448,192,29909,1,0,0:0:0:0:
320,192,30026,1,0,0:0:0:0:
64,192,30144,1,0,0:0:0:0:
320,192,30262,1,0,0:0:0:0:
192,192,30379,1,0,0:0:0:0:
320,192,30497,1,0,0:0:0:0:
448,192,30614,1,0,0:0:0:0:
64,192,30732,1,0,0:0:0:0:
320,192,30850,1,0,0:0:0:0:
64,192,30967,1,0,0:0:0:0:
448,192,31085,1,0,0:0:0:0:
192,192,31203,1,0,0:0:0:0:
320,192,31320,1,0,0:0:0:0:
448,192,31438,1,0,0:0:0:0:
320,192,31556,1,0,0:0:0:0:
64,192,31673,1,0,0:0:0:0:
320,192,31673,1,0,0:0:0:0:
448,192,31673,1,0,0:0:0:0:
320,192,32379,1,0,0:0:0:0:
448,192,33085,1,0,0:0:0:0:
320,192,33791,1,0,0:0:0:0:
320,192,33967,1,0,0:0:0:0:
320,192,34144,1,0,0:0:0:0:
192,192,34497,1,0,0:0:0:0:
320,192,34850,1,0,0:0:0:0:
448,192,35203,1,0,0:0:0:0:
320,192,35556,1,0,0:0:0:0:
320,192,35732,1,0,0:0:0:0:
320,192,35909,1,0,0:0:0:0:
192,192,36262,1,0,0:0:0:0:
320,192,36614,1,0,0:0:0:0:
64,192,36967,1,0,0:0:0:0:
64,192,37144,1,0,0:0:0:0:
64,192,37320,1,0,0:0:0:0:
320,192,37673,1,0,0:0:0:0:
448,192,38026,1,0,0:0:0:0:
192,192,38379,1,0,0:0:0:0:
448,192,38732,1,0,0:0:0:0:
192,192,39203,1,0,0:0:0:0:
64,192,39438,1,0,0:0:0:0:
320,192,39438,1,0,0:0:0:0:
448,192,39438,1,0,0:0:0:0:
448,192,39791,1,0,0:0:0:0:
448,192,40144,1,0,0:0:0:0:
64,192,40497,1,0,0:0:0:0:
320,192,40850,1,0,0:0:0:0:
448,192,41203,1,0,0:0:0:0:
192,192,41556,1,0,0:0:0:0:
320,192,41909,1,0,0:0:0:0:
448,192,42262,1,0,0:0:0:0:
320,192,42614,1,0,0:0:0:0:
320,192,42791,1,0,0:0:0:0:
320,192,42967,1,0,0:0:0:0:
448,192,43320,1,0,0:0:0:0:
64,192,43673,1,0,0:0:0:0:
320,192,44026,1,0,0:0:0:0:
192,192,44379,1,0,0:0:0:0:
64,192,44379,1,0,0:0:0:0:
448,192,44379,1,0,0:0:0:0:
448,192,47243,1,0,0:0:0:0:
64,192,47243,1,0,0:0:0:0:
320,192,47331,1,0,0:0:0:0:
448,192,47507,1,0,0:0:0:0:
192,192,47772,1,0,0:0:0:0:
448,192,47948,1,0,0:0:0:0:
320,192,48125,1,0,0:0:0:0:
192,192,48213,1,0,0:0:0:0:
64,192,48301,1,0,0:0:0:0:
192,192,48390,1,0,0:0:0:0:
320,192,48478,1,0,0:0:0:0:
448,192,48654,1,0,0:0:0:0:
64,192,48654,1,0,0:0:0:0:
192,192,48743,1,0,0:0:0:0:
320,192,48919,1,0,0:0:0:0:
192,192,49184,1,0,0:0:0:0:
320,192,49360,1,0,0:0:0:0:
320,192,49537,1,0,0:0:0:0:
192,192,49625,1,0,0:0:0:0:
64,192,49713,1,0,0:0:0:0:
448,192,49713,1,0,0:0:0:0:
320,192,49801,1,0,0:0:0:0:
192,192,49801,1,0,0:0:0:0:
448,192,49890,1,0,0:0:0:0:
64,192,49890,1,0,0:0:0:0:
192,192,49978,1,0,0:0:0:0:
320,192,49978,1,0,0:0:0:0:
448,192,50066,1,0,0:0:0:0:
64,192,50066,1,0,0:0:0:0:
192,192,50154,1,0,0:0:0:0:
448,192,50331,1,0,0:0:0:0:
192,192,50595,1,0,0:0:0:0:
448,192,50772,1,0,0:0:0:0:
64,192,50772,1,0,0:0:0:0:
192,192,50948,1,0,0:0:0:0:
448,192,51037,1,0,0:0:0:0:
64,192,51125,1,0,0:0:0:0:
320,192,51213,1,0,0:0:0:0:
192,192,51301,1,0,0:0:0:0:
320,192,51478,1,0,0:0:0:0:
448,192,51478,1,0,0:0:0:0:
64,192,51478,1,0,0:0:0:0:
64,192,51654,1,0,0:0:0:0:
320,192,51654,1,0,0:0:0:0:
448,192,51654,1,0,0:0:0:0:
64,192,51831,1,0,0:0:0:0:
320,192,51831,1,0,0:0:0:0:
448,192,51831,1,0,0:0:0:0:
448,192,52007,128,0,52184:0:0:0:0:
64,192,52184,128,0,52360:0:0:0:0:
320,192,52360,128,0,52537:0:0:0:0:
448,192,52537,128,0,52890:0:0:0:0:
192,192,52713,128,0,52890:0:0:0:0:
64,192,52890,1,0,0:0:0:0:
320,192,52890,1,0,0:0:0:0:
320,192,53066,1,0,0:0:0:0:
448,192,53243,1,0,0:0:0:0:
64,192,53243,1,0,0:0:0:0:
192,192,53419,1,0,0:0:0:0:
320,192,53595,1,0,0:0:0:0:
448,192,53595,1,0,0:0:0:0:
192,192,53772,1,0,0:0:0:0:
448,192,53948,1,0,0:0:0:0:
64,192,53948,1,0,0:0:0:0:
192,192,54125,1,0,0:0:0:0:
320,192,54301,1,0,0:0:0:0:
448,192,54301,1,0,0:0:0:0:
192,192,54478,1,0,0:0:0:0:
320,192,54654,1,0,0:0:0:0:
64,192,54654,1,0,0:0:0:0:
448,192,54831,1,0,0:0:0:0:
192,192,54831,128,0,55007:0:0:0:0:
320,192,55007,1,0,0:0:0:0:
64,192,55007,1,0,0:0:0:0:
448,192,55125,1,0,0:0:0:0:
192,192,55125,1,0,0:0:0:0:
64,192,55242,1,0,0:0:0:0:
320,192,55242,1,0,0:0:0:0:
320,192,55360,1,0,0:0:0:0:
448,192,55360,1,0,0:0:0:0:
192,192,55404,1,0,0:0:0:0:
320,192,55426,1,0,0:0:0:0:
64,192,55448,1,0,0:0:0:0:
192,192,55470,1,0,0:0:0:0:
448,192,55492,1,0,0:0:0:0:
320,192,55515,1,0,0:0:0:0:
64,192,55537,1,0,0:0:0:0:
192,192,55559,1,0,0:0:0:0:
320,192,55581,1,0,0:0:0:0:
448,192,55603,1,0,0:0:0:0:
192,192,55625,1,0,0:0:0:0:
320,192,55647,1,0,0:0:0:0:
64,192,55669,1,0,0:0:0:0:
448,192,55691,1,0,0:0:0:0:
192,192,55713,1,0,0:0:0:0:
320,192,55713,1,0,0:0:0:0:
64,192,55801,1,0,0:0:0:0:
448,192,55890,1,0,0:0:0:0:
448,192,56066,1,0,0:0:0:0:
192,192,56066,1,0,0:0:0:0:
320,192,56154,1,0,0:0:0:0:
64,192,56242,1,0,0:0:0:0:
448,192,56242,1,0,0:0:0:0:
192,192,56331,1,0,0:0:0:0:
320,192,56419,1,0,0:0:0:0:
448,192,56419,1,0,0:0:0:0:
64,192,56507,1,0,0:0:0:0:
192,192,56595,1,0,0:0:0:0:
320,192,56595,1,0,0:0:0:0:
448,192,56684,1,0,0:0:0:0:
192,192,56772,1,0,0:0:0:0:
64,192,56772,1,0,0:0:0:0:
320,192,56860,1,0,0:0:0:0:
448,192,56860,1,0,0:0:0:0:
448,192,56948,1,0,0:0:0:0:
64,192,56948,1,0,0:0:0:0:
192,192,57037,1,0,0:0:0:0:
320,192,57037,1,0,0:0:0:0:
320,192,57125,1,0,0:0:0:0:
448,192,57125,1,0,0:0:0:0:
64,192,57125,1,0,0:0:0:0:
448,192,57390,1,0,0:0:0:0:
192,192,57390,1,0,0:0:0:0:
64,192,57390,1,0,0:0:0:0:
64,192,57654,1,0,0:0:0:0:
192,192,57654,1,0,0:0:0:0:
320,192,57654,1,0,0:0:0:0:
192,192,57831,1,0,0:0:0:0:
320,192,57831,1,0,0:0:0:0:
448,192,57831,1,0,0:0:0:0:
448,192,58095,1,0,0:0:0:0:
320,192,58095,1,0,0:0:0:0:
64,192,58095,1,0,0:0:0:0:
64,192,58360,1,0,0:0:0:0:
192,192,58360,1,0,0:0:0:0:
320,192,58360,1,0,0:0:0:0:
192,192,58537,1,0,0:0:0:0:
320,192,58537,1,0,0:0:0:0:
448,192,58537,1,0,0:0:0:0:
64,192,58625,1,0,0:0:0:0:
192,192,58713,1,0,0:0:0:0:
320,192,58801,1,0,0:0:0:0:
448,192,58890,1,0,0:0:0:0:
64,192,58978,1,0,0:0:0:0:
192,192,59066,1,0,0:0:0:0:
320,192,59154,1,0,0:0:0:0:
448,192,59242,1,0,0:0:0:0:
320,192,59419,1,0,0:0:0:0:
192,192,59507,1,0,0:0:0:0:
64,192,59595,1,0,0:0:0:0:
192,192,59684,1,0,0:0:0:0:
320,192,59772,1,0,0:0:0:0:
448,192,59860,1,0,0:0:0:0:
320,192,59948,1,0,0:0:0:0:
64,192,59948,1,0,0:0:0:0:
192,192,60125,1,0,0:0:0:0:
320,192,60301,1,0,0:0:0:0:
448,192,60301,1,0,0:0:0:0:
64,192,60478,1,0,0:0:0:0:
320,192,60654,1,0,0:0:0:0:
448,192,60654,1,0,0:0:0:0:
64,192,60831,1,0,0:0:0:0:
320,192,60919,1,0,0:0:0:0:
192,192,61007,1,0,0:0:0:0:
448,192,61007,1,0,0:0:0:0:
320,192,61184,1,0,0:0:0:0:
192,192,61360,1,0,0:0:0:0:
64,192,61360,1,0,0:0:0:0:
320,192,61537,1,0,0:0:0:0:
448,192,61713,1,0,0:0:0:0:
64,192,61713,1,0,0:0:0:0:
192,192,61890,1,0,0:0:0:0:
320,192,62066,1,0,0:0:0:0:
448,192,62066,1,0,0:0:0:0:
192,192,62242,1,0,0:0:0:0:
64,192,62242,1,0,0:0:0:0:
320,192,62419,1,0,0:0:0:0:
448,192,62419,1,0,0:0:0:0:
64,192,62595,1,0,0:0:0:0:
320,192,62684,1,0,0:0:0:0:
192,192,62772,1,0,0:0:0:0:
448,192,62772,1,0,0:0:0:0:
320,192,62948,1,0,0:0:0:0:
192,192,63125,1,0,0:0:0:0:
64,192,63125,1,0,0:0:0:0:
320,192,63301,1,0,0:0:0:0:
448,192,63301,1,0,0:0:0:0:
320,192,63390,1,0,0:0:0:0:
448,192,63390,1,0,0:0:0:0:
64,192,63478,1,0,0:0:0:0:
192,192,63478,1,0,0:0:0:0:
320,192,63654,1,0,0:0:0:0:
448,192,63831,1,0,0:0:0:0:
64,192,63831,1,0,0:0:0:0:
192,192,64007,1,0,0:0:0:0:
320,192,64184,1,0,0:0:0:0:
448,192,64184,1,0,0:0:0:0:
64,192,64184,128,0,64537:0:0:0:0:
192,192,64537,1,0,0:0:0:0:
320,192,64537,1,0,0:0:0:0:
448,192,64537,128,0,64890:0:0:0:0:
192,192,64890,1,0,0:0:0:0:
320,192,64890,1,0,0:0:0:0:
64,192,64890,128,0,65242:0:0:0:0:
192,192,65066,1,0,0:0:0:0:
320,192,65088,1,0,0:0:0:0:
448,192,65110,1,0,0:0:0:0:
192,192,65132,1,0,0:0:0:0:
320,192,65154,1,0,0:0:0:0:
448,192,65176,1,0,0:0:0:0:
192,192,65198,1,0,0:0:0:0:
320,192,65220,1,0,0:0:0:0:
448,192,65242,1,0,0:0:0:0:
320,192,65331,1,0,0:0:0:0:
448,192,65419,1,0,0:0:0:0:
192,192,65507,1,0,0:0:0:0:
320,192,65595,1,0,0:0:0:0:
64,192,65595,1,0,0:0:0:0:
192,192,65772,1,0,0:0:0:0:
320,192,65948,1,0,0:0:0:0:
448,192,65948,1,0,0:0:0:0:
192,192,66125,1,0,0:0:0:0:
320,192,66213,1,0,0:0:0:0:
64,192,66301,1,0,0:0:0:0:
448,192,66301,1,0,0:0:0:0:
320,192,66478,1,0,0:0:0:0:
192,192,66654,1,0,0:0:0:0:
64,192,66654,1,0,0:0:0:0:
320,192,66831,1,0,0:0:0:0:
448,192,67007,1,0,0:0:0:0:
64,192,67007,1,0,0:0:0:0:
192,192,67184,1,0,0:0:0:0:
320,192,67360,1,0,0:0:0:0:
448,192,67360,1,0,0:0:0:0:
192,192,67537,1,0,0:0:0:0:
448,192,67625,1,0,0:0:0:0:
64,192,67713,1,0,0:0:0:0:
320,192,67890,1,0,0:0:0:0:
64,192,68066,1,0,0:0:0:0:
192,192,68242,1,0,0:0:0:0:
448,192,68419,1,0,0:0:0:0:
192,192,68419,1,0,0:0:0:0:
64,192,68419,1,0,0:0:0:0:
320,192,68507,1,0,0:0:0:0:
192,192,68595,1,0,0:0:0:0:
320,192,68684,1,0,0:0:0:0:
192,192,68772,1,0,0:0:0:0:
320,192,68860,1,0,0:0:0:0:
192,192,68948,1,0,0:0:0:0:
320,192,69037,1,0,0:0:0:0:
192,192,69125,1,0,0:0:0:0:
64,192,69213,1,0,0:0:0:0:
448,192,69301,1,0,0:0:0:0:
320,192,69390,1,0,0:0:0:0:
192,192,69478,1,0,0:0:0:0:
64,192,69566,1,0,0:0:0:0:
448,192,69654,1,0,0:0:0:0:
320,192,69742,1,0,0:0:0:0:
192,192,69831,1,0,0:0:0:0:
448,192,69831,1,0,0:0:0:0:
64,192,70007,1,0,0:0:0:0:
192,192,70029,1,0,0:0:0:0:
320,192,70051,1,0,0:0:0:0:
448,192,70073,1,0,0:0:0:0:
64,192,70095,1,0,0:0:0:0:
192,192,70117,1,0,0:0:0:0:
320,192,70140,1,0,0:0:0:0:
448,192,70162,1,0,0:0:0:0:
64,192,70184,1,0,0:0:0:0:
64,192,70360,1,0,0:0:0:0:
192,192,70382,1,0,0:0:0:0:
320,192,70404,1,0,0:0:0:0:
448,192,70426,1,0,0:0:0:0:
64,192,70448,1,0,0:0:0:0:
192,192,70470,1,0,0:0:0:0:
320,192,70492,1,0,0:0:0:0:
448,192,70515,1,0,0:0:0:0:
64,192,70537,1,0,0:0:0:0:
192,192,70713,1,0,0:0:0:0:
320,192,70890,1,0,0:0:0:0:
192,192,71066,1,0,0:0:0:0:
320,192,71242,1,0,0:0:0:0:
448,192,71242,1,0,0:0:0:0:
64,192,71242,128,0,71948:0:0:0:0:
192,192,71948,1,0,0:0:0:0:
320,192,71948,1,0,0:0:0:0:
448,192,71948,128,0,72654:0:0:0:0:
192,192,72654,1,0,0:0:0:0:
64,192,72654,1,0,0:0:0:0:
320,192,72654,128,0,73360:0:0:0:0:
64,192,73360,1,0,0:0:0:0:
320,192,73625,1,0,0:0:0:0:
192,192,73890,1,0,0:0:0:0:
192,192,74066,1,0,0:0:0:0:
448,192,74184,1,0,0:0:0:0:
192,192,74301,1,0,0:0:0:0:
448,192,74419,1,0,0:0:0:0:
320,192,74441,1,0,0:0:0:0:
192,192,74463,1,0,0:0:0:0:
64,192,74485,1,0,0:0:0:0:
448,192,74507,1,0,0:0:0:0:
320,192,74529,1,0,0:0:0:0:
192,192,74551,1,0,0:0:0:0:
64,192,74573,1,0,0:0:0:0:
448,192,74595,1,0,0:0:0:0:
192,192,74772,1,0,0:0:0:0:
320,192,74890,1,0,0:0:0:0:
448,192,74948,1,0,0:0:0:0:
320,192,74970,1,0,0:0:0:0:
192,192,74992,1,0,0:0:0:0:
64,192,75015,1,0,0:0:0:0:
448,192,75037,1,0,0:0:0:0:
320,192,75059,1,0,0:0:0:0:
192,192,75081,1,0,0:0:0:0:
64,192,75103,1,0,0:0:0:0:
192,192,75125,1,0,0:0:0:0:
448,192,75360,1,0,0:0:0:0:
192,192,75478,1,0,0:0:0:0:
320,192,75522,1,0,0:0:0:0:
448,192,75566,1,0,0:0:0:0:
64,192,75610,1,0,0:0:0:0:
192,192,75654,1,0,0:0:0:0:
320,192,75698,1,0,0:0:0:0:
448,192,75742,1,0,0:0:0:0:
64,192,75787,1,0,0:0:0:0:
192,192,75831,1,0,0:0:0:0:
320,192,75919,1,0,0:0:0:0:
448,192,76007,1,0,0:0:0:0:
320,192,76095,1,0,0:0:0:0:
64,192,76184,1,0,0:0:0:0:
448,192,76184,1,0,0:0:0:0:
192,192,76448,1,0,0:0:0:0:
448,192,76713,1,0,0:0:0:0:
320,192,76890,1,0,0:0:0:0:
64,192,77066,1,0,0:0:0:0:
320,192,77242,1,0,0:0:0:0:
448,192,77419,1,0,0:0:0:0:
192,192,77772,1,0,0:0:0:0:
320,192,77948,1,0,0:0:0:0:
448,192,78125,1,0,0:0:0:0:
320,192,78478,1,0,0:0:0:0:
192,192,78478,1,0,0:0:0:0:
64,192,78478,1,0,0:0:0:0:
192,192,78654,1,0,0:0:0:0:
320,192,78654,1,0,0:0:0:0:
448,192,78654,1,0,0:0:0:0:
192,192,79007,1,0,0:0:0:0:
320,192,79007,1,0,0:0:0:0:
448,192,79007,1,0,0:0:0:0:
64,192,79272,1,0,0:0:0:0:
192,192,79272,1,0,0:0:0:0:
320,192,79272,1,0,0:0:0:0:
192,192,79537,1,0,0:0:0:0:
320,192,79537,1,0,0:0:0:0:
448,192,79537,1,0,0:0:0:0:
64,192,79581,1,0,0:0:0:0:
192,192,79625,1,0,0:0:0:0:
320,192,79669,1,0,0:0:0:0:
448,192,79713,1,0,0:0:0:0:
192,192,79890,1,0,0:0:0:0:
320,192,80066,1,0,0:0:0:0:
448,192,80242,1,0,0:0:0:0:
320,192,80595,1,0,0:0:0:0:
192,192,80772,1,0,0:0:0:0:
64,192,80948,1,0,0:0:0:0:
448,192,81301,1,0,0:0:0:0:
192,192,81301,1,0,0:0:0:0:
64,192,81301,1,0,0:0:0:0:
192,192,81478,1,0,0:0:0:0:
320,192,81478,1,0,0:0:0:0:
448,192,81478,1,0,0:0:0:0:
192,192,81831,1,0,0:0:0:0:
64,192,81831,1,0,0:0:0:0:
448,192,81831,1,0,0:0:0:0:
192,192,82095,1,0,0:0:0:0:
320,192,82095,1,0,0:0:0:0:
448,192,82095,1,0,0:0:0:0:
64,192,82360,1,0,0:0:0:0:
192,192,82360,1,0,0:0:0:0:
320,192,82360,1,0,0:0:0:0:
192,192,82537,1,0,0:0:0:0:
448,192,82537,1,0,0:0:0:0:
64,192,82713,1,0,0:0:0:0:
320,192,82890,1,0,0:0:0:0:
448,192,83066,1,0,0:0:0:0:
192,192,83242,1,0,0:0:0:0:
320,192,83419,1,0,0:0:0:0:
448,192,83595,1,0,0:0:0:0:
192,192,83772,1,0,0:0:0:0:
64,192,83948,1,0,0:0:0:0:
320,192,84125,1,0,0:0:0:0:
192,192,84301,1,0,0:0:0:0:
448,192,84478,1,0,0:0:0:0:
192,192,84654,1,0,0:0:0:0:
448,192,84831,1,0,0:0:0:0:
64,192,85007,1,0,0:0:0:0:
320,192,85184,1,0,0:0:0:0:
64,192,85360,1,0,0:0:0:0:
192,192,85382,1,0,0:0:0:0:
320,192,85404,1,0,0:0:0:0:
448,192,85426,1,0,0:0:0:0:
64,192,85448,1,0,0:0:0:0:
192,192,85470,1,0,0:0:0:0:
320,192,85492,1,0,0:0:0:0:
448,192,85515,1,0,0:0:0:0:
64,192,85537,1,0,0:0:0:0:
192,192,85559,1,0,0:0:0:0:
320,192,85581,1,0,0:0:0:0:
448,192,85603,1,0,0:0:0:0:
64,192,85625,1,0,0:0:0:0:
192,192,85647,1,0,0:0:0:0:
320,192,85669,1,0,0:0:0:0:
448,192,85691,1,0,0:0:0:0:
320,192,85713,1,0,0:0:0:0:
192,192,85801,1,0,0:0:0:0:
448,192,85890,1,0,0:0:0:0:
64,192,85978,1,0,0:0:0:0:
320,192,86066,1,0,0:0:0:0:
192,192,86154,1,0,0:0:0:0:
448,192,86242,1,0,0:0:0:0:
192,192,86331,1,0,0:0:0:0:
320,192,86419,1,0,0:0:0:0:
192,192,86507,1,0,0:0:0:0:
320,192,86595,1,0,0:0:0:0:
64,192,86684,1,0,0:0:0:0:
320,192,86772,1,0,0:0:0:0:
192,192,86860,1,0,0:0:0:0:
320,192,86948,1,0,0:0:0:0:
64,192,87037,1,0,0:0:0:0:
448,192,87125,1,0,0:0:0:0:
192,192,87213,1,0,0:0:0:0:
320,192,87301,1,0,0:0:0:0:
64,192,87390,1,0,0:0:0:0:
320,192,87478,1,0,0:0:0:0:
448,192,87566,1,0,0:0:0:0:
192,192,87654,1,0,0:0:0:0:
320,192,87742,1,0,0:0:0:0:
64,192,87831,1,0,0:0:0:0:
320,192,87919,1,0,0:0:0:0:
192,192,88007,1,0,0:0:0:0:
320,192,88095,1,0,0:0:0:0:
448,192,88184,1,0,0:0:0:0:
64,192,88184,1,0,0:0:0:0:
192,192,88184,1,0,0:0:0:0:
64,192,88537,1,0,0:0:0:0:
64,192,88890,1,0,0:0:0:0:
64,192,89242,1,0,0:0:0:0:
64,192,89595,1,0,0:0:0:0:
448,192,89595,1,0,0:0:0:0:
448,192,90301,1,0,0:0:0:0:
320,192,90390,1,0,0:0:0:0:
192,192,90478,1,0,0:0:0:0:
64,192,90566,1,0,0:0:0:0:
448,192,90654,1,0,0:0:0:0:
320,192,90742,1,0,0:0:0:0:
192,192,90831,1,0,0:0:0:0:
64,192,90919,1,0,0:0:0:0:
448,192,91007,1,0,0:0:0:0:
192,192,91007,1,0,0:0:0:0:
320,192,91095,1,0,0:0:0:0:
192,192,91184,1,0,0:0:0:0:
64,192,91272,1,0,0:0:0:0:
192,192,91360,1,0,0:0:0:0:
448,192,91360,1,0,0:0:0:0:
320,192,91448,1,0,0:0:0:0:
448,192,91537,1,0,0:0:0:0:
192,192,91625,1,0,0:0:0:0:
320,192,91713,1,0,0:0:0:0:
64,192,91713,1,0,0:0:0:0:
448,192,91801,1,0,0:0:0:0:
192,192,91890,1,0,0:0:0:0:
320,192,91978,1,0,0:0:0:0:
448,192,92066,1,0,0:0:0:0:
64,192,92066,1,0,0:0:0:0:
192,192,92154,1,0,0:0:0:0:
320,192,92242,1,0,0:0:0:0:
448,192,92331,1,0,0:0:0:0:
320,192,92419,1,0,0:0:0:0:
64,192,92419,1,0,0:0:0:0:
192,192,92507,1,0,0:0:0:0:
320,192,92595,1,0,0:0:0:0:
448,192,92684,1,0,0:0:0:0:
192,192,92772,1,0,0:0:0:0:
64,192,92772,1,0,0:0:0:0:
320,192,92860,1,0,0:0:0:0:
448,192,92948,1,0,0:0:0:0:
64,192,93037,1,0,0:0:0:0:
320,192,93125,1,0,0:0:0:0:
448,192,93125,1,0,0:0:0:0:
192,192,93213,1,0,0:0:0:0:
448,192,93301,1,0,0:0:0:0:
192,192,93390,1,0,0:0:0:0:
320,192,93478,1,0,0:0:0:0:
448,192,93478,1,0,0:0:0:0:
64,192,93566,1,0,0:0:0:0:
192,192,93654,1,0,0:0:0:0:
320,192,93742,1,0,0:0:0:0:
448,192,93831,1,0,0:0:0:0:
64,192,93831,1,0,0:0:0:0:
192,192,93919,1,0,0:0:0:0:
320,192,94007,1,0,0:0:0:0:
64,192,94095,1,0,0:0:0:0:
192,192,94184,1,0,0:0:0:0:
320,192,94184,1,0,0:0:0:0:
448,192,94272,1,0,0:0:0:0:
192,192,94360,1,0,0:0:0:0:
320,192,94448,1,0,0:0:0:0:
448,192,94537,1,0,0:0:0:0:
64,192,94537,1,0,0:0:0:0:
192,192,94625,1,0,0:0:0:0:
320,192,94713,1,0,0:0:0:0:
448,192,94801,1,0,0:0:0:0:
192,192,94890,1,0,0:0:0:0:
64,192,94890,1,0,0:0:0:0:
320,192,94978,1,0,0:0:0:0:
448,192,95066,1,0,0:0:0:0:
192,192,95154,1,0,0:0:0:0:
64,192,95242,1,0,0:0:0:0:
320,192,95242,1,0,0:0:0:0:
448,192,95242,1,0,0:0:0:0:
192,192,95331,1,0,0:0:0:0:
448,192,95419,1,0,0:0:0:0:
320,192,95507,1,0,0:0:0:0:
64,192,95595,1,0,0:0:0:0:
192,192,95595,1,0,0:0:0:0:
448,192,95595,1,0,0:0:0:0:
320,192,95684,1,0,0:0:0:0:
64,192,95772,1,0,0:0:0:0:
192,192,95860,1,0,0:0:0:0:
320,192,95948,1,0,0:0:0:0:
64,192,95948,1,0,0:0:0:0:
448,192,95948,1,0,0:0:0:0:
192,192,96037,1,0,0:0:0:0:
320,192,96125,1,0,0:0:0:0:
64,192,96213,1,0,0:0:0:0:
192,192,96301,1,0,0:0:0:0:
448,192,96301,1,0,0:0:0:0:
320,192,96301,1,0,0:0:0:0:
64,192,96390,1,0,0:0:0:0:
192,192,96478,1,0,0:0:0:0:
320,192,96566,1,0,0:0:0:0:
192,192,96654,1,0,0:0:0:0:
64,192,96654,1,0,0:0:0:0:
320,192,96742,1,0,0:0:0:0:
448,192,96831,1,0,0:0:0:0:
64,192,96919,1,0,0:0:0:0:
192,192,97007,1,0,0:0:0:0:
320,192,97007,1,0,0:0:0:0:
448,192,97095,1,0,0:0:0:0:
64,192,97184,1,0,0:0:0:0:
320,192,97272,1,0,0:0:0:0:
192,192,97360,1,0,0:0:0:0:
448,192,97360,1,0,0:0:0:0:
320,192,97448,1,0,0:0:0:0:
192,192,97537,1,0,0:0:0:0:
64,192,97625,1,0,0:0:0:0:
192,192,97713,1,0,0:0:0:0:
320,192,97713,1,0,0:0:0:0:
448,192,97801,1,0,0:0:0:0:
64,192,97890,1,0,0:0:0:0:
320,192,97978,1,0,0:0:0:0:
192,192,98066,1,0,0:0:0:0:
448,192,98066,1,0,0:0:0:0:
320,192,98154,1,0,0:0:0:0:
192,192,98242,1,0,0:0:0:0:
64,192,98331,1,0,0:0:0:0:
320,192,98419,1,0,0:0:0:0:
448,192,98419,1,0,0:0:0:0:
192,192,98507,1,0,0:0:0:0:
320,192,98595,1,0,0:0:0:0:
192,192,98684,1,0,0:0:0:0:
320,192,98772,1,0,0:0:0:0:
64,192,98772,1,0,0:0:0:0:
192,192,98860,1,0,0:0:0:0:
320,192,98948,1,0,0:0:0:0:
64,192,99037,1,0,0:0:0:0:
192,192,99125,1,0,0:0:0:0:
320,192,99125,1,0,0:0:0:0:
448,192,99213,1,0,0:0:0:0:
64,192,99301,1,0,0:0:0:0:
320,192,99390,1,0,0:0:0:0:
64,192,99478,1,0,0:0:0:0:
192,192,99478,1,0,0:0:0:0:
64,192,99654,1,0,0:0:0:0:
320,192,99654,1,0,0:0:0:0:
64,192,99831,1,0,0:0:0:0:
192,192,99831,1,0,0:0:0:0:
448,192,99919,1,0,0:0:0:0:
64,192,100007,1,0,0:0:0:0:
448,192,100095,1,0,0:0:0:0:
64,192,100184,1,0,0:0:0:0:
192,192,100272,1,0,0:0:0:0:
320,192,100360,1,0,0:0:0:0:
448,192,100448,1,0,0:0:0:0:
192,192,100537,1,0,0:0:0:0:
320,192,100625,1,0,0:0:0:0:
448,192,100713,1,0,0:0:0:0:
64,192,100801,1,0,0:0:0:0:
192,192,100890,1,0,0:0:0:0:
320,192,100978,1,0,0:0:0:0:
448,192,101066,1,0,0:0:0:0:
320,192,101088,1,0,0:0:0:0:
192,192,101110,1,0,0:0:0:0:
64,192,101132,1,0,0:0:0:0:
448,192,101154,1,0,0:0:0:0:
320,192,101176,1,0,0:0:0:0:
192,192,101198,1,0,0:0:0:0:
64,192,101220,1,0,0:0:0:0:
192,192,101242,1,0,0:0:0:0:
64,192,101419,1,0,0:0:0:0:
192,192,101441,1,0,0:0:0:0:
320,192,101463,1,0,0:0:0:0:
448,192,101485,1,0,0:0:0:0:
64,192,101507,1,0,0:0:0:0:
192,192,101529,1,0,0:0:0:0:
320,192,101551,1,0,0:0:0:0:
448,192,101573,1,0,0:0:0:0:
320,192,101595,1,0,0:0:0:0:
192,192,101772,1,0,0:0:0:0:
320,192,101948,1,0,0:0:0:0:
192,192,102125,1,0,0:0:0:0:
64,192,102301,128,0,102919:0:0:0:0:
320,192,102301,128,0,102919:0:0:0:0:
448,192,102301,128,0,102919:0:0:0:0:
64,192,103007,128,0,103625:0:0:0:0:
320,192,103007,128,0,103625:0:0:0:0:
448,192,103007,128,0,103625:0:0:0:0:
64,192,103713,128,0,104331:0:0:0:0:
320,192,103713,128,0,104331:0:0:0:0:
448,192,103713,128,0,104331:0:0:0:0:
64,192,104419,1,0,0:0:0:0:
320,192,104419,1,0,0:0:0:0:
448,192,104419,1,0,0:0:0:0:
192,192,104684,1,0,0:0:0:0:
320,192,104684,1,0,0:0:0:0:
448,192,104684,1,0,0:0:0:0:
64,192,104948,1,0,0:0:0:0:
320,192,104948,1,0,0:0:0:0:
192,192,104948,1,0,0:0:0:0:
192,192,105125,1,0,0:0:0:0:
320,192,105125,1,0,0:0:0:0:
448,192,105125,1,0,0:0:0:0:
64,192,105213,1,0,0:0:0:0:
192,192,105301,1,0,0:0:0:0:
320,192,105390,1,0,0:0:0:0:
448,192,105478,1,0,0:0:0:0:
64,192,105566,1,0,0:0:0:0:
192,192,105654,1,0,0:0:0:0:
320,192,105742,1,0,0:0:0:0:
448,192,105831,1,0,0:0:0:0:
320,192,105919,1,0,0:0:0:0:
192,192,106007,1,0,0:0:0:0:
64,192,106095,1,0,0:0:0:0:
448,192,106184,1,0,0:0:0:0:
320,192,106301,1,0,0:0:0:0:
192,192,106419,1,0,0:0:0:0:
64,192,106537,1,0,0:0:0:0:
192,192,106625,1,0,0:0:0:0:
320,192,106713,1,0,0:0:0:0:
448,192,106801,1,0,0:0:0:0:
64,192,106890,1,0,0:0:0:0:
192,192,106978,1,0,0:0:0:0:
320,192,107066,1,0,0:0:0:0:
448,192,107154,1,0,0:0:0:0:
64,192,107242,1,0,0:0:0:0:
320,192,107419,1,0,0:0:0:0:
448,192,107507,1,0,0:0:0:0:
320,192,107595,1,0,0:0:0:0:
64,192,107684,1,0,0:0:0:0:
192,192,107706,1,0,0:0:0:0:
320,192,107728,1,0,0:0:0:0:
448,192,107750,1,0,0:0:0:0:
64,192,107772,1,0,0:0:0:0:
320,192,107948,128,0,108566:0:0:0:0:
448,192,107948,128,0,108566:0:0:0:0:
64,192,107948,1,0,0:0:0:0:
64,192,108125,1,0,0:0:0:0:
192,192,108301,1,0,0:0:0:0:
192,192,108478,1,0,0:0:0:0:
320,192,108654,128,0,109272:0:0:0:0:
448,192,108654,128,0,109272:0:0:0:0:
64,192,108654,1,0,0:0:0:0:
64,192,108831,1,0,0:0:0:0:
192,192,109007,1,0,0:0:0:0:
192,192,109184,1,0,0:0:0:0:
64,192,109360,1,0,0:0:0:0:
192,192,109360,1,0,0:0:0:0:
448,192,109360,1,0,0:0:0:0:
64,192,109625,1,0,0:0:0:0:
192,192,109625,1,0,0:0:0:0:
448,192,109625,1,0,0:0:0:0:
192,192,109890,1,0,0:0:0:0:
320,192,109890,1,0,0:0:0:0:
448,192,109890,1,0,0:0:0:0:
192,192,110066,1,0,0:0:0:0:
320,192,110066,1,0,0:0:0:0:
448,192,110066,1,0,0:0:0:0:
64,192,110331,1,0,0:0:0:0:
192,192,110331,1,0,0:0:0:0:
320,192,110331,1,0,0:0:0:0:
192,192,110595,1,0,0:0:0:0:
320,192,110595,1,0,0:0:0:0:
448,192,110595,1,0,0:0:0:0:
192,192,110772,1,0,0:0:0:0:
64,192,110772,1,0,0:0:0:0:
