osu file format v9

[General]
AudioFilename: SA.YO.NA.RA. SUPER STAR.ogg
AudioLeadIn: 0
PreviewTime: 42182
Countdown: 0
SampleSet: Soft
StackLeniency: 0.7
Mode: 0
LetterboxInBreaks: 0

[Editor]
Bookmarks: 21006,32300,43594,54888,94417,105535,111358,128300
DistanceSpacing: 0.8
BeatDivisor: 4
GridSize: 4

[Metadata]
Title:SA.YO.NA.RA. SUPER STAR
Artist:SUPER STAR -MITSURU-
Creator:yeahyeahyeahhh
Version:Another
Source:beatmania IIDX
Tags:iidx19 lincle streams konami bemani deathstreams muya collab natteke mmzz

[Difficulty]
HPDrainRate:8
CircleSize:4
OverallDifficulty:8
ApproachRate:8
SliderMultiplier:1.8
SliderTickRate:1

[Events]
//Background and Video events
0,0,"bg.jpg"
Video,0,"SA.YO.NA.RA._SUPER_STAR_(VISUAL_EMOTION_9).avi"
//Break Periods
2,66383,73903
//Storyboard Layer 0 (Background)
//Storyboard Layer 1 (Fail)
//Storyboard Layer 2 (Pass)
//Storyboard Layer 3 (Foreground)
Sprite,Foreground,Centre,"muya.png",320,240 M,0,21006,,151,80 F,0,21006,21182,0,1 S,1,21006,21182,1.9,1 S,0,21094,,1 F,0,21711,31594,1,0.6965007 F,0,31594,32123,0.6965007,0 F,0,32123,43241,0,0.006480601 F,0,43241,43594,0.006480601,0.983113 F,0,43241,43594,0.006480601,1 F,0,43594,54358,1,0.983113 F,0,54358,54711,0.983113,0 F,0,54711,,0 F,0,54711,,0 F,0,54711,94329,0 F,0,94329,94417,0,1 S,0,94329,94417,1.608114,1 F,0,94417,105182,1 F,0,105182,105535,1,0 F,0,105535,111005,0 F,0,111005,111358,0,1 F,0,111358,122653,1
Sprite,Foreground,Centre,"yyy.png",320,240 F,0,32123,32300,0,1 S,1,32123,32300,1.9,0.68 M,0,32300,,324,429 F,0,32300,43064,1 F,0,43064,43417,1,0 F,0,43417,54535,0 F,0,54535,54888,0,0.9773371 F,0,54888,65653,0.9773371,0.9535863 F,0,65653,66182,0.9535863,0 F,0,66182,74300,0,0.0162236 F,0,74300,74653,0.0162236,1 F,0,74653,92300,1,0.9749179 F,0,92300,93005,0.9749179,0 F,0,93005,105182,0 F,0,105182,105535,0,1 F,0,105535,111005,1 F,0,111005,111358,1,0 F,0,111358,128211,0 F,0,128211,128300,0,1 S,1,128211,128300,1.9,0.68 F,0,128300,129711,1,0.9101124 F,0,129711,129888,0.9101124,0 F,0,129888,,0
//Storyboard Sound Samples
//Background Colour Transformations
3,100,163,162,255

[TimingPoints]
21006,352.941176470588,4,2,1,40,1,0
31947,-100,4,1,0,30,0,0
32300,-100,4,1,1,60,0,0
74653,-200,4,1,2,15,0,0
74829,-200,4,2,2,30,0,0
75535,-200,4,1,2,15,0,0
75888,-200,4,2,2,30,0,0
76594,-200,4,1,2,15,0,0
77829,-200,4,2,2,30,0,0
78535,-200,4,1,2,15,0,0
79064,-200,4,2,2,30,0,0
79770,-200,4,1,2,15,0,0
80123,-200,4,2,2,30,0,0
80829,-200,4,1,2,15,0,0
81358,-200,4,2,2,30,0,0
81535,-200,4,1,2,15,0,0
82064,-200,4,2,2,30,0,0
82770,-200,4,2,2,30,0,0
82947,-200,4,1,2,15,0,0
83300,-200,4,2,2,30,0,0
84005,-200,4,1,2,15,0,0
84358,-200,4,2,2,30,0,0
85064,-200,4,1,2,15,0,0
86300,-200,4,2,2,30,0,0
87005,-200,4,1,2,15,0,0
87535,-200,4,2,2,30,0,0
88241,-200,4,1,2,15,0,0
89300,-200,4,2,2,30,0,0
90888,-200,4,2,2,5,0,0
91241,-200,4,2,2,10,0,0
91594,-200,4,2,2,15,0,0
91947,-200,4,2,2,20,0,0
92300,-200,4,2,2,25,0,0
92652,-200,4,2,2,30,0,0
94417,-100,4,1,1,60,0,0
105446,-100,4,1,1,50,0,0

[Colours]
Combo1 : 17,254,176
Combo2 : 173,255,95
Combo3 : 255,88,100
Combo4 : 255,94,55

[HitObjects]
32,112,21006,1,2
100,52,21183,1,0
116,140,21359,1,0
132,228,21536,2,0,B|168:272|236:284|300:260,1,180
436,148,22065,2,0,B|386:151|358:191,1,90
280,352,22418,1,2
200,312,22594,1,0
168,228,22771,1,0
200,144,22947,1,0
200,144,23300,1,0
340,176,23477,1,2
468,108,23653,1,2
388,64,23830,6,0,B|344:48|300:60,1,90
220,104,24183,1,0
156,168,24359,2,0,B|96:196|24:176|0:112,1,180
92,11,24889,2,0,B|108:56|92:100,1,90
16,244,25242,1,0
64,320,25418,1,0
148,352,25594,1,0
236,332,25771,1,0
296,264,25947,2,0,B|312:220|296:176,1,90,2|0
216,56,26300,2,0,B|200:100|216:144,1,90,2|0
324,240,26653,6,0,B|412:280|500:240,1,180,2|0
496,96,27183,2,0,B|408:56|320:96,1,180,2|0
408,168,27712,1,2
184,348,28065,2,0,B|92:348,1,90,2|0
60,172,28418,2,0,B|152:172,1,90,2|0
168,260,28771,2,0,B|76:260,1,90,2|0
44,84,29124,2,0,B|136:84,1,90,2|0
216,52,29477,6,0,B|248:104|316:124|388:92,1,180,2|0
436,28,30006,1,0
356,304,30359,2,0,B|396:332|444:320,2,90
292,240,30889,1,2
280,152,31065,1,0
328,76,31242,1,0
328,76,31594,1,0
56,172,31947,2,0,B|84:200,7,22.5
56,172,32300,6,0,B|136:124,1,90,4|0
280,76,32653,2,0,B|324:160,1,90,8|0
280,76,33006,2,0,B|196:24,1,90,0|0
56,172,33359,2,0,B|16:260,1,90,8|0
72,336,33712,6,0,B|101:306|157:322,1,90,0|0
322,367,34065,2,0,B|268:363|240:336,1,90,8|0
240,180,34418,2,0,B|212:212|212:268,1,90,0|0
304,268,34771,1,8
324,180,34947,5,0
324,180,35036,1,0
324,180,35124,2,0,B|352:152|408:152,1,90,0|0
484,208,35477,2,0,B|456:236|400:236,1,90,8|0
240,180,35830,2,0,B|192:164|144:180,1,90,0|0
72,316,36183,2,0,B|64:268|88:220,1,90,8|0
28,72,36536,6,0,B|33:115|73:147,1,90,0|0
148,84,36889,1,8
240,76,37065,1,0
324,116,37242,2,0,B|364:176|340:252,1,135,0|0
336,272,37594,1,8
248,328,37771,5,0
248,328,37859,1,0
248,328,37947,1,4
352,360,38124,1,0
352,360,38212,1,0
352,360,38300,1,8
452,316,38477,1,0
436,288,38565,1,0
424,260,38653,1,0
416,228,38742,1,0
412,196,38830,1,0
416,164,38918,1,0
424,132,39006,1,8
468,32,39183,5,0
468,32,39271,1,0
468,32,39359,1,4
360,48,39536,1,0
360,48,39624,1,0
360,48,39712,1,8
316,148,39889,1,0
284,156,39977,1,0
252,160,40065,1,0
220,156,40153,1,0
192,144,40242,1,0
164,128,40330,1,0
144,104,40418,1,8
31,32,40594,5,0
12,56,40683,1,0
8,88,40771,1,4
16,120,40859,1,0
28,148,40947,1,0
48,172,41036,1,0
68,196,41124,1,8
88,220,41212,1,0
100,248,41300,1,0
108,280,41389,1,0
108,312,41477,5,4
136,300,41565,1,0
161,282,41653,1,0
193,274,41742,1,0
225,274,41830,1,8
257,278,41918,1,0
285,290,42006,1,0
313,306,42094,1,0
337,326,42183,5,4
472,352,42359,1,4
500,216,42536,1,12
308,28,43065,1,4
176,72,43242,1,12
252,124,43418,5,0
256,156,43506,1,0
252,188,43594,2,0,B|160:188,1,90,4|0
88,72,43947,2,0,B|176:72,1,90,8|0
208,240,44300,2,0,B|164:256|120:240,1,90
112,32,44653,2,0,B|156:16|200:32,1,90,8|0
244,112,45006,1,0
304,180,45183,1,0
376,124,45359,1,8
316,56,45536,2,0,B|212:36|152:104,2,180
404,36,46418,6,0,B|388:128,1,90
292,232,46771,2,0,B|308:140,1,90,8|0
440,92,47124,2,0,B|472:188|408:260,1,180,0|8
324,292,47653,1,0
256,232,47830,1,0
256,232,48006,2,0,B|224:136|288:64,2,180
176,276,48889,2,0,B|192:320|176:364,1,90,8|0
96,320,49242,6,0,B|4:320,2,90,4|0|8
176,276,49771,2,0,B|224:188|176:104,1,180
64,16,50300,2,0,B|48:60|64:104,1,90,8|0
120,176,50653,1,0
120,176,50830,1,0
232,36,51006,1,8
232,36,51183,1,0
64,104,51359,1,0
64,104,51536,1,0
288,108,51712,1,8
288,108,51889,1,0
364,60,52065,6,0,B|412:144|364:232,1,180,0|8
484,312,52594,2,0,B|436:228|484:140,2,180
408,356,53477,1,4
408,356,53653,1,4
408,68,54006,1,4
104,108,54359,5,4
136,192,54536,1,8
144,284,54712,1,0
144,284,54800,1,0
144,284,54889,2,0,B|328:300,1,180,4|8
448,132,55418,2,0,B|264:116,1,180,0|0
212,204,55947,2,0,B|301:211,1,90,8|0
32,204,56300,6,0,B|96:268|52:372,1,180,0|8
104,168,56830,2,0,B|40:104|80:0,1,180,0|0
163,28,57359,2,0,B|268:32,1,90,8|0
284,44,57624,1,0
312,56,57712,6,0,B|400:60,1,90
496,208,58065,2,0,B|400:204,1,90,8|0
200,164,58418,2,0,B|288:168,1,90
384,316,58771,2,0,B|288:312,1,90,8|0
208,344,59124,1,0
208,344,59300,1,0
116,344,59477,1,8
36,300,59653,2,0,B|101:207|241:247,1,225
268,260,60183,1,8
368,300,60359,5,0
368,300,60447,1,0
368,300,60536,1,4
448,224,60712,1,0
448,224,60800,1,0
448,224,60889,1,8
432,116,61065,5,0
408,140,61153,1,0
376,152,61242,1,0
344,156,61330,1,0
312,148,61418,1,0
284,132,61506,1,0
264,104,61595,1,8
168,56,61771,5,0
168,56,61859,1,0
168,56,61947,1,4
96,136,62124,1,0
96,136,62212,1,0
96,136,62300,1,8
160,224,62477,1,0
192,216,62565,1,0
224,216,62653,1,0
256,224,62742,1,0
284,240,62830,1,0
308,260,62918,1,0
324,288,63006,1,8
184,348,63183,5,0
152,348,63271,1,0
120,336,63359,1,4
92,320,63447,1,0
72,296,63536,1,0
56,268,63624,1,0
48,236,63712,1,8
48,204,63800,1,0
56,172,63888,1,0
72,144,63977,1,0
96,124,64065,5,4
124,112,64153,1,0
156,108,64241,1,0
188,116,64330,1,0
216,132,64418,1,8
248,140,64506,1,0
280,140,64594,1,0
308,124,64683,1,0
324,96,64771,5,4
344,8,64947,1,0
484,120,65300,1,4
364,256,65653,1,0
380,168,65830,1,12
460,204,66006,1,0
460,204,66095,1,0
460,204,66183,1,4
68,216,74653,5,0
128,180,75005,1,0
200,164,75358,1,0
272,180,75711,1,0
332,214,76064,1,8
372,276,76417,1,0
436,312,76770,6,0,B|493:238|481:142,1,180
378,45,78182,2,0,B|320:118|332:214,1,180,8|0
348,284,79241,5,0
304,340,79594,1,0
240,304,79947,1,0
180,340,80300,1,8
140,280,80653,1,0
72,304,81005,6,0,B|52:264|60:200,1,90
116,100,81711,2,0,B|136:140|128:204,1,90
192,224,82417,2,0,B|284:228,1,90,8|0
356,232,83123,5,0
388,168,83476,1,0
384,96,83829,1,0
352,32,84182,1,0
280,24,84535,2,0,B|190:20,1,90,8|0
128,56,85241,6,0,B|88:140|120:236,1,180
232,320,86653,2,0,B|272:236|240:140,1,180,8|0
236,72,87711,5,0
288,24,88064,1,0
360,20,88417,1,0
420,56,88770,1,0
404,128,89123,1,0
472,152,89476,1,4
256,192,90888,12,0,92917
488,64,94417,6,0,B|428:112|336:112|280:64,1,225,4|0
248,44,94946,1,0
248,44,95034,1,0
248,44,95122,2,0,B|228:132,1,90,4|0
116,224,95475,2,0,B|136:136,1,90,8|0
256,216,95828,2,0,B|288:288|256:348,1,135,4|4
40,368,96358,2,0,B|-4:276|40:192,1,180,4|0
104,132,96887,1,8
188,164,97064,5,0
188,164,97152,1,0
188,164,97240,2,0,B|276:164,1,90,4|0
364,196,97593,1,8
448,164,97769,1,0
448,72,97946,1,0
364,40,98122,1,0
332,60,98211,1,0
252,100,98387,1,0
168,68,98564,6,0,B|112:108|92:196|140:272,1,225,0|8
16,348,99181,1,0
16,348,99269,1,0
16,348,99358,2,0,B|64:264|20:176,1,180,0|8
272,32,100064,6,0,B|320:116|276:204,1,180,4|8
256,236,100505,1,0
248,272,100593,1,0
252,308,100681,1,0
264,340,100769,2,0,B|304:368|352:360,1,90,4|0
336,272,101122,1,8
372,276,101211,1,0
404,292,101299,1,0
428,320,101387,1,0
440,356,101475,1,4
224,360,101740,1,4
48,232,102005,2,0,B|0:148|44:60,1,180,4|0
128,28,102534,1,8
212,60,102711,5,0
212,60,102799,1,0
212,60,102887,2,0,B|252:88|300:80,1,90,4|0
332,68,103152,2,0,B|376:52|420:68,1,90
444,212,103505,2,0,B|380:244|312:212,1,135
236,164,103946,1,8
160,212,104122,1,0
160,212,104211,1,0
160,212,104299,2,0,B|136:256|152:300,1,90,4|0
168,332,104564,2,0,B|124:348|80:332,1,90
60,188,104917,2,0,B|124:156|192:188,1,135
232,268,105358,1,8
304,324,105534,5,0
332,340,105622,1,0
364,344,105711,1,4
396,336,105799,1,0
420,316,105887,1,0
428,288,105975,1,0
424,256,106064,1,8
412,228,106152,1,0
388,208,106240,1,0
360,192,106328,1,0
332,176,106416,1,0
312,152,106505,1,0
300,124,106593,1,0
300,92,106681,1,0
304,60,106769,1,8
320,32,106857,1,0
348,16,106946,1,0
380,12,107034,1,0
412,16,107122,6,0,B|436:20|448:44,3,45
464,68,107475,1,8
472,100,107563,1,0
468,132,107653,1,0
452,160,107741,1,0
428,184,107828,1,0
396,192,107916,1,0
364,192,108004,1,0
332,196,108094,1,0
304,212,108182,1,8
284,236,108269,1,0
276,268,108358,1,0
272,300,108446,1,0
276,332,108534,5,0
248,316,108623,1,0
216,308,108711,1,0
188,300,108799,1,0
156,304,108887,1,8
128,316,108976,1,0
104,336,109064,1,0
84,360,109152,1,0
56,352,109240,5,0
32,332,109328,1,0
20,304,109416,1,0
12,272,109505,1,0
12,240,109593,1,8
20,208,109681,1,0
36,180,109769,1,0
60,156,109858,1,0
88,144,109946,5,0
120,140,110034,1,0
152,144,110122,1,0
180,156,110211,1,0
208,172,110299,1,8
228,196,110387,1,0
256,212,110475,1,0
288,216,110564,1,0
320,208,110652,5,0
420,116,110916,1,0
420,116,111005,1,8
468,192,111181,1,0
440,276,111358,5,4
416,296,111446,1,0
384,304,111534,1,0
352,304,111622,1,0
320,292,111711,1,8
296,272,111799,1,0
280,244,111887,1,0
272,212,111975,1,0
276,180,112064,1,0
280,148,112152,1,0
272,116,112240,1,0
256,88,112328,1,0
232,68,112416,1,8
200,56,112505,1,0
168,56,112593,1,0
136,64,112681,1,0
112,84,112769,6,0,B|96:104|96:128,3,45
96,156,113122,1,8
108,184,113211,1,0
128,208,113299,1,0
156,220,113387,1,0
188,224,113475,2,0,B|212:224|232:212,3,45
256,192,113828,1,8
280,172,113916,1,0
312,164,114005,1,0
344,164,114093,1,0
376,172,114181,5,0
404,188,114269,1,0
424,212,114358,1,0
436,240,114446,1,0
436,272,114534,1,8
408,260,114622,1,0
376,252,114711,1,0
344,256,114799,1,0
312,264,114887,1,0
340,280,114975,1,0
360,304,115064,1,0
372,332,115152,1,0
372,364,115240,1,8
344,352,115328,1,0
312,344,115417,1,0
280,348,115505,1,0
248,356,115593,5,0
216,360,115681,1,0
184,356,115769,1,0
156,344,115858,1,0
136,320,115946,1,8
124,292,116034,1,0
124,260,116122,1,0
132,228,116211,1,0
152,204,116299,1,0
176,184,116387,1,0
204,172,116475,1,0
228,152,116564,1,0
248,128,116652,1,8
256,100,116740,1,0
256,68,116828,1,0
240,40,116916,1,0
216,20,117005,6,0,B|192:12|168:20,3,45,4|0|0|0
144,32,117358,1,8
124,56,117446,1,0
116,88,117534,1,0
124,120,117622,1,0
144,144,117711,2,0,B|156:160|160:184,3,45
160,216,118064,1,8
144,244,118152,1,0
120,264,118240,1,0
88,272,118328,1,0
56,268,118416,5,0
28,252,118505,1,0
12,224,118593,1,0
12,192,118681,1,0
24,164,118769,1,8
48,144,118858,1,0
76,132,118946,1,0
108,132,119034,1,0
140,140,119122,1,0
168,156,119211,1,0
200,164,119299,1,0
232,164,119387,1,0
260,152,119475,2,0,B|280:144,8,22.5,8|0|0|0|0|0|0|0|4
256,192,119916,12,0,122652
256,192,125608,5,0
380,236,128299,5,4
128,160,128564,1,4
292,32,128828,1,4
256,196,129093,1,4
256,196,129181,1,4
260,288,129358,1,12
180,328,129534,1,0
148,312,129622,1,0
112,304,129711,1,4
