osu file format v9

[General]
AudioFilename: NEW GENERATION.mp3
AudioLeadIn: 1000
PreviewTime: 65448
Countdown: 0
SampleSet: Normal
StackLeniency: 0.5
Mode: 0
LetterboxInBreaks: 1

[Editor]
Bookmarks: 1448,13084,24721,40721,65448,78539,91630,104721
DistanceSpacing: 0.9
BeatDivisor: 4
GridSize: 8

[Metadata]
Title:NEW GENERATION
Artist:SUPER STAR -MITSURU-
Creator:Natteke
Version:Normal
Source:Beatmania IIDX
Tags:AC DJ TROOPERS TKiller yeahyeahyeahhh climbb65588 lesjuh

[Difficulty]
HPDrainRate:3
CircleSize:4
OverallDifficulty:4
ApproachRate:5
SliderMultiplier:1.4
SliderTickRate:1

[Events]
//Background and Video events
0,0,"bg.jpg"
//Break Periods
2,40921,45339
2,91466,94794
//Storyboard Layer 0 (Background)
//Storyboard Layer 1 (Fail)
//Storyboard Layer 2 (Pass)
//Storyboard Layer 3 (Foreground)
//Storyboard Sound Samples
//Background Colour Transformations
3,100,163,162,255

[TimingPoints]
-6,363.636363636364,4,1,1,50,1,0
116630,-100,4,2,1,50,0,0

[Colours]
Combo1 : 17,254,176
Combo2 : 173,255,95
Combo3 : 255,88,100
Combo4 : 255,94,55

[HitObjects]
256,352,1084,1,0
224,256,1448,2,0,B|160:256|160:256|72:296,2,140
256,144,2539,1,0
288,256,2903,2,0,B|352:256|352:256|440:296,2,140
256,144,3994,1,0
120,144,4357,5,0
120,280,4720,1,0
192,312,5084,2,0,B|280:312,1,70
232,240,5448,2,0,B|312:240,1,70
368,272,5812,2,0,B|375:241|375:241|366:204,1,70
304,168,6175,2,0,B|296:137|296:137|305:100,1,70
232,80,6539,6,0,B|220:128|220:128|184:144,1,70
119,157,6903,1,0
119,157,7266,6,0,B|72:192|72:192|64:288,2,140
278,296,8357,2,0,B|208:296,2,70,0|0|4
376,200,9084,5,0
320,72,9448,1,0
184,96,9812,1,0
168,224,10175,2,0,B|88:224,1,70,4|0
136,296,10539,2,0,B|56:296,1,70
208,296,10903,2,4,B|280:296,1,70,4|0
240,224,11266,2,0,B|240:144,2,70
256,192,11721,12,4,13084
216,48,13448,6,0,B|160:56|128:120|136:168,1,140
128,240,14175,2,0,B|112:328|16:360,1,140
200,200,14903,2,0,B|248:200|248:200|280:216|280:216|344:216,3,140
384,344,16357,6,0,B|433:316|440:245|415:203,1,140
376,72,17084,2,0,B|327:100|320:171|345:213,1,140
336,272,17812,2,0,B|298:286|298:286|256:288|256:288|184:312,3,140
64,240,19266,5,0
64,240,19630,1,0
160,280,19903,2,0,B|160:232|160:232|144:216|144:216|144:168,1,105
256,96,20721,5,0
339,96,21084,2,0,B|387:96|387:96|403:112|403:112|451:112,2,105
336,168,21812,6,0,B|336:256,1,70,4|0
264,192,22175,2,0,B|264:272,1,70
192,216,22539,2,0,B|192:304,1,70,4|0
120,240,22902,2,0,B|120:320,1,70
120,160,23266,6,4,B|120:128|120:128|96:104|96:104|96:56,3,105
192,160,24357,2,0,B|272:160,2,70,4|0|0
304,240,25084,6,0,B|312:280|328:304|376:320|408:320,1,140
392,232,25721,2,0,B|392:200|392:200|368:168|368:168|368:136,1,105
296,136,26175,2,0,B|248:136|248:136|232:160|232:160|176:160,3,105
104,176,27266,1,0
168,296,27630,1,4
256,192,27994,6,0,B|275:156|278:127|252:84|227:63,1,140
183,141,28631,2,0,B|162:165|162:165|160:205|160:205|139:229,1,105
208,272,29085,2,0,B|244:302|244:302|288:312|288:312|336:352,2,140
296,232,30176,1,0
380,181,30539,6,0,B|380:105,1,70,4|0
304,72,30903,2,0,B|304:152,1,70
256,208,31266,2,0,B|208:208|208:208|176:224|176:224|112:224,2,140
256,352,32357,5,0
256,208,32721,2,0,B|256:80,2,105
192,272,33448,6,0,B|136:328,1,70,4|0
128,240,33812,2,0,B|72:296,1,70
88,184,34175,2,0,B|120:152|120:152|120:112,1,70,4|0
184,184,34539,2,0,B|272:184,1,70
328,184,34903,6,0,B|328:216|328:216|352:256|352:256|352:304,3,105,4|0|4|0
400,184,35994,2,0,B|472:184,1,70,4|0
365,119,36357,2,0,B|365:87|365:87|341:47|341:47|341:-1,3,105,4|0|4|0
293,119,37448,2,0,B|221:119,1,70,4|0
256,192,37721,12,4,40721
80,56,46539,6,0,B|80:88|96:104|128:112,1,70
187,108,46903,2,0,B|259:108,1,70
184,184,47266,2,0,B|184:224|184:224|152:248|152:248|152:320,1,140
292,308,47994,6,0,B|372:308,1,70,4|0
448,240,48357,2,0,B|378:240,1,70
307,240,48721,2,0,B|307:200|307:200|339:176|339:176|339:104,1,140
197,116,49448,6,0,B|184:96|184:96|184:48,1,70,4|0
144,168,49812,2,0,B|144:241,1,70
216,184,50175,2,0,B|216:288|216:288|176:320,1,140
67,260,50903,6,0,B|67:188,1,70,4|0
98,116,51266,2,0,B|154:180,1,70
216,184,51630,1,0
360,192,51994,6,0,B|400:192,4,35,0|0|0|0|4
256,96,52721,2,0,B|256:56,4,35,0|0|0|0|4
152,192,53448,2,0,B|112:192,4,35,0|0|0|0|4
256,304,54175,2,0,B|256:344,4,35,0|0|0|0|4
256,200,54903,5,0
192,96,55266,6,0,B|32:96,2,140
256,200,56357,1,0
320,96,56721,2,0,B|480:96,2,140
256,200,57812,1,0
256,200,58175,5,4
176,120,58539,1,4
256,48,58903,1,4
336,120,59266,1,4
256,192,59630,12,0,61084
256,256,62175,6,0,B|256:304,4,35,4|0|0|0|4
256,56,63994,6,4,B|256:168,2,105
256,296,65084,5,8
112,296,65448,6,0,B|32:296,1,70
88,224,65812,2,0,B|88:144,1,70
160,200,66175,2,0,B|160:128,1,70
232,176,66539,2,0,B|320:176,1,70
376,176,66903,5,0
464,88,67266,1,0
320,56,67630,2,0,B|240:56,1,70
179,56,67994,2,0,B|184:88|168:104|139:112,1,70
96,160,68357,6,0,B|168:232,1,70
48,224,68721,2,0,B|48:304,1,70
120,336,69084,2,0,B|115:304|131:288|160:280,1,70
223,282,69448,2,0,B|295:282,1,70
342,232,69812,6,0,B|344:184|344:184|368:152|368:152|368:96,3,140
240,112,71266,6,0,B|192:120|192:120|160:112,1,70,4|0
224,192,71630,2,0,B|240:272,1,70
152,232,71994,2,0,B|8:232,1,140
136,88,72721,6,0,B|56:88,1,70,4|0
208,88,73084,2,0,B|288:88,1,70
216,160,73448,2,0,B|216:240,1,70
288,192,73812,2,0,B|288:272,1,70
360,224,74175,5,4
216,160,74539,6,0,B|216:80,2,70,0|0|4
296,224,75266,2,0,B|296:304,2,70,0|0|4
216,224,75903,6,0,B|216:256|216:256|240:280|240:280|240:328,2,105,0|4|0
144,152,76721,1,4
88,64,77084,2,0,B|88:96|88:96|64:120|64:120|64:168,3,105,4|0|0|0
200,64,78175,1,8
360,104,78539,6,0,B|360:176|360:176|328:248,1,140
168,240,79266,2,0,B|140:177|140:177|140:105,1,140
259,225,79994,6,0,B|259:297|259:297|231:359,1,140
66,357,80721,2,0,B|38:294|38:294|38:222,1,140
384,320,81448,6,0,B|384:168,3,140
264,224,82903,2,0,B|264:72,3,140
120,288,84357,6,0,B|120:368,1,70,4|0
192,312,84721,2,0,B|192:224,1,70
264,288,85084,2,0,B|264:368,1,70
336,312,85448,2,0,B|336:224,1,70,0|0
408,288,85812,6,0,B|488:248,1,70,4|0
480,168,86175,2,0,B|417:199,1,70,0|0
336,168,86539,2,0,B|336:78,1,70
256,88,86903,2,0,B|193:119,1,70,0|0
256,168,87266,5,0
168,240,87630,2,0,B|104:272,2,70
344,240,88357,2,0,B|408:272,2,70
256,168,89084,1,0
256,336,89630,6,0,B|256:256,1,70
256,168,90175,1,0
256,192,90266,12,8,91266
256,192,95994,12,4,97448
168,88,97812,6,0,B|168:168|168:168|152:184|152:184|152:248,2,140
256,192,98903,1,4
344,296,99266,2,0,B|344:216|344:216|360:200|360:200|360:136,2,140
256,192,100357,5,4
184,112,100721,2,0,B|136:48,2,70
328,112,101448,2,0,B|376:48,2,70
256,192,102084,6,0,B|216:192|216:192|200:208|200:208|144:208,3,105
288,104,103266,2,0,B|328:104|328:104|344:88|344:88|400:88,4,105
304,200,104721,6,0,B|384:200,1,70
328,272,105085,2,0,B|328:352,1,70
256,296,105448,2,0,B|256:368,1,70
184,320,105812,2,0,B|96:320,1,70
54,260,106176,5,0
56,152,106539,1,0
160,104,106903,1,0
226,190,107267,2,0,B|221:222|237:238|266:246,1,70
343,243,107630,6,0,B|343:313,1,70
423,302,107994,2,0,B|479:245,1,70
451,172,108357,2,0,B|431:198|409:198|383:183,1,70
340,137,108721,2,0,B|289:86,1,70
205,87,109085,6,0,B|200:136|200:136|184:168|184:168|184:224,3,140
307,207,110539,6,0,B|355:199|355:199|387:207,1,70,4|0
304,128,110903,2,0,B|288:48,1,70
360,56,111267,2,0,B|512:56,1,140
418,248,111994,6,0,B|498:248,1,70,4|0
416,176,112357,2,0,B|496:176,1,70
338,176,112721,2,0,B|338:96,1,70
266,144,113085,2,0,B|266:64,1,70
181,74,113448,5,4
181,74,113812,6,0,B|144:144,2,70
331,74,114539,2,0,B|368:144,2,70
256,144,115175,6,0,B|256:184|256:184|240:208|240:208|240:272,2,105
352,168,115994,1,4
352,168,116357,1,4
413,91,116630,2,0,B|381:91|381:91|357:67|357:67|309:67,2,105,2|0|2
413,217,117448,1,8
