osu file format v9

[General]
AudioFilename: NEW GENERATION.mp3
AudioLeadIn: 1000
PreviewTime: 65448
Countdown: 0
SampleSet: Normal
StackLeniency: 0.5
Mode: 0
LetterboxInBreaks: 1

[Editor]
Bookmarks: 1448,13084,24721,40721,65448,78539,91630,104721
DistanceSpacing: 0.9
BeatDivisor: 4
GridSize: 8

[Metadata]
Title:NEW GENERATION
Artist:SUPER STAR -MITSURU-
Creator:Natteke
Version:Beginner
Source:Beatmania IIDX
Tags:AC DJ TROOPERS TKiller yeahyeahyeahhh climbb65588 lesjuh

[Difficulty]
HPDrainRate:1
CircleSize:3
OverallDifficulty:2
ApproachRate:5
SliderMultiplier:1.4
SliderTickRate:0.5

[Events]
//Background and Video events
0,0,"bg.jpg"
//Break Periods
2,40921,42248
2,91830,96248
//Storyboard Layer 0 (Background)
//Storyboard Layer 1 (Fail)
//Storyboard Layer 2 (Pass)
//Storyboard Layer 3 (Foreground)
//Storyboard Sound Samples
//Background Colour Transformations
3,100,163,162,255

[TimingPoints]
-6,363.636363636364,4,1,0,50,1,0
3448,-100,4,1,0,25,0,0
3994,-100,4,1,0,50,0,0
13084,-100,4,1,1,50,0,0
17448,-100,4,2,1,70,0,0
18448,-100,4,1,1,50,0,0
40721,-100,4,1,0,61,0,0
65448,-100,4,1,1,50,0,0
97630,-100,4,2,0,40,0,0
101812,-100,4,1,0,60,0,0
104721,-100,4,1,1,50,0,0
117630,-100,4,2,0,0,0,0

[Colours]
Combo1 : 17,254,176
Combo2 : 173,255,95
Combo3 : 255,88,100
Combo4 : 255,94,55

[HitObjects]
320,64,1448,2,0,B|168:64,1,140
80,144,2175,2,0,B|200:232,1,140
319,226,2903,2,0,B|431:143,1,140
504,232,3630,1,0
408,312,3994,6,0,B|464:368,2,70
320,224,4721,1,0
256,336,5084,1,0
192,224,5448,1,0
104,312,5812,2,0,B|48:368,2,70
32,208,6539,1,0
136,144,6903,1,0
256,192,7266,5,4
256,192,8721,1,4
256,192,10175,5,4
256,192,10903,1,4
448,72,11630,5,4
376,176,11994,1,4
216,80,12539,6,4,B|128:56,1,70
48,136,13084,6,0,B|136:128|176:208,1,140,4|8
280,144,13812,2,0,B|416:104,1,140,0|8
496,200,14539,1,0
448,320,14903,1,8
360,232,15266,2,0,B|280:216|208:288,1,140,0|8
112,304,15994,6,0,B|56:176,1,140,0|8
176,136,16721,2,0,B|240:288,1,140,0|8
352,296,17448,5,2
472,264,17812,1,2
504,144,18175,1,2
376,160,18539,2,0,B|280:128,2,70,0|0|4
504,144,19266,1,8
256,192,19994,5,8
320,296,20357,1,0
192,296,20721,1,8
256,56,21448,5,8
136,80,21812,1,4
360,192,22539,1,4
120,264,23266,2,4,B|8:304,3,105
32,208,24357,2,4,B|0:112,2,70
152,168,25084,5,8
360,216,25812,1,8
480,176,26175,6,4,B|520:288,4,105
456,120,27448,5,0
392,112,27630,2,0,B|344:192|240:152,1,140,0|8
152,128,28357,2,0,B|88:72,4,70,0|0|8|0|0
248,208,29448,1,8
144,272,29812,1,0
40,208,30175,6,2,B|96:184|208:208,1,140,2|4
272,288,30903,1,8
400,304,31266,1,0
496,224,31630,1,8
472,104,31994,6,0,B|416:80|304:104,1,140,4|0
240,184,32722,1,0
112,200,33085,1,8
16,120,33448,5,4
256,56,34175,5,4
496,120,34903,6,4,B|384:176,3,105
320,208,35994,2,4,B|256:168|240:192,1,70
176,88,36539,5,4
64,144,36903,1,4
64,272,37266,1,4
184,304,37630,1,4
256,192,37812,12,0,40721
256,192,43448,5,0
256,192,43630,1,4
256,192,45084,5,4
256,192,45812,1,0
184,296,46175,6,0,B|224:360,2,70,0|0|4
136,256,46721,2,0,B|48:256|8:184,3,140
72,160,47994,5,4
128,136,48175,1,0
240,80,48539,1,0
256,208,48903,1,0
272,272,49084,6,0,B|232:336,2,70,0|0|4
336,256,49630,2,0,B|424:256|464:328,3,140
504,272,50903,5,4
488,216,51084,2,0,B|448:64,3,140
392,56,52357,6,4,B|256:168|112:112,1,280,4|4
120,328,53812,2,0,B|256:216|400:272,1,280
152,168,55266,6,0,B|-8:144,1,140
112,64,55994,2,0,B|256:40,1,140
376,40,56721,6,0,B|400:120,1,70
312,112,57084,2,0,B|336:184,1,70
424,184,57448,2,0,B|448:248,1,70
360,256,57812,2,0,B|384:328,1,70
472,328,58175,2,0,B|512:344,31,35
256,192,61084,12,0,62539
464,144,63994,6,4,B|368:88,2,105
496,264,64903,2,0,B|432:304,1,70,0|2
312,328,65448,5,0
192,280,65812,1,8
296,208,66175,2,0,B|344:168|464:184,1,140,0|8
496,72,66903,2,0,B|360:48,1,140,0|8
240,96,67630,6,0,B|168:136,4,70,0|0|8|0|0
136,16,68721,1,8
64,120,69084,2,0,B|40:208|144:232,1,140,0|8
64,336,69812,6,0,B|192:296,3,105
256,272,70903,2,0,B|256:184,2,70,0|0|4
376,232,71630,1,8
136,144,72357,5,8
256,96,72721,1,4
376,144,73084,1,8
192,320,73812,5,8
320,320,74175,1,4
256,96,74903,1,4
256,344,75630,2,4,B|256:208,4,105
256,192,77084,12,0,78539
480,256,79266,5,0
240,344,79994,1,0
72,160,80721,1,0
128,136,80903,2,0,B|168:120,1,35
256,104,81266,6,0,B|256:32,1,70
496,120,82175,1,0
256,192,82903,1,0
16,264,83630,1,0
64,288,83812,2,0,B|120:312,1,35
176,248,84175,5,0
176,248,84357,1,4
176,248,85812,1,4
176,248,87266,5,4
424,304,87994,1,4
176,248,88721,5,4
304,248,89084,1,4
416,96,89630,2,4,B|368:160,1,70
256,192,90175,12,0,91630
256,192,97448,5,4
136,160,97812,1,0
16,208,98175,1,0
136,256,98539,2,0,B|216:264|264:344,1,140,0|4
376,344,99266,1,0
472,264,99630,1,0
352,216,99994,6,0,B|352:144|408:72,1,140,0|4
304,0,100721,2,0,B|246:45|174:45,1,140,0|4
136,168,101448,6,0,B|202:200|234:264,1,140
320,304,102084,2,0,B|432:344,2,105
240,352,102903,1,0
240,352,103084,1,0
184,336,103266,6,0,B|72:296,3,105
48,216,104357,1,0
48,216,104539,2,0,B|128:144|112:8,1,210
192,120,105448,6,0,B|192:192|216:272,1,140,0|8
328,312,106175,2,0,B|472:344,2,140,0|8|0
272,200,107266,1,8
392,176,107630,5,0
488,256,107994,2,0,B|512:176|480:96,1,140,8|0
392,40,108721,1,8
280,96,109084,6,0,B|144:104,1,105
128,184,109630,2,0,B|264:176,1,105
328,176,110175,6,0,B|368:232,2,70,0|0|4
256,280,110903,1,8
144,88,111630,5,8
256,32,111994,1,4
368,88,112357,1,8
192,272,113084,5,8
320,272,113448,1,4
256,32,114175,1,4
256,288,114903,2,0,B|256:168,4,105,4|0|4|0|4
256,192,116357,12,0,117812
