osu file format v9

[General]
AudioFilename: NEW GENERATION.mp3
AudioLeadIn: 1250
PreviewTime: 65448
Countdown: 0
SampleSet: Normal
StackLeniency: 0.5
Mode: 0
LetterboxInBreaks: 1

[Editor]
Bookmarks: 1448,13084,24721,40721,65448,78539,91630,104721
DistanceSpacing: 0.7
BeatDivisor: 4
GridSize: 8

[Metadata]
Title:NEW GENERATION
Artist:SUPER STAR -MITSURU-
Creator:Natteke
Version:Another
Source:Beatmania IIDX
Tags:AC DJ TROOPERS TKiller yeahyeahyeahhh climbb65588 lesjuh

[Difficulty]
HPDrainRate:7
CircleSize:4
OverallDifficulty:8
ApproachRate:8
SliderMultiplier:1.7
SliderTickRate:0.5

[Events]
//Background and Video events
0,0,"bg.jpg"
//Break Periods
2,40920,42698
//Storyboard Layer 0 (Background)
//Storyboard Layer 1 (Fail)
//Storyboard Layer 2 (Pass)
//Storyboard Layer 3 (Foreground)
Sprite,Foreground,Centre,"tk.png",320,240 M,0,1266,,319,200 F,0,1266,1448,0,1 S,0,1266,1448,5,1.024 F,0,1448,12357,1 F,0,12357,12903,1,0 F,0,12903,24357,0 F,0,24357,24539,0 F,0,24539,24721,0,1 F,0,24721,40721,1 F,0,40721,41448,1,0 F,0,41448,65266,0 F,0,65266,65630,0,1 F,0,65630,78357,1 F,0,78357,78539,1,0 F,0,78539,91266,0 F,0,91266,91812,0,1 F,0,91812,104357,1 F,0,104357,104721,1,0
Sprite,Foreground,Centre,"ntk.png",320,240 M,0,12903,,320,302 F,0,12903,13084,0,1 S,0,12903,13084,4.808,1.024 F,0,13084,23994,1 F,0,23994,24357,1,0 F,0,24357,,0 F,0,40721,46175,0 F,0,46175,46539,0,1 F,0,46539,65084,1 F,0,65084,65448,1,0 F,0,65448,78357,0 F,0,78357,78721,0,1 F,0,78721,90175,1 F,0,90175,91266,1,0 F,0,91266,104539,0 F,0,104539,104903,0,1 F,0,104903,117630,1 F,0,117630,118175,1,0
//Storyboard Sound Samples
//Background Colour Transformations
3,100,163,162,255

[TimingPoints]
-6,363.636363636364,4,1,0,50,1,0
3448,-100,4,1,0,25,0,0
3994,-100,4,1,0,50,0,0
7539,-66.6666666666667,4,1,0,50,0,0
7812,-100,4,1,0,50,0,0
13084,-100,4,1,1,50,0,0
17448,-100,4,2,1,70,0,0
18448,-100,4,1,1,50,0,0
26175,-100,4,1,1,70,0,0
27630,-100,4,1,1,50,0,0
29084,-100,4,1,1,60,0,0
30175,-100,4,1,1,50,0,0
34994,-100,4,1,0,0,0,0
35175,-100,4,1,0,50,0,0
35357,-100,4,1,0,0,0,0
35448,-100,4,1,0,50,0,0
35630,-100,4,1,0,0,0,0
35721,-100,4,1,0,50,0,0
35903,-100,4,1,0,0,0,0
35994,-100,4,1,0,50,0,0
36539,-100,4,1,0,0,0,0
36630,-100,4,1,0,50,0,0
36812,-100,4,1,0,0,0,0
36903,-100,4,1,0,50,0,0
37084,-100,4,1,0,0,0,0
37175,-100,4,1,0,50,0,0
37357,-100,4,1,0,0,0,0
37448,-100,4,1,0,50,0,0
37903,-100,4,1,0,41,0,0
39344,-100,4,1,0,50,0,0
40721,-100,4,1,0,61,0,0
43448,-100,4,1,0,50,0,0
46630,-100,4,1,0,40,0,0
65448,-100,4,1,1,50,0,0
69812,-100,4,1,0,60,0,0
69994,-100,4,1,0,0,0,0
70084,-100,4,1,0,60,0,0
70266,-100,4,1,0,0,0,0
70357,-100,4,1,0,60,0,0
70539,-100,4,1,0,0,0,0
70630,-100,4,1,0,60,0,0
70812,-100,4,1,0,0,0,0
70903,-100,4,1,0,60,0,0
71266,-100,4,1,0,50,0,0
75266,-66.6666666666667,4,1,0,50,0,0
75630,-100,4,1,0,50,0,0
75812,-100,4,1,0,0,0,0
75903,-100,4,1,0,50,0,0
76084,-100,4,1,0,0,0,0
76175,-100,4,1,0,50,0,0
76357,-100,4,1,0,0,0,0
76448,-100,4,1,0,50,0,0
76630,-100,4,1,0,0,0,0
76721,-100,4,1,0,50,0,0
77266,-100,4,1,0,0,0,0
77357,-100,4,1,0,50,0,0
77539,-100,4,1,0,0,0,0
77630,-100,4,1,0,50,0,0
77812,-100,4,1,0,0,0,0
77903,-100,4,1,0,50,0,0
78084,-100,4,1,0,0,0,0
78175,-100,4,1,1,50,0,0
91630,-100,4,2,1,70,0,0
94084,-100,4,1,0,0,0,0
94175,-100,4,2,1,70,0,0
94266,-100,4,1,0,0,0,0
94357,-100,4,2,0,50,0,0
94448,-100,4,1,0,0,0,0
94539,-100,4,2,0,50,0,0
94721,-100,4,2,1,70,0,0
100357,-100,4,1,0,40,0,0
100721,-66.6666666666667,4,1,0,50,0,0
101812,-100,4,1,0,60,0,0
101994,-100,4,1,0,0,0,0
102084,-100,4,1,0,60,0,0
102266,-100,4,1,0,0,0,0
102357,-100,4,1,0,60,0,0
102539,-100,4,1,0,0,0,0
102630,-100,4,1,0,60,0,0
103266,-100,4,1,0,70,0,0
104357,-100,4,2,0,65,0,0
104721,-100,4,1,1,50,0,0
114448,-50,4,1,1,50,0,0
114903,-100,4,1,0,50,0,0
116448,-100,4,2,1,38,0,0
117539,-200,4,2,1,38,0,0
117630,-200,4,2,0,0,0,0

[Colours]
Combo1 : 17,254,176
Combo2 : 173,255,95
Combo3 : 255,88,100
Combo4 : 255,94,55

[HitObjects]
256,168,357,2,0,B|256:264,2,85
40,112,1084,5,4
256,56,1448,6,0,B|360:32,1,85,0|0
176,120,1812,2,0,B|176:216,1,85,0|0
248,160,2175,2,0,B|352:136,1,85,0|0
432,336,2539,2,0,B|432:240,1,85
248,160,2903,6,0,B|144:184,1,85,0|0
256,248,3266,1,0
336,280,3448,2,0,B|368:296,7,21.25
336,104,3994,2,0,B|381:70|381:70|384:16,1,85
264,160,4357,6,0,B|192:216,1,85
208,88,4721,1,0
208,88,4812,1,0
208,88,4903,1,0
151,274,5084,2,0,B|152:245|152:245|197:211,1,85,0|0
64,80,5448,6,0,B|32:120|32:120|56:144,1,85,0|0
144,176,5812,1,0
144,176,5994,1,0
288,144,6175,2,0,B|288:248,1,85,0|0
384,168,6539,2,0,B|384:256,1,85,0|0
480,192,6903,1,0
480,192,6994,1,0
480,192,7084,1,0
416,304,7266,5,4
328,56,7448,1,0
336,64,7539,2,0,B|360:96|360:96|336:136,1,63.749998100102,0|0
320,192,7812,1,0
224,160,7994,2,0,B|184:64,1,85
320,192,8357,1,0
325,203,8448,1,0
330,214,8539,1,0
168,320,8721,6,0,B|168:208,1,85,0|0
48,136,9084,2,0,B|88:248,1,85,0|0
168,236,9448,2,0,B|228:142,1,85,0|0
168,17,9811,2,0,B|140:132,1,85
280,112,10175,5,0
256,192,10357,2,0,B|218:195,4,21.25,0|0|0|0|0
344,184,10721,2,0,B|360:149,4,21.25,0|0|0|0|0
312,264,11084,2,0,B|350:261,4,21.25,0|0|0|0|0
240,336,11448,1,0
136,288,11630,5,0
132,269,11721,1,0
128,250,11812,1,0
124,231,11903,1,0
120,212,11994,1,0
116,193,12084,1,0
113,174,12175,1,0
109,155,12266,1,0
105,136,12357,1,0
101,117,12448,2,0,B|85:40,6,42.5
120,104,13084,6,0,B|160:120|208:96,1,85,4|0
384,136,13448,2,0,B|344:120|296:144,1,85,8|0
69,156,13812,2,0,B|123:177|189:145,1,85
432,200,14176,2,0,B|377:178|311:210,1,85,8|0
328,208,14448,1,0
312,224,14539,2,0,B|294:252|316:307,1,85
336,312,14812,1,0
360,312,14903,6,0,B|448:312,1,85,8|0
256,280,15266,2,0,B|256:168,1,85
152,312,15630,2,0,B|64:312,1,85,8|0
48,208,15994,5,0
136,152,16175,2,0,B|168:192|144:248,1,85,0|8
48,208,16539,2,0,B|16:168|40:112,1,85
232,96,16903,2,0,B|264:136|240:192,2,85,0|8|0
232,96,17357,1,0
232,96,17448,6,0,B|328:72,1,85,4|2
160,216,17812,2,0,B|136:120,1,85,4|2
280,288,18175,2,0,B|184:312,1,85,4|2
352,168,18539,2,0,B|376:264,1,85,0|0
256,192,18903,5,4
192,112,19084,2,0,B|168:64|192:24,2,85,0|8|0
320,112,19630,2,0,B|344:160|320:200,1,85
256,272,19994,1,8
256,272,20084,2,0,B|160:272,1,85
160,272,20357,5,0
96,192,20539,2,0,B|64:160|72:112,2,85,0|8|0
200,192,21084,1,0
152,104,21266,1,0
96,192,21448,1,8
88,208,21539,1,0
80,224,21630,1,0
72,240,21721,1,0
64,256,21812,1,4
168,264,21994,5,0
256,320,22175,1,8
344,272,22357,1,0
392,144,22539,5,4
320,40,22721,1,0
192,40,22903,1,8
120,144,23084,1,0
120,144,23175,1,0
120,144,23266,5,4
256,320,23539,1,4
392,144,23812,1,4
120,144,24084,1,4
392,144,24357,1,4
256,176,24539,1,4
120,144,24721,5,0
160,264,24903,2,0,B|160:352,2,85
216,64,25448,1,0
256,176,25630,1,0
264,200,25721,1,0
120,144,25903,1,0
128,168,25994,1,0
256,320,26175,5,0
320,40,26448,1,0
128,168,26721,1,0
216,64,26994,1,0
264,200,27266,1,0
112,120,27448,5,0
120,144,27539,1,0
128,168,27630,2,0,B|160:256,1,85,0|0
264,200,27994,2,0,B|296:288,1,85,0|0
400,232,28357,2,0,B|432:320,1,85,0|0
376,160,28721,1,0
368,136,28812,1,0
360,112,28903,1,0
352,88,28994,5,0
328,88,29084,1,0
304,88,29175,1,0
280,88,29266,1,0
200,152,29448,1,0
144,248,29630,1,0
136,224,29721,1,0
80,320,29903,1,0
72,296,29994,1,0
248,250,30175,2,0,B|270:250,8,21.25
200,152,30721,5,0
80,80,30903,2,0,B|96:128,1,42.5
240,64,31266,1,0
232,288,31448,2,0,B|256:240,1,42.5
360,184,31721,2,0,B|328:240,1,42.5
232,288,31994,5,0
200,152,32175,1,0
392,296,32357,2,0,B|376:248,1,42.5
296,120,32721,1,0
240,32,32902,2,0,B|216:80,1,42.5
80,96,33175,2,0,B|112:40,1,42.5
88,176,33448,37,0
72,200,33539,1,0
56,224,33630,1,0
40,248,33721,1,0
3,248,33812,5,0
27,264,33903,1,0
51,280,33994,1,0
75,296,34085,1,0
96,320,34175,37,0
103,296,34266,1,0
131,296,34357,1,0
159,296,34448,1,0
176,272,34539,5,0
189,297,34630,1,0
217,297,34721,1,0
245,297,34812,1,0
273,297,34903,6,0,B|369:281,1,85,4|0
281,225,35175,2,0,B|377:209,1,85
289,153,35448,2,0,B|385:137,1,85,4|0
297,81,35721,2,0,B|393:65,1,85
227,81,35994,5,0
224,107,36085,1,0
219,136,36176,1,0
214,164,36266,1,0
279,181,36357,22,0,B|268:266,1,85,4|0
208,192,36629,2,0,B|196:276,1,85
136,203,36902,2,0,B|123:299,1,85,4|0
64,213,37175,2,0,B|52:297,1,85
69,184,37448,5,0
74,155,37539,1,0
79,126,37630,1,0
84,97,37721,1,0
91,68,37812,5,0
120,68,37903,1,0
149,68,37994,1,0
178,68,38084,1,0
207,68,38175,1,0
227,88,38266,1,0
247,108,38357,1,0
267,128,38448,1,0
287,148,38539,5,0
316,148,38630,1,0
345,148,38721,1,0
374,148,38812,1,0
403,148,38903,1,0
396,177,38994,1,0
391,206,39085,1,0
386,235,39176,1,0
381,264,39266,6,0,B|369:330,1,56.6666666666667,4|0
312,240,39509,1,0
312,240,39630,2,0,B|300:306,1,56.6666666666667,4|0
240,216,39872,1,0
240,216,39993,2,0,B|228:282,1,56.6666666666667,4|0
168,192,40236,1,0
168,192,40357,2,4,B|156:258,3,56.6666666666667
200,328,43448,5,0
312,328,43630,1,4
256,192,45084,5,4
208,112,45812,5,0
304,112,45994,1,0
256,192,46175,1,0
256,280,46357,1,0
256,280,46448,1,0
256,280,46539,1,4
152,256,46721,5,0
360,232,47084,1,0
95,196,47448,1,0
408,160,47811,1,0
360,80,47994,5,4
408,160,48175,1,0
95,196,48539,1,0
360,232,48903,1,0
256,280,49084,5,0
272,184,49266,1,0
272,184,49357,1,0
272,184,49448,1,4
352,328,49630,5,0
160,56,49994,1,0
408,259,50357,1,0
103,124,50721,1,0
192,144,50903,5,4
160,56,51084,1,0
408,259,51448,1,0
103,124,51812,1,0
136,216,51994,5,0
136,216,52084,1,0
136,216,52175,1,0
136,216,52266,1,0
136,216,52357,6,0,B|176:232|184:288,1,85,4|0
96,208,52721,2,0,B|80:248|24:256,1,85,0|0
104,160,53084,2,0,B|64:144|56:88,1,85,4|0
144,168,53448,2,0,B|160:128|216:120,1,85,0|0
302,140,53812,6,0,B|309:190|349:206,1,85,4|0
456,168,54175,2,0,B|405:175|389:215,1,85,0|0
275,302,54539,2,0,B|325:294|341:254,1,85,4|0
428,329,54903,2,0,B|420:278|380:262,1,85
88,88,55266,6,0,B|64:128|88:176,1,85,4|0
104,184,55539,1,0
128,192,55630,2,0,B|216:192,1,85,4|0
288,104,55994,6,0,B|373:104,1,85,4|0
397,112,56266,1,0
416,126,56358,2,0,B|436:167|412:207,1,85,4|0
360,296,56721,6,0,B|304:360,1,85,4|0
152,296,57084,2,0,B|208:360,1,85,4|0
320,208,57448,6,0,B|280:304,1,85,4|0
192,208,57812,2,0,B|232:304,1,85,4|0
128,176,58175,5,4
136,160,58266,1,0
144,176,58357,1,0
152,160,58448,1,0
160,176,58539,1,4
168,160,58630,1,0
176,176,58721,1,0
184,160,58812,1,0
192,176,58903,5,4
200,160,58994,1,0
208,176,59085,1,0
216,160,59176,1,0
224,176,59267,1,4
232,160,59358,1,0
240,176,59449,1,0
248,160,59540,1,0
256,176,59630,5,4
264,160,59721,1,0
272,176,59812,1,0
280,160,59903,1,0
288,176,59994,1,4
296,160,60085,1,0
304,176,60176,1,0
312,160,60267,1,0
320,176,60358,5,4
328,160,60449,1,0
336,176,60540,1,0
344,160,60631,1,0
352,176,60722,1,4
360,160,60813,1,0
368,176,60904,1,0
376,160,60995,1,0
384,176,61084,1,4
256,96,62175,5,0
256,96,62266,1,0
256,96,62357,1,0
256,96,62448,1,0
256,96,62539,1,4
120,304,63994,5,4
256,48,64266,1,4
400,304,64539,1,4
256,144,64812,5,4
256,144,64903,1,4
256,256,65084,1,0
128,80,65266,1,0
256,144,65448,6,0,B|368:144,1,85,0|0
176,232,65812,1,0
197,232,65903,1,0
218,232,65994,1,0
239,232,66084,1,0
260,232,66175,1,0
181,320,66357,2,0,B|96:320,2,85,0|8|0
273,344,66903,5,0
280,320,66994,1,0
308,320,67085,1,0
336,320,67176,1,0
353,296,67267,5,0
366,321,67358,1,0
394,321,67449,1,0
422,321,67540,1,0
431,344,67630,5,0
416,240,67812,1,0
400,136,67994,1,8
384,32,68175,1,0
293,136,68357,6,0,B|208:136,1,85
128,224,68721,1,0
149,224,68812,1,0
170,224,68903,1,0
191,224,68993,1,0
212,224,69084,1,0
133,312,69266,2,0,B|48:312,2,85,0|8|0
232,312,69812,6,0,B|256:192,1,85,4|0
312,280,70084,2,0,B|336:160,1,85
392,256,70357,2,0,B|416:136,1,85,4|0
472,232,70630,2,0,B|488:148,1,85
468,253,70903,5,4
462,273,70994,1,0
459,293,71085,1,0
455,314,71175,1,0
451,335,71266,2,0,B|389:335|389:335|352:360,1,85,4|0
336,152,71630,2,0,B|319:235,1,85
176,152,71994,2,0,B|192:235,1,85
60,335,72358,2,0,B|123:335|123:335|142:347,1,85
256,368,72721,5,4
256,342,72812,1,0
256,316,72903,1,0
256,290,72994,1,0
256,264,73084,1,0
256,238,73175,1,0
256,212,73266,1,0
256,186,73357,1,0
256,16,73539,1,0
256,41,73630,1,0
256,112,73812,1,0
160,112,73994,1,0
64,112,74175,5,4
75,134,74266,1,0
86,156,74357,1,0
97,178,74448,1,0
108,200,74539,1,0
133,200,74630,1,0
158,200,74721,1,0
183,200,74812,1,0
208,200,74903,5,4
219,222,74994,1,0
230,244,75085,1,0
241,266,75176,1,0
252,288,75266,2,0,B|252:330,7,31.874999050051
256,264,75630,6,0,B|344:272,1,85,4|0
296,192,75903,2,0,B|384:192,1,85
328,120,76175,2,0,B|424:112,1,85,4|0
320,48,76448,2,0,B|432:32,1,85
256,88,76721,5,4
256,88,76903,1,4
192,48,77084,6,0,B|107:35,1,85,4|0
184,120,77357,2,0,B|99:112,1,85
216,192,77629,2,0,B|131:192,1,85,4|0
256,264,77902,2,0,B|171:271,1,85
256,344,78175,2,0,B|256:376,6,21.25
256,344,78539,6,0,B|312:344|336:280,1,85,4|0
104,192,78903,2,0,B|104:248|168:272,1,85,8|0
256,40,79266,2,0,B|200:40|176:104,1,85
408,192,79630,2,0,B|408:136|344:112,1,85,8|0
184,176,79994,6,0,B|163:217|187:257,1,85
323,281,80357,2,0,B|344:240|320:200,1,85,8|0
256,120,80721,1,0
200,40,80903,1,0
200,40,80994,1,0
200,40,81084,2,0,B|154:32|123:68,1,85,8|0
24,184,81448,6,0,B|104:208|184:128,1,170,0|8
296,24,81994,1,0
264,152,82175,1,0
200,40,82357,1,0
336,104,82539,1,8
177,134,82721,1,0
177,134,82903,6,0,B|128:224|192:320,1,170,0|8
248,344,83448,1,0
248,344,83539,1,0
248,344,83630,1,0
328,312,83812,1,0
328,312,83903,2,8,B|320:240|240:216,1,127.5
152,208,84357,5,4
96,120,84539,1,0
416,120,84903,1,0
96,120,85266,1,0
416,120,85630,1,0
360,208,85812,5,4
416,120,85994,1,0
96,120,86358,1,0
416,120,86721,1,0
96,120,87085,1,0
152,200,87266,5,4
216,272,87448,1,4
256,184,87630,2,0,B|288:160,4,21.25
360,200,87994,5,4
296,272,88176,1,4
256,184,88358,2,0,B|224:160,4,21.25
184,112,88721,5,4
256,40,88903,1,4
328,112,89084,1,4
432,336,89630,5,4
432,336,89812,2,4,B|360:280|256:328,1,170
256,192,90266,12,8,91266
152,96,91630,5,2
72,288,91812,1,2
112,192,91994,1,0
124,192,92084,1,0
136,192,92175,1,0
148,192,92266,1,0
160,192,92357,2,0,B|296:192,1,127.5,2|2
376,264,92812,5,0
408,240,92902,1,0
424,208,92993,1,0
464,192,93084,1,2
288,192,93266,5,2
464,192,93448,5,2
424,176,93539,1,0
408,144,93630,1,0
376,120,93720,1,0
280,256,93994,6,2,B|248:320,1,42.5
192,272,94175,2,0,B|160:336,1,42.5,0|0
104,288,94357,2,4,B|72:352,1,42.5,6|0
145,208,94539,6,0,B|171:159|171:159|173:118,1,85,4|2
262,203,94903,1,0
267,192,94993,1,0
272,181,95084,1,0
278,171,95175,1,0
284,160,95266,2,0,B|322:86|322:86|376:86,1,127.5,2|2
376,256,95812,1,0
368,88,95994,5,6
378,110,96084,1,0
389,133,96175,1,0
400,156,96266,1,2
232,136,96539,5,2
240,153,96630,1,0
248,170,96721,1,4
256,187,96812,1,2
100,180,97084,5,4
104,191,97175,1,2
109,201,97266,1,4
114,212,97357,1,4
120,224,97448,2,0,B|144:280|144:280|128:312,1,85,4|2
216,152,97812,2,0,B|193:101|193:101|159:101,1,85,0|2
232,272,98175,2,0,B|328:272,1,85,4|2
329,272,98448,1,0
341,272,98539,1,4
424,80,98721,5,4
412,80,98812,1,4
400,80,98904,2,0,B|315:80,1,85,4|2
136,80,99266,1,4
146,103,99357,1,0
156,126,99448,1,2
166,149,99539,2,0,B|176:176|176:176|216:176|216:176|232:208,1,85,0|0
233,213,99812,1,2
243,236,99903,1,0
253,259,99994,1,6
264,281,100084,1,0
274,304,100175,1,6
384,352,100357,5,0
400,320,100448,1,0
400,294,100539,1,0
400,268,100630,1,0
416,240,100721,2,0,B|448:240,7,31.874999050051
384,240,101084,5,0
400,208,101175,1,0
400,182,101266,1,0
400,156,101357,1,0
416,128,101448,2,0,B|448:128,7,31.874999050051
384,128,101812,6,0,B|360:128|360:128|312:56,1,85,4|0
336,192,102084,2,0,B|312:192|312:192|264:120,1,85
200,192,102357,2,0,B|224:192|224:192|272:264,1,85,4|0
270,264,102630,1,0
283,285,102721,1,0
136,304,102903,1,0
264,80,103084,1,0
283,285,103266,5,4
56,152,103539,1,0
376,80,103812,1,4
270,264,104084,1,0
256,240,104175,1,0
264,80,104357,5,6
277,101,104448,1,2
290,122,104539,1,2
304,143,104630,1,2
317,163,104721,6,0,B|365:243,1,85,4|0
280,328,105084,1,8
259,332,105175,1,0
237,330,105266,1,0
216,323,105357,1,0
199,309,105448,2,0,B|167:277|167:229,1,85
432,120,105812,2,0,B|464:152|464:200,1,85,8|0
384,264,106175,5,0
304,200,106357,1,0
200,184,106539,1,8
104,208,106721,1,0
104,208,106812,2,0,B|72:144|104:72,1,127.5
384,264,107266,2,0,B|408:304|384:352,1,85,8|0
200,184,107630,5,0
213,167,107721,1,0
232,158,107812,1,0
253,155,107903,1,0
274,157,107994,2,0,B|320:152|353:201,1,85,8|0
416,336,108357,2,0,B|344:360|288:264,2,127.5
448,240,109084,6,4,B|456:104,3,127.5
456,88,109994,1,0
368,144,110175,1,8
360,48,110357,1,0
448,240,110539,5,4
426,242,110630,1,0
406,250,110721,1,0
389,263,110812,1,0
378,281,110903,2,0,B|357:321|306:329,1,85,8|0
144,304,111266,2,0,B|176:240|264:232,2,127.5
88,216,111994,5,0
104,200,112084,1,0
88,184,112175,1,0
104,168,112265,1,0
88,152,112357,1,8
160,80,112539,1,0
160,80,112630,2,8,B|224:104|224:192,1,127.5,8|0
216,208,112994,1,0
208,232,113084,2,0,B|320:232,1,85,8|0
392,272,113448,5,4
448,184,113630,1,0
344,176,113812,1,8
344,176,113903,1,0
344,176,113994,1,0
344,176,114084,1,8
344,176,114175,2,0,B|296:96,1,85,4|0
211,103,114539,2,0,B|192:144,6,42.5,8|0|0|0|0|0|0
211,103,114903,6,0,B|56:104,4,127.5,4|0|0|0|0
232,128,116084,1,0
248,152,116175,1,0
264,176,116266,1,0
280,200,116357,6,0,B|435:199,4,127.5,4|2|2|2|2
256,224,117539,6,0,B|176:224,1,63.75,2|0
