osu file format v14

[General]
AudioFilename: Celebration.mp3
AudioLeadIn: 0
PreviewTime: 46771
Countdown: 0
SampleSet: Soft
StackLeniency: 0.7
Mode: 0
LetterboxInBreaks: 0
WidescreenStoryboard: 0

[Editor]
Bookmarks: 70294,80521,137965,162340,178703,186885,212112,222340
DistanceSpacing: 1.2
BeatDivisor: 4
GridSize: 4
TimelineZoom: 1

[Metadata]
Title:Celebration~Kimi ni Kakeru Hashi~
TitleUnicode:Celebration~君に架ける橋~
Artist:SUPER JUNIOR-KYUHYUN
ArtistUnicode:SUPER JUNIOR-KYUHYUN
Creator:Cerulean Veyron
Version:Normal
Source:
Tags:エイベックス トラックス Avex Trax スーパージュニア 슈퍼주니어 SJ 규현 キュヒョン One Voice J-pop
BeatmapID:1215200
BeatmapSetID:573658

[Difficulty]
HPDrainRate:4
CircleSize:4.5
OverallDifficulty:4
ApproachRate:5
SliderMultiplier:1.4
SliderTickRate:1

[Events]
//Background and Video events
0,0,"arigato.png",0,0
Video,-150,"1337.avi"
//Break Periods
2,75267,79321
2,137994,139321
2,167994,177503
2,217085,221140
//Storyboard Layer 0 (Background)
//Storyboard Layer 1 (Fail)
//Storyboard Layer 2 (Pass)
//Storyboard Layer 3 (Foreground)
//Storyboard Sound Samples

[TimingPoints]
1431,681.818181818182,4,2,0,50,1,0
11317,-100,4,2,0,20,0,0
12340,-100,4,2,1,50,0,0
45067,-100,4,2,1,30,0,0
46431,-100,4,3,1,40,0,0
47794,-100,4,2,2,80,0,1
69612,-100,4,2,1,60,0,0
113249,-100,4,2,1,30,0,0
114612,-100,4,3,1,40,0,0
115976,-100,4,2,2,80,0,1
137794,-100,4,2,1,30,0,0
140521,-100,4,2,1,50,0,0
162340,-100,4,2,1,20,0,0
178703,-100,4,2,1,40,0,0
186885,-100,4,2,1,16,0,0
188249,-100,4,3,1,40,0,0
189612,-100,4,2,2,80,0,1
211345,-100,4,2,1,40,0,0
211431,-100,4,2,2,90,0,1
211516,-100,4,2,1,70,0,0
232226,-100,4,2,1,40,0,0
233249,-100,4,2,1,20,0,0
234612,-100,4,2,1,10,0,0

[Colours]
Combo1 : 102,217,64
Combo2 : 126,0,20
Combo3 : 87,5,126
Combo4 : 219,133,178
Combo5 : 248,108,40

[HitObjects]
290,131,1431,6,0,P|381:126|428:177,1,140,2|2,0:0|0:0,0:0:0:0:
441,234,2453,1,0,0:0:0:0:
366,272,2794,2,0,L|292:262,1,70,2|0,0:0|0:0,0:0:0:0:
226,309,3476,1,2,0:0:0:0:
145,331,3817,1,0,0:0:0:0:
145,331,3987,1,0,0:0:0:0:
145,331,4158,6,0,P|115:313|92:286,1,70,2|0,0:0|0:0,0:0:0:0:
109,204,4840,2,0,P|100:170|103:135,1,70,2|0,0:0|0:0,0:0:0:0:
173,89,5521,2,0,P|190:59|217:36,1,70,2|0,0:0|0:0,0:0:0:0:
300,54,6203,2,0,P|333:62|368:59,1,70,2|0,0:0|0:0,0:0:0:0:
409,48,6715,1,0,0:0:0:0:
409,48,6885,6,0,B|390:90|390:90|401:188,1,140,2|2,0:0|0:0,0:0:0:0:
451,251,7908,1,0,0:0:0:0:
367,258,8249,2,0,L|300:210,1,70,2|0,0:0|0:0,0:0:0:0:
303,133,8931,1,2,0:0:0:0:
230,90,9271,1,0,0:0:0:0:
230,90,9442,1,0,0:0:0:0:
230,90,9612,6,0,P|177:78|133:79,1,70,2|0,0:0|0:0,0:0:0:0:
93,126,10294,2,0,L|70:228,2,105,2|2|2,0:0|0:0|0:0,0:0:0:0:
93,126,12340,6,0,P|130:185|197:195,2,140,2|8|2,0:0|0:0|0:0,0:0:0:0:
175,114,14044,2,0,P|210:111|242:98,1,70,0|8,0:0|0:0,0:0:0:0:
295,32,14726,1,2,0:0:0:0:
295,32,14896,1,0,0:0:0:0:
295,32,15067,6,0,L|431:74,2,140,2|8|0,0:0|0:0|0:0,0:0:0:0:
211,25,16771,1,0,0:0:0:0:
146,77,17112,2,0,P|135:111|132:145,1,70,10|2,0:0|0:0,0:0:0:0:
143,187,17624,1,0,0:0:0:0:
143,187,17794,6,0,P|132:220|129:254,2,70,2|0|8,0:0|0:0|0:0,0:0:0:0:
221,156,18817,1,2,0:0:0:0:
233,239,19158,2,0,P|230:273|236:307,2,70,2|2|8,0:0|0:0|0:0,0:0:0:0:
311,208,20181,1,0,0:0:0:0:
311,208,20351,1,2,0:0:0:0:
311,208,20521,6,0,P|367:248|433:232,1,140,2|8,0:0|0:0,0:0:0:0:
450,149,21544,2,0,P|394:109|328:125,1,140,2|0,0:0|0:0,0:0:0:0:
311,208,22567,1,10,0:0:0:0:
248,152,22908,1,0,0:0:0:0:
248,152,23078,1,2,0:0:0:0:
248,152,23249,6,0,B|255:82|255:82|216:82|192:55,2,140,2|8|0,0:0|0:0|0:0,0:0:0:0:
175,194,24953,2,0,L|167:269,1,70,2|8,0:0|0:0,0:0:0:0:
143,344,25635,1,0,0:0:0:0:
143,344,25806,1,2,0:0:0:0:
143,344,25976,6,0,P|201:303|279:303,2,140,2|8|0,0:0|0:0|0:0,0:0:0:0:
60,359,27681,1,0,0:0:0:0:
73,276,28021,2,0,L|80:206,1,70,8|0,0:0|0:0,0:0:0:0:
59,170,28533,1,2,0:0:0:0:
59,170,28703,6,0,P|123:195|189:177,1,140,2|8,0:0|0:0,0:0:0:0:
259,224,29726,2,0,P|224:165|227:96,1,140,2|0,0:0|0:0,0:0:0:0:
311,92,30749,2,0,P|344:102|371:123,1,70,8|2,0:0|0:0,0:0:0:0:
391,160,31260,1,2,0:0:0:0:
391,160,31431,6,0,L|373:303,2,140,2|8|0,0:0|0:0|0:0,0:0:0:0:
460,112,33135,1,0,0:0:0:0:
415,41,33476,2,0,P|381:32|346:30,1,70,8|2,0:0|0:0,0:0:0:0:
262,24,34158,6,0,P|316:64|323:133,1,140,2|8,0:0|0:0,0:0:0:0:
262,189,35181,1,0,0:0:0:0:
179,201,35521,2,0,L|31:183,1,140,2|8,0:0|0:0,0:0:0:0:
56,267,36544,1,2,0:0:0:0:
56,267,36715,1,0,0:0:0:0:
56,267,36885,6,0,L|194:283,1,140,2|8,0:0|0:0,0:0:0:0:
265,237,37908,1,0,0:0:0:0:
322,299,38249,2,0,B|345:319|386:325|386:325|421:300|432:273,1,140,2|10,0:0|0:0,0:0:0:0:
454,192,39271,1,0,0:0:0:0:
454,192,39442,1,2,0:0:0:0:
454,192,39612,6,0,B|462:113|462:113|439:91|408:88,1,140,2|10,0:0|0:0,0:0:0:0:
325,103,40635,1,0,0:0:0:0:
250,140,40976,2,0,P|215:138|181:130,2,70,2|0|8,0:0|0:0|0:0,0:0:0:0:
325,103,41999,1,2,0:0:0:0:
325,103,42340,6,0,P|279:156|261:223,1,140,2|10,0:0|0:0,0:0:0:0:
333,267,43362,2,0,B|361:299|362:362|362:362|311:374,1,140,2|2,0:0|0:0,0:0:0:0:
248,335,44385,1,8,0:0:0:0:
169,305,44726,2,0,P|135:316|100:316,1,70,2|0,0:0|0:0,0:0:0:0:
100,316,46431,6,0,L|103:350,4,35,2|2|2|2|2,0:0|0:0|0:0|0:0|0:0,0:0:0:0:
50,248,47453,1,4,0:0:0:0:
91,175,47794,6,0,P|149:137|216:151,1,140,4|8,0:0|0:3,0:0:0:0:
165,218,48817,1,8,0:0:0:0:
248,230,49158,2,0,L|317:239,1,70,8|8,0:0|0:0,0:0:0:0:
369,306,49840,1,8,0:3:0:0:
435,255,50181,1,8,0:0:0:0:
435,255,50351,1,8,0:0:0:0:
435,255,50521,6,0,P|443:217|437:178,1,70,2|0,0:0|0:0,0:0:0:0:
380,127,51203,2,0,L|314:151,1,70,8|8,0:3|0:0,0:0:0:0:
240,111,51885,2,0,P|236:76|244:42,1,70,8|8,0:0|0:0,0:0:0:0:
162,26,52567,2,0,P|143:55|134:88,1,70,8|8,0:3|0:0,0:0:0:0:
138,131,53078,1,8,0:0:0:0:
138,131,53249,6,0,P|138:189|94:271,1,140,2|8,0:0|0:3,0:0:0:0:
34,310,54271,1,8,0:0:0:0:
111,344,54612,2,0,P|145:348|180:343,1,70,8|8,0:0|0:0,0:0:0:0:
256,307,55294,1,8,0:3:0:0:
282,227,55635,1,8,0:0:0:0:
282,227,55806,1,8,0:3:0:0:
282,227,55976,6,0,B|185:211|185:211|148:184,2,140,2|8|8,0:0|0:3|0:0,0:0:0:0:
354,269,57681,1,8,0:0:0:0:
424,223,58021,2,0,L|416:131,1,70,8|8,0:3|0:0,0:0:0:0:
413,111,58533,1,8,0:3:0:0:
413,111,58703,6,0,P|389:85|359:67,1,70,6|0,0:0|0:0,0:0:0:0:
290,116,59385,2,0,P|259:98|236:72,1,70,8|8,0:3|0:0,0:0:0:0:
214,37,59896,1,8,0:3:0:0:
214,37,60067,2,0,B|185:58|185:58|151:65,1,70,8|8,0:0|0:0,0:0:0:0:
68,59,60749,2,0,L|75:145,1,70,8|8,0:3|0:0,0:0:0:0:
44,158,61260,1,8,0:3:0:0:
44,158,61431,6,0,P|121:173|159:233,1,140,2|8,0:0|0:3,0:0:0:0:
112,292,62453,2,0,B|143:265|143:265|254:261,1,140,8|8,0:0|0:0,0:0:0:0:
315,303,63476,1,8,0:3:0:0:
397,285,63817,1,8,0:0:0:0:
397,285,63987,1,8,0:0:0:0:
397,285,64158,6,0,L|412:206,1,70,2|0,0:0|0:0,0:0:0:0:
411,131,64840,2,0,L|396:52,1,70,8|8,0:3|0:0,0:0:0:0:
315,45,65521,2,0,P|268:80|172:80,1,140,0|8,0:0|0:3,0:0:0:0:
112,50,66544,1,8,0:0:0:0:
112,50,66715,1,8,0:0:0:0:
112,50,66885,6,0,B|167:126|167:126|175:171,1,140,2|8,0:0|0:3,0:0:0:0:
151,252,67908,2,0,P|207:291|275:281,1,140,8|8,0:0|0:0,0:0:0:0:
308,255,68760,1,0,0:0:0:0:
308,255,68931,1,8,0:3:0:0:
256,192,69612,12,0,75067,0:0:0:0:
61,212,80521,6,0,P|72:278|130:314,2,140,2|8|2,0:0|0:0|0:0,0:0:0:0:
48,129,82226,2,0,P|83:132|115:145,1,70,0|8,0:0|0:0,0:0:0:0:
171,207,82907,1,2,0:0:0:0:
171,207,83077,1,0,0:0:0:0:
171,207,83248,6,0,L|213:71,2,140,2|8|0,0:0|0:0|0:0,0:0:0:0:
102,255,84952,1,0,0:0:0:0:
158,318,85294,2,0,P|192:329|226:332,1,70,10|2,0:0|0:0,0:0:0:0:
267,321,85805,1,0,0:0:0:0:
267,321,85976,6,0,P|300:310|334:307,2,70,2|0|8,0:0|0:0|0:0,0:0:0:0:
215,255,86998,1,2,0:0:0:0:
287,212,87339,2,0,P|298:179|301:145,2,70,2|2|8,0:0|0:0|0:0,0:0:0:0:
221,160,88362,1,0,0:0:0:0:
221,160,88532,1,2,0:0:0:0:
221,160,88703,6,0,P|181:104|194:35,1,140,2|8,0:0|0:0,0:0:0:0:
262,85,89726,2,0,L|418:95,1,140,2|0,0:0|0:0,0:0:0:0:
475,135,90748,1,10,0:0:0:0:
427,204,91089,1,0,0:0:0:0:
427,204,91259,1,2,0:0:0:0:
427,204,91430,6,0,B|356:200|356:200|329:222|319:258,2,140,2|8|0,0:0|0:0|0:0,0:0:0:0:
473,274,93135,2,0,P|474:308|467:343,1,70,2|8,0:0|0:0,0:0:0:0:
394,301,93816,1,0,0:0:0:0:
394,301,93987,1,2,0:0:0:0:
394,301,94157,6,0,P|336:342|258:342,2,140,2|8|0,0:0|0:0|0:0,0:0:0:0:
402,217,95862,1,0,0:0:0:0:
328,176,96203,2,0,L|258:169,1,70,8|0,0:0|0:0,0:0:0:0:
222,190,96714,1,2,0:0:0:0:
222,190,96885,6,0,P|197:126|215:60,1,140,2|8,0:0|0:0,0:0:0:0:
291,22,97908,2,0,B|192:36|192:36|140:27,1,140,2|0,0:0|0:0,0:0:0:0:
69,38,98930,2,0,P|52:68|48:102,1,70,8|2,0:0|0:0,0:0:0:0:
60,144,99441,1,2,0:0:0:0:
60,144,99612,6,0,L|202:173,2,140,2|8|0,0:0|0:0|0:0,0:0:0:0:
12,213,101316,1,0,0:0:0:0:
70,274,101658,2,0,P|104:265|139:263,1,70,8|2,0:0|0:0,0:0:0:0:
214,300,102340,6,0,P|278:324|339:292,1,140,6|8,0:0|0:0,0:0:0:0:
274,237,103362,1,0,0:0:0:0:
274,237,103703,2,0,B|296:191|296:191|292:89,1,140,2|8,0:0|0:0,0:0:0:0:
233,42,104725,1,2,0:0:0:0:
233,42,104896,1,0,0:0:0:0:
233,42,105067,6,0,P|297:64|371:58,1,140,2|8,0:0|0:0,0:0:0:0:
449,34,106090,1,0,0:0:0:0:
428,115,106430,2,0,B|423:148|443:180|443:180|461:209|460:248,1,140,2|10,0:0|0:0,0:0:0:0:
428,326,107452,1,0,0:0:0:0:
428,326,107623,1,2,0:0:0:0:
428,326,107794,6,0,B|349:334|349:334|327:311|324:280,1,140,2|10,0:0|0:0,0:0:0:0:
333,196,108816,1,0,0:0:0:0:
279,132,109158,2,0,P|281:97|289:63,2,70,2|0|8,0:0|0:0|0:0,0:0:0:0:
242,208,110180,1,2,0:0:0:0:
242,208,110521,6,0,P|189:162|122:144,1,140,2|10,0:0|0:0,0:0:0:0:
69,209,111544,2,0,B|54:252|54:252|99:278|124:325,1,140,2|2,0:0|0:0,0:0:0:0:
190,364,112566,1,8,0:0:0:0:
260,317,112908,2,0,P|294:328|329:328,1,70,2|0,0:0|0:0,0:0:0:0:
328,328,114612,6,0,L|331:294,4,35,2|2|2|2|2,0:0|0:0|0:0|0:0|0:0,0:0:0:0:
404,363,115634,1,4,0:0:0:0:
457,298,115976,6,0,P|470:230|432:174,1,140,4|8,0:0|0:3,0:0:0:0:
365,123,116999,1,8,0:0:0:0:
283,142,117340,2,0,P|248:139|217:123,1,70,8|8,0:0|0:0,0:0:0:0:
171,53,118021,1,8,0:3:0:0:
101,99,118362,1,8,0:0:0:0:
101,99,118532,1,8,0:0:0:0:
101,99,118703,6,0,L|85:176,1,70,2|0,0:0|0:0,0:0:0:0:
103,250,119385,2,0,P|136:267|175:273,1,70,8|8,0:3|0:0,0:0:0:0:
246,242,120067,2,0,P|276:225|310:218,1,70,8|8,0:0|0:0,0:0:0:0:
376,166,120749,2,0,L|405:231,1,70,8|8,0:3|0:0,0:0:0:0:
401,272,121260,1,8,0:0:0:0:
401,272,121430,6,0,P|345:289|281:357,1,140,2|8,0:0|0:3,0:0:0:0:
206,365,122452,1,8,0:0:0:0:
126,339,122794,2,0,L|89:277,1,70,8|8,0:0|0:0,0:0:0:0:
17,236,123476,1,8,0:3:0:0:
56,161,123816,1,8,0:0:0:0:
56,161,123987,1,8,0:3:0:0:
56,161,124157,6,0,P|92:126|186:103,2,140,2|8|8,0:0|0:3|0:0,0:0:0:0:
17,236,125862,1,8,0:0:0:0:
99,224,126203,2,0,P|134:220|169:225,1,70,8|8,0:3|0:0,0:0:0:0:
202,252,126714,1,8,0:3:0:0:
202,252,126885,6,0,P|226:278|256:296,1,70,6|0,0:0|0:0,0:0:0:0:
307,362,127567,2,0,P|338:344|361:318,1,70,8|8,0:3|0:0,0:0:0:0:
366,277,128077,1,8,0:3:0:0:
366,277,128249,2,0,B|391:199,1,70,8|8,0:0|0:0,0:0:0:0:
466,180,128930,2,0,L|447:96,1,70,8|8,0:3|0:0,0:0:0:0:
417,86,129441,1,8,0:3:0:0:
417,86,129612,6,0,P|348:95|285:68,1,140,2|8,0:0|0:3,0:0:0:0:
232,133,130635,2,0,B|133:138|133:138|102:165,1,140,8|8,0:0|0:0,0:0:0:0:
48,230,131657,1,8,0:3:0:0:
131,241,131998,1,8,0:0:0:0:
131,241,132168,1,8,0:0:0:0:
131,241,132340,6,0,P|165:246|196:261,1,70,2|0,0:0|0:0,0:0:0:0:
239,335,133021,2,0,P|271:323|306:319,1,70,8|8,0:3|0:0,0:0:0:0:
389,335,133703,2,0,P|401:264|385:199,1,140,0|8,0:0|0:3,0:0:0:0:
344,125,134725,1,8,0:0:0:0:
344,125,134896,1,8,0:0:0:0:
344,125,135067,6,0,P|288:166|253:226,1,140,2|8,0:0|0:3,0:0:0:0:
271,309,136089,2,0,B|224:329|224:329|126:320,1,140,8|8,0:0|0:0,0:0:0:0:
95,309,136941,1,0,0:0:0:0:
95,309,137112,2,0,P|79:277|70:244,1,70,8|8,0:3|0:0,0:0:0:0:
75,160,137794,5,0,0:0:0:0:
75,160,140521,6,0,L|157:152,1,70,8|2,0:0|0:0,0:0:0:0:
163,71,141203,2,0,L|245:63,1,70,8|2,0:0|0:0,0:0:0:0:
274,138,141885,2,0,L|356:130,1,70,8|2,0:0|0:0,0:0:0:0:
362,49,142567,1,8,0:0:0:0:
442,74,142908,1,2,0:0:0:0:
442,74,143078,1,0,0:0:0:0:
442,74,143249,6,0,P|455:107|457:142,1,70,8|2,0:0|0:0,0:0:0:0:
386,186,143931,2,0,P|373:218|371:253,1,70,10|0,0:0|0:0,0:0:0:0:
381,294,144442,1,2,0:0:0:0:
381,294,144612,2,0,P|354:317|322:330,1,70,8|2,0:0|0:0,0:0:0:0:
239,335,145294,2,0,P|206:321|180:298,1,70,8|0,0:0|0:0,0:0:0:0:
165,259,145806,1,0,0:0:0:0:
165,259,145976,6,0,L|70:246,1,70,8|2,0:0|0:0,0:0:0:0:
138,177,146658,2,0,L|43:164,1,70,8|2,0:0|0:0,0:0:0:0:
112,95,147340,2,0,L|181:104,1,70,8|2,0:0|0:0,0:0:0:0:
249,54,148021,1,8,0:0:0:0:
323,93,148362,1,0,0:0:0:0:
323,93,148533,1,2,0:0:0:0:
323,93,148703,6,0,P|383:80|457:119,1,140,8|0,0:0|0:0,0:0:0:0:
495,185,149726,1,0,0:0:0:0:
430,238,150067,2,0,P|370:251|296:212,1,140,2|8,0:3|0:3,0:0:0:0:
373,174,151090,1,0,0:0:0:0:
373,174,151260,1,0,0:0:0:0:
373,174,151431,6,0,L|346:327,1,140,4|8,0:0|0:3,0:0:0:0:
276,354,152453,1,2,0:0:0:0:
200,318,152794,2,0,P|151:329|129:342,1,70,0|0,0:0|0:0,0:0:0:0:
51,323,153476,2,0,L|66:233,1,70,8|0,0:3|0:0,0:0:0:0:
52,213,153987,1,2,0:0:0:0:
52,213,154158,6,0,P|66:140|34:69,1,140,4|8,0:0|0:3,0:0:0:0:
120,46,155181,2,0,B|207:82|207:82|252:77,1,140,4|0,0:0|0:0,0:0:0:0:
327,40,156203,2,0,P|362:34|396:41,1,70,10|0,0:3|0:0,0:0:0:0:
432,65,156715,1,2,0:0:0:0:
432,65,156885,6,0,B|445:107|445:107|443:157|399:188,1,140,4|8,0:0|0:3,0:0:0:0:
317,202,157908,1,2,0:0:0:0:
317,202,158078,1,0,0:0:0:0:
317,202,158249,2,0,P|382:220|414:284,1,140,2|8,0:0|0:3,0:0:0:0:
330,286,159271,1,0,0:0:0:0:
330,286,159442,1,2,0:0:0:0:
330,286,159612,6,0,P|322:321|305:351,1,70,0|2,0:0|0:0,0:0:0:0:
221,350,160294,2,0,P|203:319|196:285,1,70,8|2,0:3|0:0,0:0:0:0:
208,245,160806,1,0,0:0:0:0:
208,245,160976,2,0,P|136:273|92:229,1,140,2|8,0:0|0:3,0:0:0:0:
256,192,162340,12,4,167794,0:0:0:0:
372,85,178703,6,0,L|414:155,1,70,2|0,0:0|0:0,0:0:0:0:
325,161,179385,2,0,L|340:241,1,70,2|0,0:0|0:0,0:0:0:0:
309,260,179896,1,0,0:0:0:0:
309,260,180067,2,0,L|296:340,1,70,2|0,0:0|0:0,0:0:0:0:
223,368,180749,2,0,L|142:355,1,70,2|0,0:0|0:0,0:0:0:0:
132,321,181260,1,0,0:0:0:0:
132,321,181431,6,0,P|113:241|134:177,1,140,2|0,0:0|0:0,0:0:0:0:
85,113,182453,2,0,P|152:107|204:152,1,140,2|2,0:0|0:0,0:0:0:0:
237,230,183476,1,2,0:0:0:0:
316,256,183817,1,2,0:0:0:0:
316,256,183987,1,2,0:0:0:0:
316,256,184158,6,0,P|372:259|401:251,1,70,0|0,0:0|0:0,0:0:0:0:
421,180,184840,2,0,P|386:175|351:179,1,70,2|0,0:0|0:0,0:0:0:0:
268,189,185521,2,0,B|261:148|297:113|297:113|289:84|263:71,1,140,0|2,0:0|0:0,0:0:0:0:
191,114,186544,1,0,0:0:0:0:
190,30,186885,5,0,0:0:0:0:
190,30,188249,6,0,L|150:23,4,35,2|2|2|2|2,0:0|0:0|0:0|0:0|0:0,0:0:0:0:
259,78,189271,1,4,0:0:0:0:
326,27,189612,6,0,P|339:94|301:150,1,140,4|8,0:0|0:3,0:0:0:0:
218,165,190635,1,8,0:0:0:0:
146,118,190976,2,0,P|135:150|135:185,1,70,8|8,0:0|0:0,0:0:0:0:
193,247,191658,1,8,0:3:0:0:
276,233,191999,1,8,0:0:0:0:
276,233,192169,1,8,0:0:0:0:
276,233,192340,6,0,L|361:235,1,70,2|0,0:0|0:0,0:0:0:0:
405,295,193021,2,0,P|374:312|339:319,1,70,8|8,0:3|0:0,0:0:0:0:
257,310,193703,2,0,P|222:306|188:314,1,70,8|8,0:0|0:0,0:0:0:0:
108,339,194385,2,0,L|119:266,1,70,8|8,0:3|0:0,0:0:0:0:
95,235,194896,1,8,0:0:0:0:
95,235,195067,6,0,P|156:202|225:199,1,140,2|8,0:0|0:3,0:0:0:0:
306,225,196089,1,8,0:0:0:0:
367,167,196430,2,0,P|371:133|366:98,1,70,8|8,0:0|0:0,0:0:0:0:
301,43,197112,1,8,0:3:0:0:
231,90,197453,1,8,0:0:0:0:
231,90,197624,1,8,0:3:0:0:
231,90,197794,6,0,P|163:87|105:124,2,140,2|8|8,0:0|0:3|0:0,0:0:0:0:
289,151,199499,1,8,0:0:0:0:
347,211,199840,2,0,L|439:203,1,70,8|8,0:3|0:0,0:0:0:0:
459,209,200351,1,8,0:3:0:0:
459,209,200521,6,0,P|480:237|485:271,1,70,6|0,0:0|0:0,0:0:0:0:
430,335,201203,2,0,L|361:314,1,70,8|8,0:3|0:0,0:0:0:0:
324,299,201714,1,8,0:3:0:0:
324,299,201885,2,0,B|248:314,1,70,8|8,0:0|0:0,0:0:0:0:
178,346,202567,2,0,P|173:308|185:260,1,70,8|8,0:3|0:0,0:0:0:0:
203,243,203078,1,8,0:3:0:0:
203,243,203249,6,0,B|146:242|146:242|74:200,1,140,2|8,0:0|0:3,0:0:0:0:
4,154,204271,2,0,P|71:166|133:135,1,140,8|8,0:0|0:0,0:0:0:0:
170,60,205294,1,8,0:3:0:0:
243,101,205635,1,8,0:0:0:0:
243,101,205805,1,8,0:0:0:0:
243,101,205976,6,0,L|322:116,1,70,2|0,0:0|0:0,0:0:0:0:
394,97,206658,2,0,P|396:131|406:165,1,70,8|8,0:3|0:0,0:0:0:0:
458,232,207339,2,0,B|410:260|363:236|363:236|328:257,1,140,0|8,0:0|0:3,0:0:0:0:
263,310,208362,1,8,0:0:0:0:
263,310,208533,1,8,0:0:0:0:
263,310,208703,6,0,B|222:254|222:254|219:183,1,140,2|8,0:0|0:3,0:0:0:0:
275,120,209726,2,0,P|219:159|151:149,1,140,8|8,0:0|0:0,0:0:0:0:
118,123,210578,1,0,0:0:0:0:
118,123,210749,1,8,0:3:0:0:
256,192,211430,12,0,216885,0:0:0:0:
49,169,222340,6,0,P|124:177|187:218,1,140,4|8,0:0|0:0,0:0:0:0:
219,283,223362,1,2,0:0:0:0:
303,279,223703,2,0,L|364:236,1,70,0|2,0:0|0:0,0:0:0:0:
440,265,224385,2,0,L|452:191,1,70,8|2,0:0|0:0,0:0:0:0:
474,160,224896,1,0,0:0:0:0:
474,160,225067,6,0,P|430:153|392:130,1,70,0|2,0:0|0:0,0:0:0:0:
335,97,225749,1,8,0:0:0:0:
282,32,226090,2,0,B|244:37|219:58|219:58|186:64|148:52,1,140,2|2,0:0|0:0,0:0:0:0:
71,22,227112,2,0,L|53:89,1,70,8|2,0:0|0:0,0:0:0:0:
120,141,227794,6,0,L|154:276,1,140,4|8,0:0|0:0,0:0:0:0:
125,356,228817,1,2,0:0:0:0:
207,339,229158,2,0,P|241:334|276:336,1,70,0|2,0:0|0:0,0:0:0:0:
358,317,229840,2,0,P|353:282|355:247,1,70,8|2,0:0|0:0,0:0:0:0:
378,212,230351,1,0,0:0:0:0:
378,212,230521,6,0,L|308:166,1,70,0|2,0:0|0:0,0:0:0:0:
284,97,231203,2,0,P|245:99|174:131,2,105,8|2|2,0:0|0:0|0:0,0:0:0:0:
256,192,233249,12,0,237340,0:0:0:0:
