osu file format v14

[General]
AudioFilename: Celebration.mp3
AudioLeadIn: 0
PreviewTime: 46771
Countdown: 0
SampleSet: Soft
StackLeniency: 0.7
Mode: 0
LetterboxInBreaks: 0
WidescreenStoryboard: 0

[Editor]
Bookmarks: 70294,80521,137965,162340,178703,186885,212112,222340
DistanceSpacing: 1.3
BeatDivisor: 4
GridSize: 4
TimelineZoom: 1.4

[Metadata]
Title:Celebration~Kimi ni Kakeru Hashi~
TitleUnicode:Celebration~君に架ける橋~
Artist:SUPER JUNIOR-KYUHYUN
ArtistUnicode:SUPER JUNIOR-KYUHYUN
Creator:Cerulean Veyron
Version:Hard
Source:
Tags:エイベックス トラックス Avex Trax スーパージュニア 슈퍼주니어 SJ 규현 キュヒョン One Voice J-pop
BeatmapID:1215199
BeatmapSetID:573658

[Difficulty]
HPDrainRate:5
CircleSize:5
OverallDifficulty:6
ApproachRate:7
SliderMultiplier:1.6
SliderTickRate:1

[Events]
//Background and Video events
0,0,"arigato.png",0,0
Video,-150,"1337.avi"
//Break Periods
2,75267,79621
2,137994,139621
2,167994,177681
2,217085,221440
//Storyboard Layer 0 (Background)
//Storyboard Layer 1 (Fail)
//Storyboard Layer 2 (Pass)
//Storyboard Layer 3 (Foreground)
//Storyboard Sound Samples

[TimingPoints]
1431,681.818181818182,4,2,0,50,1,0
11317,-100,4,2,0,20,0,0
12340,-100,4,2,1,50,0,0
45067,-100,4,2,1,30,0,0
46431,-100,4,3,1,40,0,0
47794,-76.9230769230769,4,2,2,80,0,1
69612,-100,4,2,1,60,0,0
113249,-100,4,2,1,30,0,0
114612,-100,4,3,1,40,0,0
115976,-76.9230769230769,4,2,2,80,0,1
137794,-100,4,2,1,30,0,0
140521,-100,4,2,1,50,0,0
162340,-100,4,2,1,20,0,0
178703,-100,4,2,1,40,0,0
186885,-100,4,2,1,16,0,0
188249,-100,4,3,1,40,0,0
189612,-66.6666666666667,4,2,2,80,0,1
211345,-100,4,2,1,40,0,0
211431,-76.9230769230769,4,2,1,90,0,1
211516,-100,4,2,1,70,0,0
232226,-100,4,2,1,40,0,0
233249,-100,4,2,2,20,0,0
234612,-100,4,2,1,10,0,0

[Colours]
Combo1 : 102,217,64
Combo2 : 126,0,20
Combo3 : 87,5,126
Combo4 : 219,133,178
Combo5 : 248,108,40

[HitObjects]
413,243,1431,6,0,P|351:197|273:204,1,160,2|2,0:0|0:0,0:0:0:0:
197,276,2453,2,0,L|203:319,1,40,0|0,0:0|0:0,0:0:0:0:
135,326,2794,2,0,L|129:286,1,40,2|0,0:0|0:0,0:0:0:0:
65,253,3135,2,0,P|97:227|110:189,1,80,0|2,0:0|0:0,0:0:0:0:
66,94,3817,1,0,0:0:0:0:
66,94,3987,1,0,0:0:0:0:
66,94,4158,6,0,L|150:118,1,80,2|0,0:0|0:0,0:0:0:0:
194,127,4669,1,0,0:0:0:0:
194,127,4840,2,0,P|146:153|125:184,1,80,2|0,0:0|0:0,0:0:0:0:
118,223,5351,1,0,0:0:0:0:
118,223,5521,2,0,B|160:233|160:233|191:253,1,80,2|0,0:0|0:0,0:0:0:0:
218,298,6033,1,0,0:0:0:0:
218,298,6203,1,2,0:0:0:0:
313,340,6544,2,0,P|319:322|324:295,1,40,0|0,0:0|0:0,0:0:0:0:
310,251,6885,6,0,B|359:273|359:273|385:269,1,80,2|0,0:0|0:0,0:0:0:0:
427,238,7396,2,0,P|440:199|437:151,1,80,0|0,0:0|0:0,0:0:0:0:
410,115,7908,2,0,P|402:97|399:78,1,40,0|0,0:0|0:0,0:0:0:0:
359,23,8249,2,0,B|334:40|325:75|337:107|337:107|306:121|272:122,1,160,2|2,0:0|0:0,0:0:0:0:
147,71,9271,1,0,0:0:0:0:
147,71,9442,1,0,0:0:0:0:
147,71,9612,6,0,P|162:107|163:147,1,80,2|0,0:0|0:0,0:0:0:0:
138,193,10124,2,0,P|101:208|61:209,1,80,0|0,0:0|0:0,0:0:0:0:
28,169,10635,1,0,0:0:0:0:
28,169,10806,2,0,L|22:127,1,40,2|0,0:0|0:0,0:0:0:0:
83,99,11146,2,0,L|88:138,1,40,0|2,0:0|0:0,0:0:0:0:
39,328,12340,6,0,P|93:324|195:274,1,160,2|8,0:0|0:0,0:0:0:0:
254,199,13362,2,0,L|320:184,1,40,0|0,0:0|0:0,0:0:0:0:
345,186,13703,1,2,0:0:0:0:
345,186,13874,1,2,0:0:0:0:
345,186,14044,2,0,P|368:217|377:255,1,80,0|8,0:0|0:0,0:0:0:0:
249,303,14726,2,0,L|204:300,1,40,2|0,0:0|0:0,0:0:0:0:
162,322,15067,6,0,P|191:297|203:259,1,80,2|0,0:0|0:0,0:0:0:0:
192,209,15578,1,0,0:0:0:0:
192,209,15749,2,0,L|106:179,1,80,8|2,0:0|0:0,0:0:0:0:
95,135,16260,2,0,P|92:95|112:50,1,80,2|2,0:0|0:0,0:0:0:0:
147,26,16771,1,0,0:0:0:0:
235,82,17112,1,10,0:0:0:0:
360,29,17453,1,2,0:0:0:0:
360,29,17624,1,0,0:0:0:0:
360,29,17794,6,0,L|350:80,1,40,2|2,0:0|0:0,0:0:0:0:
407,109,18135,2,0,L|417:160,1,40,0|2,0:0|0:0,0:0:0:0:
357,185,18476,2,0,L|341:271,1,80,8|2,0:0|0:0,0:0:0:0:
351,315,18987,1,0,0:0:0:0:
351,315,19158,2,0,P|332:313|309:312,1,40,2|0,0:0|0:0,0:0:0:0:
267,260,19499,2,0,P|247:262|224:263,1,40,2|0,0:0|0:0,0:0:0:0:
204,327,19840,2,0,P|164:330|125:339,1,80,8|0,0:0|0:0,0:0:0:0:
78,361,20351,1,2,0:0:0:0:
78,361,20521,6,0,P|138:298|150:225,1,160,2|8,0:0|0:0,0:0:0:0:
64,123,21544,1,2,0:0:0:0:
64,123,21715,2,0,P|98:141|123:173,1,80,0|2,0:0|0:0,0:0:0:0:
150,218,22226,2,0,P|192:217|231:204,1,80,0|10,0:0|0:0,0:0:0:0:
303,92,22908,1,0,0:0:0:0:
303,92,23078,1,2,0:0:0:0:
303,92,23249,6,0,L|380:113,1,80,2|0,0:0|0:0,0:0:0:0:
438,199,23931,2,0,P|402:214|362:214,1,80,8|0,0:0|0:0,0:0:0:0:
313,198,24442,1,2,0:0:0:0:
313,198,24612,2,0,P|273:198|236:213,1,80,0|2,0:0|0:0,0:0:0:0:
133,196,25294,2,0,B|133:235|133:235|148:272,1,80,8|0,0:0|0:0,0:0:0:0:
192,303,25806,1,2,0:0:0:0:
192,303,25976,6,0,P|150:290|101:290,1,80,2|2,0:0|0:0,0:0:0:0:
64,303,26487,1,0,0:0:0:0:
64,303,26658,2,0,L|41:226,1,80,8|2,0:0|0:0,0:0:0:0:
38,174,27169,2,0,P|49:127|71:100,1,80,2|2,0:0|0:0,0:0:0:0:
114,77,27681,1,0,0:0:0:0:
207,31,28021,1,8,0:0:0:0:
226,166,28362,2,0,L|208:130,1,40,0|2,0:0|0:0,0:0:0:0:
156,126,28703,6,0,P|195:120|231:96,1,80,2|0,0:0|0:0,0:0:0:0:
302,25,29385,2,0,P|335:46|374:52,1,80,8|2,0:0|0:0,0:0:0:0:
426,44,29896,2,0,B|394:80|394:80|385:131,1,80,0|2,0:0|0:0,0:0:0:0:
390,164,30408,1,0,0:0:0:0:
457,282,30749,2,0,L|418:293,1,40,8|0,0:0|0:0,0:0:0:0:
364,252,31090,2,0,L|325:241,1,40,2|2,0:0|0:0,0:0:0:0:
264,271,31431,6,0,P|260:229|285:184,1,80,2|2,0:0|0:0,0:0:0:0:
320,169,31942,2,0,P|278:173|233:148,1,80
218,113,32453,2,0,L|167:108,1,40,2|0,0:0|0:0,0:0:0:0:
125,64,32794,2,0,P|114:102|117:141,1,80,0|0,0:0|0:0,0:0:0:0:
27,244,33476,2,0,B|54:253|54:253|104:252,1,80,8|2,0:0|0:0,0:0:0:0:
154,234,33987,1,2,0:0:0:0:
154,234,34158,6,0,B|203:232|203:232|231:242,1,80,2|2,0:0|0:0,0:0:0:0:
273,275,34669,1,0,0:0:0:0:
273,275,34840,2,0,P|265:237|268:197,1,80,8|0,0:0|0:0,0:0:0:0:
299,154,35351,2,0,L|374:207,1,80,0|0,0:0|0:0,0:0:0:0:
408,229,35862,1,2,0:0:0:0:
465,142,36203,2,0,P|473:103|470:63,1,80,8|2,0:0|0:0,0:0:0:0:
436,23,36715,1,0,0:0:0:0:
436,23,36885,6,0,P|419:59|392:88,1,80,2|0,0:0|0:0,0:0:0:0:
343,106,37396,1,2,0:0:0:0:
343,106,37567,2,0,L|247:91,1,80,8|0,0:0|0:0,0:0:0:0:
219,67,38078,2,0,B|191:82|191:82|202:109|191:141|163:157,1,120,2|0,0:0|0:0,0:0:0:0:
34,112,38931,2,0,L|36:160,1,40,10|2,0:0|0:0,0:0:0:0:
72,209,39271,2,0,L|74:257,1,40,0|2,0:0|0:0,0:0:0:0:
31,302,39612,6,0,P|68:316|107:318,1,80,2|2,0:0|0:0,0:0:0:0:
232,262,40294,2,0,P|251:258|271:257,1,40,10|2,0:0|0:0,0:0:0:0:
328,295,40635,2,0,P|347:294|367:289,1,40,0|2,0:0|0:0,0:0:0:0:
412,238,40976,2,0,P|421:186|415:150,1,80,2|0,0:0|0:0,0:0:0:0:
355,76,41658,1,8,0:0:0:0:
252,91,41999,1,2,0:0:0:0:
316,173,42340,6,0,P|241:195|164:147,1,160,2|10,0:0|0:0,0:0:0:0:
105,79,43362,2,0,L|93:158,1,80,2|0,0:0|0:0,0:0:0:0:
28,239,44043,1,2,0:0:0:0:
116,295,44385,2,0,P|155:300|194:293,1,80,8|2,0:0|0:0,0:0:0:0:
292,255,45067,5,0,0:0:0:0:
317,274,46431,5,2,0:0:0:0:
426,323,46601,1,2,0:0:0:0:
367,219,46771,1,2,0:0:0:0:
356,339,46942,1,2,0:0:0:0:
434,248,47112,2,0,P|437:202|421:170,1,80,2|4,0:0|0:0,0:0:0:0:
267,160,47794,6,0,P|332:177|453:106,1,207.999990478516,4|8,0:0|0:3,0:0:0:0:
334,41,48817,2,0,P|306:46|279:55,1,51.999997619629,8|8,0:0|0:3,0:0:0:0:
213,98,49158,2,0,P|185:97|163:89,1,51.999997619629,8|8,0:0|0:3,0:0:0:0:
88,52,49499,2,0,B|74:81|74:81|68:155,1,103.999995239258,8|8,0:0|0:3,0:0:0:0:
41,285,50181,1,8,0:0:0:0:
41,285,50351,1,8,0:0:0:0:
41,285,50521,6,0,P|88:265|139:271,1,103.999995239258,2|0,0:0|0:0,0:0:0:0:
201,300,51033,1,8,0:0:0:0:
201,300,51203,2,0,B|185:228|185:228|202:185,1,103.999995239258,8|8,0:3|0:0,0:0:0:0:
227,139,51715,1,8,0:3:0:0:
227,139,51885,2,0,P|274:160|325:161,1,103.999995239258,8|8,0:0|0:0,0:0:0:0:
388,135,52396,1,0,0:0:0:0:
388,135,52567,1,8,0:3:0:0:
306,27,52908,2,0,L|293:87,1,51.999997619629,8|8,0:0|0:0,0:0:0:0:
231,55,53249,6,0,P|196:70|128:74,1,103.999995239258,2|0,0:0|0:0,0:0:0:0:
92,130,53760,1,8,0:0:0:0:
112,195,53931,2,0,P|132:210|159:217,1,51.999997619629,8|0,0:3|0:0,0:0:0:0:
223,203,54271,2,0,P|227:228|242:249,1,51.999997619629,8|8,0:0|0:3,0:0:0:0:
317,307,54612,2,0,B|292:278|244:266|210:278|210:278|188:310|188:310|166:319|135:316,1,207.999990478516,8|8,0:0|0:3,0:0:0:0:
14,258,55635,1,8,0:0:0:0:
14,258,55806,1,8,0:3:0:0:
14,258,55976,6,0,P|73:242|115:217,1,103.999995239258,2|8,0:0|0:0,0:0:0:0:
136,158,56487,1,8,0:0:0:0:
103,99,56658,2,0,P|90:48|89:13,1,51.999997619629,8|0,0:3|0:0,0:0:0:0:
153,21,56999,2,0,L|207:32,1,51.999997619629,8|8,0:0|0:3,0:0:0:0:
249,82,57340,2,0,P|273:127|286:177,1,103.999995239258,8|8,0:0|0:0,0:0:0:0:
271,244,57851,1,0,0:0:0:0:
271,244,58021,2,0,P|290:263|314:277,1,51.999997619629,8|8,0:3|0:0,0:0:0:0:
236,312,58362,2,0,P|223:334|218:362,1,51.999997619629,8|8,0:0|0:3,0:0:0:0:
162,298,58703,6,0,P|136:293|57:322,1,103.999995239258,6|0,0:0|0:0,0:0:0:0:
26,259,59215,1,0,0:0:0:0:
26,259,59385,2,0,L|79:265,1,51.999997619629,8|8,0:3|0:0,0:0:0:0:
120,193,59726,2,0,L|161:233,1,51.999997619629,8|8,0:0|0:3,0:0:0:0:
240,239,60067,2,0,L|234:135,1,103.999995239258,8|8,0:0|0:0,0:0:0:0:
182,92,60578,1,8,0:0:0:0:
182,92,60749,2,0,L|225:63,1,51.999997619629,8|8,0:3|0:0,0:0:0:0:
299,102,61090,2,0,L|349:90,1,51.999997619629,8|8,0:0|0:3,0:0:0:0:
424,52,61431,6,0,P|390:97|394:148,1,103.999995239258,2|0,0:0|0:0,0:0:0:0:
438,193,61942,1,8,0:0:0:0:
438,193,62112,1,8,0:3:0:0:
429,328,62453,2,0,P|404:320|382:307,1,51.999997619629,8|8,0:0|0:3,0:0:0:0:
339,255,62794,2,0,P|317:241|292:234,1,51.999997619629,8|8,0:0|0:3,0:0:0:0:
244,186,63135,2,0,B|261:257|261:257|252:291,1,103.999995239258,8|8,0:0|0:3,0:0:0:0:
131,347,63817,1,8,0:0:0:0:
131,347,63987,1,8,0:0:0:0:
131,347,64158,6,0,P|99:307|91:256,1,103.999995239258,2|0,0:0|0:0,0:0:0:0:
23,139,64840,2,0,B|51:153|51:153|123:149,1,103.999995239258,8|8,0:3|0:0,0:0:0:0:
168,98,65351,2,0,P|158:141|191:196,1,103.999995239258,8|8,0:3|0:3,0:0:0:0:
224,136,65862,2,0,L|281:129,1,51.999997619629,8|0,0:0|0:0,0:0:0:0:
330,89,66203,1,8,0:3:0:0:
450,204,66544,1,8,0:0:0:0:
450,204,66715,1,8,0:0:0:0:
450,204,66885,6,0,P|391:179|341:178,1,103.999995239258,2|0,0:0|0:0,0:0:0:0:
292,209,67396,1,8,0:0:0:0:
292,209,67567,2,0,P|267:268|266:318,1,103.999995239258,8|8,0:3|0:0,0:0:0:0:
214,352,68078,2,0,L|112:322,1,103.999995239258,8|8,0:3|0:3,0:0:0:0:
87,260,68590,1,8,0:0:0:0:
172,155,68931,1,8,0:3:0:0:
39,133,69271,1,8,0:0:0:0:
87,260,69612,5,4,0:0:0:0:
256,192,69698,12,0,75067,0:0:0:0:
385,110,80521,6,0,P|393:168|336:249,1,160,2|8,0:0|0:0,0:0:0:0:
236,272,81544,1,0,0:0:0:0:
104,239,81885,1,2,0:0:0:0:
104,239,82056,1,2,0:0:0:0:
104,239,82226,2,0,P|88:191|92:146,1,80,0|8,0:0|0:0,0:0:0:0:
134,33,82908,2,0,L|148:75,1,40,2|0,0:0|0:0,0:0:0:0:
149,122,83249,6,0,P|175:94|213:82,1,80,2|0,0:0|0:0,0:0:0:0:
265,92,83760,1,0,0:0:0:0:
265,92,83931,2,0,L|252:177,1,80,8|2,0:0|0:0,0:0:0:0:
291,207,84442,2,0,P|328:195|355:166,1,80,2|2,0:0|0:0,0:0:0:0:
372,117,84953,1,0,0:0:0:0:
471,85,85294,1,10,0:0:0:0:
452,220,85635,1,2,0:0:0:0:
452,220,85806,1,0,0:0:0:0:
452,220,85976,6,0,L|430:266,1,40,2|2,0:0|0:0,0:0:0:0:
367,264,86317,2,0,L|320:285,1,40,0|2,0:0|0:0,0:0:0:0:
293,337,86658,2,0,P|261:314|224:301,1,80,8|2,0:0|0:0,0:0:0:0:
171,303,87169,1,0,0:0:0:0:
171,303,87340,2,0,P|167:284|165:264,1,40,2|0,0:0|0:0,0:0:0:0:
110,223,87681,2,0,P|119:205|130:189,1,40,2|0,0:0|0:0,0:0:0:0:
107,125,88021,2,0,L|183:102,1,80,8|0,0:0|0:0,0:0:0:0:
209,56,88533,1,2,0:0:0:0:
209,56,88703,6,0,B|182:73|183:102|183:102|237:127|232:202,1,160,2|8,0:0|0:0,0:0:0:0:
142,289,89726,1,2,0:0:0:0:
142,289,89896,2,0,P|152:251|179:222,1,80,0|2,0:0|0:0,0:0:0:0:
229,205,90408,2,0,B|280:224|280:224|322:217,1,80,0|10,0:0|0:0,0:0:0:0:
422,149,91090,1,0,0:0:0:0:
422,149,91260,1,2,0:0:0:0:
422,149,91431,6,0,P|440:195|437:240,1,80,2|0,0:0|0:0,0:0:0:0:
368,299,92112,2,0,L|271:289,1,80,8|0,0:0|0:0,0:0:0:0:
245,261,92624,1,2,0:0:0:0:
245,261,92794,2,0,B|229:248|229:248|159:238,1,80,0|2,0:0|0:0,0:0:0:0:
67,255,93476,2,0,P|93:221|103:178,1,80,8|0,0:0|0:0,0:0:0:0:
89,135,93987,1,2,0:0:0:0:
89,135,94158,6,0,L|158:206,1,80,2|2,0:0|0:0,0:0:0:0:
197,189,94669,1,0,0:0:0:0:
197,189,94840,2,0,P|223:155|233:112,1,80,8|2,0:0|0:0,0:0:0:0:
225,68,95351,2,0,B|257:44|257:44|298:35,1,80,2|2,0:0|0:0,0:0:0:0:
348,42,95862,1,0,0:0:0:0:
424,113,96203,1,8,0:0:0:0:
322,204,96544,2,0,P|323:223|331:241,1,40,0|2,0:0|0:0,0:0:0:0:
372,275,96885,6,0,L|292:267,1,80,2|0,0:0|0:0,0:0:0:0:
210,204,97567,2,0,B|178:251|178:251|158:263,1,80,8|2,0:0|0:0,0:0:0:0:
107,255,98078,2,0,P|102:210|73:167,1,80,0|2,0:0|0:0,0:0:0:0:
39,156,98590,1,0,0:0:0:0:
136,61,98931,2,0,P|155:66|174:69,1,40,8|0,0:0|0:0,0:0:0:0:
215,124,99271,2,0,P|234:118|253:115,1,40,2|2,0:0|0:0,0:0:0:0:
301,66,99612,6,0,P|302:120|335:162,1,80,2|2,0:0|0:0,0:0:0:0:
360,167,100124,1,0,0:0:0:0:
407,145,100294,2,0,P|434:151|454:161,1,40,8|0,0:0|0:0,0:0:0:0:
470,202,100635,2,0,P|456:226|441:242,1,40,2|0,0:0|0:0,0:0:0:0:
409,269,100976,2,0,P|372:282|332:286,1,80,0|0,0:0|0:0,0:0:0:0:
225,358,101658,2,0,P|211:320|207:280,1,80,8|2,0:0|0:0,0:0:0:0:
231,221,102169,1,2,0:0:0:0:
231,221,102340,6,0,B|201:233|201:233|132:235,1,80,6|2,0:0|0:0,0:0:0:0:
107,210,102851,1,0,0:0:0:0:
107,210,103021,2,0,P|101:170|107:130,1,80,8|0,0:0|0:0,0:0:0:0:
80,86,103533,2,0,P|115:108|164:118,1,80,0|0,0:0|0:0,0:0:0:0:
204,114,104044,1,2,0:0:0:0:
289,54,104385,2,0,L|379:46,1,80,8|2,0:0|0:0,0:0:0:0:
418,30,104896,1,0,0:0:0:0:
418,30,105067,6,0,L|392:109,1,80,2|0,0:0|0:0,0:0:0:0:
351,137,105578,1,2,0:0:0:0:
351,137,105749,2,0,P|404:147|427:167,1,80,8|0,0:0|0:0,0:0:0:0:
421,215,106260,2,0,P|362:212|315:176,1,120,2|0,0:0|0:0,0:0:0:0:
245,70,107112,2,0,L|233:113,1,40,10|2,0:0|0:0,0:0:0:0:
166,113,107453,2,0,L|178:156,1,40,0|2,0:0|0:0,0:0:0:0:
122,192,107794,6,0,L|197:233,1,80,2|2,0:0|0:0,0:0:0:0:
282,333,108476,2,0,P|301:333|321:328,1,40,10|2,0:0|0:0,0:0:0:0:
389,338,108817,2,0,P|389:318|384:298,1,40,0|2,0:0|0:0,0:0:0:0:
338,249,109158,2,0,P|377:254|415:243,1,80,2|0,0:0|0:0,0:0:0:0:
476,158,109840,1,8,0:0:0:0:
404,83,110181,1,2,0:0:0:0:
373,182,110521,6,0,B|338:184|309:142|309:142|280:102|241:105,1,160,2|10,0:0|0:0,0:0:0:0:
137,106,111544,1,2,0:0:0:0:
50,163,111885,2,0,P|51:202|76:237,1,80,0|2,0:0|0:0,0:0:0:0:
177,250,112567,2,0,L|194:295,1,40,8|0,0:0|0:0,0:0:0:0:
246,247,112908,2,0,L|281:213,1,40,2|0,0:0|0:0,0:0:0:0:
322,268,113249,5,0,0:0:0:0:
366,251,114612,5,2,0:0:0:0:
358,131,114783,1,2,0:0:0:0:
401,242,114953,1,2,0:0:0:0:
330,145,115124,1,2,0:0:0:0:
428,215,115294,2,0,B|452:231|452:231|486:282,1,80,2|4,0:0|0:0,0:0:0:0:
439,122,115976,6,0,P|382:204|282:211,1,207.999990478516,4|8,0:0|0:3,0:0:0:0:
173,131,116999,2,0,P|143:132|121:139,1,51.999997619629,8|8,0:0|0:3,0:0:0:0:
76,208,117340,2,0,L|86:266,1,51.999997619629,8|8,0:0|0:3,0:0:0:0:
154,315,117681,2,0,L|163:205,1,103.999995239258,8|8,0:0|0:3,0:0:0:0:
258,116,118362,1,8,0:0:0:0:
258,116,118533,1,8,0:0:0:0:
258,116,118703,6,0,P|316:105|363:118,1,103.999995239258,2|0,0:0|0:0,0:0:0:0:
414,76,119215,1,8,0:0:0:0:
414,76,119385,2,0,L|399:187,1,103.999995239258,8|8,0:3|0:0,0:0:0:0:
338,207,119896,1,8,0:3:0:0:
338,207,120067,2,0,B|376:211|376:211|421:266,1,103.999995239258,8|8,0:0|0:0,0:0:0:0:
399,327,120578,1,0,0:0:0:0:
399,327,120749,1,8,0:3:0:0:
266,305,121090,2,0,L|210:322,1,51.999997619629,8|8,0:0|0:0,0:0:0:0:
157,353,121431,6,0,P|103:337|63:307,1,103.999995239258,2|0,0:0|0:0,0:0:0:0:
43,245,121942,1,8,0:0:0:0:
83,191,122112,2,0,B|93:157|93:157|88:121,1,51.999997619629,8|0,0:3|0:0,0:0:0:0:
60,80,122453,2,0,P|84:73|110:76,1,51.999997619629,8|8,0:0|0:3,0:0:0:0:
182,152,122794,2,0,B|153:131|141:97|148:66|165:42|187:33|187:33|221:42|219:28|251:37,1,207.999990478516,8|8,0:0|0:3,0:0:0:0:
381,74,123817,1,8,0:0:0:0:
381,74,123987,1,8,0:3:0:0:
381,74,124158,6,0,P|356:129|359:186,1,103.999995239258,2|8,0:0|0:0,0:0:0:0:
406,217,124669,1,8,0:0:0:0:
409,285,124840,2,0,P|403:313|389:337,1,51.999997619629,8|0,0:3|0:0,0:0:0:0:
325,346,125181,2,0,B|300:341|300:341|274:345,1,51.999997619629,8|8,0:0|0:3,0:0:0:0:
208,360,125521,2,0,B|190:328|190:328|180:251,1,103.999995239258,8|8,0:0|0:0,0:0:0:0:
215,202,126033,1,0,0:0:0:0:
215,202,126203,2,0,P|242:215|274:218,1,51.999997619629,8|8,0:3|0:0,0:0:0:0:
345,201,126544,2,0,P|332:228|329:260,1,51.999997619629,8|8,0:0|0:3,0:0:0:0:
410,230,126885,6,0,P|409:176|389:128,1,103.999995239258,6|0,0:0|0:0,0:0:0:0:
417,68,127396,1,0,0:0:0:0:
417,68,127567,2,0,L|353:45,1,51.999997619629,8|8,0:3|0:0,0:0:0:0:
289,77,127908,2,0,L|312:13,1,51.999997619629,8|8,0:0|0:3,0:0:0:0:
229,59,128249,2,0,P|265:94|270:145,1,103.999995239258,8|8,0:0|0:0,0:0:0:0:
229,199,128760,1,8,0:0:0:0:
229,199,128931,2,0,L|196:143,1,51.999997619629,8|8,0:3|0:0,0:0:0:0:
121,138,129271,2,0,P|96:146|70:147,1,51.999997619629,8|8,0:0|0:3,0:0:0:0:
114,218,129612,6,0,B|134:251|134:251|129:316,1,103.999995239258,2|0,0:0|0:0,0:0:0:0:
75,357,130124,1,8,0:0:0:0:
75,357,130294,1,8,0:3:0:0:
222,279,130635,2,0,P|245:268|271:265,1,51.999997619629,8|8,0:0|0:3,0:0:0:0:
330,299,130976,2,0,B|355:295|355:295|379:284,1,51.999997619629,8|8,0:0|0:3,0:0:0:0:
396,219,131317,2,0,P|412:273|456:301,1,103.999995239258,8|8,0:0|0:3,0:0:0:0:
444,164,131999,1,8,0:0:0:0:
444,164,132169,1,8,0:0:0:0:
444,164,132340,6,0,P|390:146|343:168,1,103.999995239258,2|0,0:0|0:0,0:0:0:0:
275,277,133021,2,0,B|283:207|283:207|267:172,1,103.999995239258,8|8,0:3|0:0,0:0:0:0:
201,169,133533,2,0,P|249:155|274:111,1,103.999995239258,8|8,0:3|0:3,0:0:0:0:
207,103,134044,2,0,L|152:118,1,51.999997619629,8|0,0:0|0:0,0:0:0:0:
92,97,134385,1,8,0:3:0:0:
35,253,134726,1,8,0:0:0:0:
35,253,134896,1,8,0:0:0:0:
35,253,135067,6,0,B|86:242|86:242|137:248,1,103.999995239258,2|0,0:0|0:0,0:0:0:0:
183,299,135578,1,8,0:0:0:0:
183,299,135749,2,0,L|174:189,1,103.999995239258,8|8,0:3|0:0,0:0:0:0:
133,140,136260,2,0,P|179:118|230:118,1,103.999995239258,8|8,0:3|0:3,0:0:0:0:
296,137,136771,1,8,0:0:0:0:
401,223,137112,1,8,0:3:0:0:
275,270,137453,1,8,0:0:0:0:
275,270,137624,1,0,0:0:0:0:
275,270,137794,5,0,0:0:0:0:
374,152,140521,6,0,L|278:133,1,80,8|2,0:0|0:0,0:0:0:0:
204,87,141203,2,0,L|235:179,1,80,8|2,0:0|0:0,0:0:0:0:
233,267,141885,2,0,L|297:193,1,80,8|2,0:0|0:0,0:0:0:0:
416,67,142567,2,0,P|398:76|383:89,1,40,8|2,0:0|0:0,0:0:0:0:
374,152,142908,1,2,0:0:0:0:
374,152,143078,1,0,0:0:0:0:
436,130,143249,6,0,P|438:149|436:175,1,40,8|0,0:0|0:0,0:0:0:0:
391,215,143590,2,0,L|377:253,1,40,2|0,0:0|0:0,0:0:0:0:
314,241,143931,2,0,L|319:280,1,40,10|2,0:0|0:0,0:0:0:0:
363,327,144271,1,0,0:0:0:0:
363,327,144442,2,0,P|327:343|288:337,1,80,2|0,0:0|0:0,0:0:0:0:
250,285,144953,2,0,P|231:280|211:279,1,40,2|2,0:0|0:0,0:0:0:0:
176,225,145294,2,0,B|182:280|182:280|176:305,1,80,8|0,0:0|0:0,0:0:0:0:
78,221,145976,6,0,B|72:166|72:166|78:141,1,80,8|2,0:0|0:0,0:0:0:0:
96,39,146658,2,0,P|133:54|162:80,1,80,8|2,0:0|0:0,0:0:0:0:
245,145,147340,2,0,L|170:180,1,80,8|2,0:0|0:0,0:0:0:0:
77,221,148021,1,8,0:0:0:0:
77,221,148192,1,2,0:0:0:0:
77,221,148362,2,0,P|73:240|72:260,1,40,0|2,0:0|0:0,0:0:0:0:
36,313,148703,6,0,P|74:305|114:304,1,80,8|2,0:0|0:0,0:0:0:0:
178,319,149215,2,0,P|216:327|256:328,1,80,2|2,0:0|0:0,0:0:0:0:
320,317,149726,2,0,L|324:269,1,40,0|0,0:0|0:0,0:0:0:0:
370,233,150067,2,0,P|368:213|362:194,1,40,2|2,0:3|0:3,0:0:0:0:
315,151,150408,1,2,0:3:0:0:
253,136,150578,1,2,0:3:0:0:
363,108,150749,2,0,L|451:139,1,80,8|0,0:3|0:0,0:0:0:0:
362,42,151431,6,0,P|325:54|301:85,1,80,4|0,0:0|0:0,0:0:0:0:
289,136,151942,1,2,0:0:0:0:
289,136,152112,2,0,B|275:115|275:115|212:102,1,80,8|2,0:3|0:0,0:0:0:0:
192,59,152624,2,0,L|173:155,1,80,2|2,0:0|0:0,0:0:0:0:
117,162,153135,2,0,L|104:224,1,40,0|2,0:0|0:0,0:0:0:0:
52,232,153476,2,0,P|109:217|164:238,1,120,8|2,0:3|0:0,0:0:0:0:
198,293,154158,6,0,P|237:294|275:282,1,80,4|0,0:0|0:0,0:0:0:0:
323,305,154669,2,0,P|324:265|312:227,1,80,2|2,0:0|0:0,0:0:0:0:
264,207,155181,2,0,B|344:219|344:219|411:211,1,120,4|0,0:0|0:0,0:0:0:0:
441,188,155862,1,0,0:0:0:0:
441,188,156033,1,0,0:0:0:0:
441,188,156203,2,0,P|453:172|459:153,1,40,10|2,0:3|0:0,0:0:0:0:
451,89,156544,2,0,P|431:92|411:92,1,40,0|2,0:0|0:0,0:0:0:0:
357,57,156885,6,0,P|308:55|261:60,1,80,4|0,0:0|0:0,0:0:0:0:
239,93,157396,2,0,L|136:78,1,80,2|0,0:0|0:0,0:0:0:0:
97,97,157908,2,0,P|85:113|79:132,1,40,2|0,0:0|0:0,0:0:0:0:
112,188,158249,2,0,L|191:199,1,80,2|0,0:0|0:0,0:0:0:0:
238,177,158760,2,0,B|222:215|222:215|226:256,1,80,0|2,0:0|0:0,0:0:0:0:
265,304,159271,2,0,L|314:326,1,40,0|2,0:0|0:0,0:0:0:0:
364,305,159612,5,0,0:0:0:0:
450,246,159953,1,2,0:0:0:0:
356,201,160294,1,8,0:3:0:0:
442,143,160635,1,2,0:0:0:0:
442,143,160806,1,0,0:0:0:0:
442,143,160976,2,0,L|438:97,1,40,2|2,0:0|0:0,0:0:0:0:
387,65,161317,2,0,L|341:69,1,40,0|2,0:0|0:0,0:0:0:0:
303,115,161658,2,0,L|257:111,2,40,8|0|0,0:3|0:0|0:0,0:0:0:0:
303,115,162169,1,0,0:0:0:0:
256,192,162340,12,4,167794,0:0:0:0:
351,258,178703,6,0,L|360:172,1,80,2|0,0:0|0:0,0:0:0:0:
269,127,179385,2,0,L|278:213,1,80,2|0,0:0|0:0,0:0:0:0:
190,149,180067,2,0,L|198:69,1,80,2|0,0:0|0:0,0:0:0:0:
104,24,180749,1,2,0:0:0:0:
33,100,181090,1,0,0:0:0:0:
94,184,181431,6,0,P|100:223|92:262,1,80,2|0,0:0|0:0,0:0:0:0:
60,303,181942,2,0,L|155:289,1,80,2|0,0:0|0:0,0:0:0:0:
174,253,182453,1,2,0:0:0:0:
174,253,182624,2,0,P|235:271|303:249,1,120,2|2,0:0|0:0,0:0:0:0:
349,173,183476,1,2,0:0:0:0:
410,257,183817,1,2,0:0:0:0:
349,173,184158,6,0,P|344:134|344:94,1,80,0|0,0:0|0:0,0:0:0:0:
254,41,184840,2,0,P|259:80|259:120,1,80,2|0,0:0|0:0,0:0:0:0:
211,139,185351,2,0,P|181:112|155:81,1,80,2|2,0:0|0:0,0:0:0:0:
140,32,185862,1,2,0:0:0:0:
51,86,186203,1,2,0:0:0:0:
109,172,186544,1,0,0:0:0:0:
111,276,186885,5,0,0:0:0:0:
111,276,188249,5,2,0:0:0:0:
226,309,188419,1,2,0:0:0:0:
290,207,188590,1,2,0:0:0:0:
175,240,188760,1,2,0:0:0:0:
290,275,188931,2,0,P|327:263|352:233,1,80,2|4,0:0|0:0,0:0:0:0:
223,358,189612,6,0,P|248:289|141:171,1,240.000009155274,4|8,0:0|0:3,0:0:0:0:
7,232,190635,2,0,L|2:158,1,60.0000022888184,8|8,0:0|0:3,0:0:0:0:
74,140,190976,2,0,L|79:66,1,60.0000022888184,8|8,0:0|0:3,0:0:0:0:
29,19,191317,2,0,P|79:49|138:48,1,120.000004577637,8|8,0:0|0:3,0:0:0:0:
292,14,191999,1,8,0:0:0:0:
292,14,192169,1,8,0:0:0:0:
292,14,192340,6,0,L|247:134,1,120.000004577637,2|0,0:0|0:0,0:0:0:0:
181,164,192851,1,8,0:0:0:0:
181,164,193021,2,0,P|258:161|303:177,1,120.000004577637,8|8,0:3|0:0,0:0:0:0:
355,229,193533,1,8,0:3:0:0:
355,229,193703,2,0,P|414:234|471:218,1,120.000004577637,8|8,0:0|0:0,0:0:0:0:
505,146,194215,1,0,0:0:0:0:
505,146,194385,1,8,0:3:0:0:
472,298,194726,2,0,L|436:354,1,60.0000022888184,8|8,0:0|0:0,0:0:0:0:
367,319,195067,6,0,P|308:328|248:329,1,120.000004577637,2|0,0:0|0:0,0:0:0:0:
176,298,195578,1,8,0:0:0:0:
240,253,195749,2,0,P|233:231|209:178,1,60.0000022888184,8|0,0:3|0:0,0:0:0:0:
151,158,196090,2,0,P|122:161|92:163,1,60.0000022888184,8|8,0:0|0:3,0:0:0:0:
38,220,196431,2,0,B|14:181|14:122|42:90|42:90|80:99|80:99|113:94|135:70,1,240.000009155274,8|8,0:0|0:3,0:0:0:0:
279,12,197453,1,8,0:0:0:0:
279,12,197624,1,8,0:3:0:0:
279,12,197794,6,0,B|275:50|275:50|308:130,1,120.000004577637,2|8,0:0|0:0,0:0:0:0:
363,180,198306,1,8,0:0:0:0:
291,151,198476,2,0,P|275:173|261:203,1,60.0000022888184,8|0,0:3|0:0,0:0:0:0:
326,246,198817,2,0,P|326:275|320:305,1,60.0000022888184,8|8,0:0|0:3,0:0:0:0:
259,354,199158,2,0,L|396:327,1,120.000004577637,8|8,0:0|0:0,0:0:0:0:
454,343,199669,1,0,0:0:0:0:
454,343,199840,2,0,L|467:279,1,60.0000022888184,8|8,0:3|0:0,0:0:0:0:
375,172,200181,2,0,P|375:206|388:236,1,60.0000022888184,8|8,0:0|0:3,0:0:0:0:
432,127,200521,6,0,P|382:99|327:117,1,120.000004577637,6|0,0:0|0:0,0:0:0:0:
299,192,201033,1,0,0:0:0:0:
299,192,201203,2,0,P|270:187|237:171,1,60.0000022888184,8|8,0:3|0:0,0:0:0:0:
138,127,201544,2,0,P|167:121|195:110,1,60.0000022888184,8|8,0:0|0:3,0:0:0:0:
82,92,201885,2,0,P|116:150|131:211,1,120.000004577637,8|8,0:0|0:0,0:0:0:0:
109,276,202396,1,8,0:0:0:0:
109,276,202567,2,0,B|146:291|146:291|179:291,1,60.0000022888184,8|8,0:3|0:0,0:0:0:0:
273,331,202908,2,0,B|254:295|254:295|229:274,1,60.0000022888184,8|8,0:0|0:3,0:0:0:0:
169,192,203249,6,0,P|248:207|303:204,1,120.000004577637,2|0,0:0|0:0,0:0:0:0:
362,183,203760,1,8,0:0:0:0:
362,183,203931,1,8,0:3:0:0:
442,50,204271,2,0,P|414:37|385:33,1,60.0000022888184,8|8,0:0|0:3,0:0:0:0:
316,69,204612,2,0,P|288:81|259:85,1,60.0000022888184,8|8,0:0|0:3,0:0:0:0:
187,54,204953,2,0,B|214:89|214:89|198:174,1,120.000004577637,8|8,0:0|0:3,0:0:0:0:
71,252,205635,1,8,0:0:0:0:
71,252,205806,1,8,0:0:0:0:
71,252,205976,6,0,P|136:263|176:310,1,120.000004577637,2|0,0:0|0:0,0:0:0:0:
318,355,206658,2,0,B|392:310|392:310|412:283,1,120.000004577637,8|8,0:3|0:0,0:0:0:0:
467,228,207169,2,0,P|408:252|357:218,1,120.000004577637,8|8,0:3|0:3,0:0:0:0:
316,163,207681,2,0,L|334:88,1,60.0000022888184,8|0,0:0|0:0,0:0:0:0:
294,36,208021,1,8,0:3:0:0:
179,142,208362,1,8,0:0:0:0:
179,142,208533,1,8,0:0:0:0:
179,142,208703,6,0,P|140:154|67:111,1,120.000004577637,2|0,0:0|0:0,0:0:0:0:
26,57,209215,1,8,0:0:0:0:
26,57,209385,2,0,L|41:183,1,120.000004577637,8|8,0:3|0:0,0:0:0:0:
21,252,209896,2,0,B|68:243|68:243|158:275,1,120.000004577637,8|8,0:3|0:3,0:0:0:0:
210,294,210408,1,8,0:0:0:0:
353,233,210749,1,8,0:3:0:0:
233,133,211090,1,8,0:0:0:0:
210,294,211431,5,4,0:0:0:0:
256,192,211516,12,0,216885,0:0:0:0:
313,267,222340,6,0,P|350:255|375:224,1,80,4|2,0:0|0:0,0:0:0:0:
387,121,223021,1,8,0:0:0:0:
298,176,223362,1,2,0:0:0:0:
298,176,223533,1,0,0:0:0:0:
298,176,223703,2,0,P|259:172|220:163,1,80,0|2,0:0|0:0,0:0:0:0:
135,101,224385,2,0,L|74:121,1,40,8|0,0:0|0:0,0:0:0:0:
119,178,224726,2,0,L|58:198,1,40,2|0,0:0|0:0,0:0:0:0:
18,240,225067,6,0,P|56:234|90:255,1,80,0|2,0:0|0:0,0:0:0:0:
161,332,225749,1,8,0:0:0:0:
264,344,226090,1,2,0:0:0:0:
264,344,226260,1,0,0:0:0:0:
264,344,226431,2,0,B|316:339|316:339|349:323,1,80,0|2,0:0|0:0,0:0:0:0:
444,339,227112,2,0,B|439:287|439:287|423:254,1,80,8|2,0:0|0:0,0:0:0:0:
386,229,227624,1,0,0:0:0:0:
386,229,227794,6,0,P|365:196|365:157,1,80,4|2,0:0|0:0,0:0:0:0:
398,57,228476,1,8,0:0:0:0:
298,85,228817,1,2,0:0:0:0:
298,85,228987,1,0,0:0:0:0:
298,85,229158,2,0,L|190:101,1,80,0|2,0:0|0:0,0:0:0:0:
117,68,229840,2,0,P|104:83|97:101,1,40,8|0,0:0|0:0,0:0:0:0:
49,149,230181,2,0,P|64:162|82:169,1,40,2|0,0:0|0:0,0:0:0:0:
80,237,230521,6,0,P|118:225|157:222,1,80,0|2,0:0|0:0,0:0:0:0:
261,235,231203,1,8,0:0:0:0:
341,301,231544,1,0,0:0:0:0:
341,301,231715,2,0,L|399:322,1,40,2|0,0:0|0:0,0:0:0:0:
411,254,232056,2,0,L|353:233,1,40,0|2,0:0|0:0,0:0:0:0:
256,192,233249,5,2,0:0:0:0:
256,192,233334,12,0,237340,0:0:0:0:
