osu file format v14

[General]
AudioFilename: Celebration.mp3
AudioLeadIn: 0
PreviewTime: 46771
Countdown: 0
SampleSet: Soft
StackLeniency: 0.7
Mode: 0
LetterboxInBreaks: 0
WidescreenStoryboard: 0

[Editor]
Bookmarks: 70294,80521,137965,162340,178703,186885,212112,222340
DistanceSpacing: 1
BeatDivisor: 4
GridSize: 4
TimelineZoom: 1

[Metadata]
Title:Celebration~Kimi ni Kakeru Hashi~
TitleUnicode:Celebration~君に架ける橋~
Artist:SUPER JUNIOR-KYUHYUN
ArtistUnicode:SUPER JUNIOR-KYUHYUN
Creator:Cerulean Veyron
Version:Easy
Source:
Tags:エイベックス トラックス Avex Trax スーパージュニア 슈퍼주니어 SJ 규현 キュヒョン One Voice J-pop
BeatmapID:1215198
BeatmapSetID:573658

[Difficulty]
HPDrainRate:2
CircleSize:3.5
OverallDifficulty:2
ApproachRate:3
SliderMultiplier:1.2
SliderTickRate:1

[Events]
//Background and Video events
0,0,"arigato.png",0,0
Video,-150,"1337.avi"
//Break Periods
2,75267,79081
2,137994,139081
2,167994,177263
2,217085,220900
//Storyboard Layer 0 (Background)
//Storyboard Layer 1 (Fail)
//Storyboard Layer 2 (Pass)
//Storyboard Layer 3 (Foreground)
//Storyboard Sound Samples

[TimingPoints]
1431,681.818181818182,4,2,0,50,1,0
11317,-100,4,2,0,20,0,0
12340,-100,4,2,1,50,0,0
45067,-100,4,2,1,30,0,0
46431,-100,4,3,1,40,0,0
47794,-100,4,2,2,80,0,1
69612,-100,4,2,1,60,0,0
113249,-100,4,2,1,30,0,0
114612,-100,4,3,1,40,0,0
115976,-100,4,2,2,80,0,1
137794,-100,4,2,1,30,0,0
140521,-100,4,2,1,50,0,0
162340,-100,4,2,1,20,0,0
178703,-100,4,2,1,40,0,0
186885,-100,4,2,1,16,0,0
188249,-100,4,3,1,40,0,0
189612,-100,4,2,2,80,0,1
211345,-100,4,2,1,40,0,0
211431,-100,4,2,2,90,0,1
211516,-100,4,2,1,70,0,0
232226,-100,4,2,1,40,0,0
233249,-100,4,2,1,20,0,0
234612,-100,4,2,1,10,0,0

[Colours]
Combo1 : 102,217,64
Combo2 : 126,0,20
Combo3 : 87,5,126
Combo4 : 219,133,178
Combo5 : 248,108,40

[HitObjects]
125,247,1431,6,0,B|179:224|179:224|244:225,1,120,2|2,0:0|0:0,0:0:0:0:
338,295,2794,2,0,P|352:241|394:192,1,120,2|2,0:0|0:0,0:0:0:0:
442,159,3817,1,0,0:0:0:0:
477,110,4158,2,0,L|346:114,1,120,2|2,0:0|0:0,0:0:0:0:
273,28,5521,2,0,L|142:32,1,120,2|2,0:0|0:0,0:0:0:0:
100,60,6544,1,0,0:0:0:0:
68,111,6885,6,0,B|57:147|57:147|71:247,1,120,2|2,0:0|0:0,0:0:0:0:
170,292,8249,2,0,B|181:256|181:256|167:156,1,120,2|2,0:0|0:0,0:0:0:0:
177,115,9271,1,0,0:0:0:0:
224,78,9612,2,0,P|249:74|295:77,1,60,2|0,0:0|0:0,0:0:0:0:
340,54,10294,2,0,P|368:118|476:129,1,180,2|2,0:0|0:0,0:0:0:0:
356,274,12340,6,0,P|300:257|241:266,1,120,2|8,0:0|0:0,0:0:0:0:
122,283,13703,2,0,P|80:240|65:182,1,120,2|8,0:0|0:0,0:0:0:0:
57,124,14726,1,2,0:0:0:0:
83,70,15067,2,0,L|124:21,2,60,2|0|8,0:0|0:0|0:0,0:0:0:0:
195,116,16431,2,0,L|327:92,1,120,0|10,0:0|0:0,0:0:0:0:
373,99,17453,1,2,0:0:0:0:
420,136,17794,6,0,B|425:169|425:169|420:195,1,60,2|0,0:0|0:0,0:0:0:0:
390,247,18476,1,8,0:0:0:0:
276,211,19158,2,0,B|271:244|271:244|275:270,1,60,2|2,0:0|0:0,0:0:0:0:
302,324,19840,1,8,0:0:0:0:
190,365,20521,2,0,P|165:311|158:252,1,120,2|8,0:0|0:0,0:0:0:0:
181,196,21544,2,0,P|150:228|74:202,1,120,2|0,0:0|0:0,0:0:0:0:
47,164,22567,2,0,L|58:94,1,60,10|0,0:0|0:0,0:0:0:0:
34,48,23249,6,0,L|176:57,1,120,2|8,0:0|0:0,0:0:0:0:
273,44,24612,2,0,B|290:97|290:97|346:140,1,120,0|8,0:0|0:0,0:0:0:0:
401,132,25635,1,0,0:0:0:0:
457,153,25976,2,0,P|462:192|457:224,2,60,2|2|8,0:0|0:0|0:0,0:0:0:0:
357,219,27340,2,0,P|291:250|255:294,1,120,0|8,0:0|0:0,0:0:0:0:
238,340,28362,1,0,0:0:0:0:
179,350,28703,6,0,B|144:350|120:340|120:340|101:316|98:284,1,120,2|8,0:0|0:0,0:0:0:0:
89,226,29726,2,0,B|108:199|136:191|136:191|165:183|181:154,1,120,2|0,0:0|0:0,0:0:0:0:
189,94,30749,1,8,0:0:0:0:
293,34,31431,2,0,B|317:76|317:76|393:89,1,120,2|8,0:0|0:0,0:0:0:0:
445,71,32453,1,2,0:0:0:0:
464,128,32794,2,0,P|466:187|451:245,1,120,0|8,0:0|0:0,0:0:0:0:
383,345,34158,6,0,P|324:339|265:327,1,120,2|8,0:0|0:0,0:0:0:0:
338,232,35521,2,0,P|326:173|320:113,1,120,2|8,0:0|0:0,0:0:0:0:
347,59,36544,1,2,0:0:0:0:
291,37,36885,2,0,B|235:39|197:68|197:68|201:86,1,120,2|8,0:0|0:0,0:0:0:0:
274,182,38249,2,0,B|278:201|278:201|240:230|184:232,1,120,2|10,0:0|0:0,0:0:0:0:
134,198,39271,1,0,0:0:0:0:
93,153,39612,6,0,L|105:289,1,120,2|10,0:0|0:0,0:0:0:0:
117,331,40635,1,0,0:0:0:0:
66,363,40976,2,0,P|36:359|12:342,2,60,2|0|8,0:0|0:0|0:0,0:0:0:0:
169,301,42340,2,0,L|409:277,1,240,2|0,0:0|0:0,0:0:0:0:
386,159,44385,2,0,L|326:165,1,60,8|2,0:0|0:0,0:0:0:0:
271,190,45067,5,0,0:0:0:0:
271,190,46431,2,0,L|211:196,2,60,2|2|2,0:0|0:0|0:0,0:0:0:0:
326,166,47453,1,4,0:0:0:0:
326,166,47794,6,0,P|325:225|353:277,1,120,4|8,0:0|0:3,0:0:0:0:
457,339,49158,2,0,B|396:341|396:341|339:366,1,120,8|8,0:0|0:3,0:0:0:0:
282,371,50181,1,8,0:0:0:0:
235,334,50521,2,0,L|105:357,1,120,2|8,0:0|0:3,0:0:0:0:
54,253,51885,2,0,L|184:230,1,120,8|8,0:0|0:3,0:0:0:0:
229,252,52908,1,8,0:0:0:0:
285,273,53249,6,0,B|319:276|341:259|341:259|333:231|339:198,1,120,2|8,0:0|0:3,0:0:0:0:
441,135,54612,2,0,B|427:110|427:79|427:79|399:87|365:82,1,120,8|8,0:0|0:3,0:0:0:0:
308,66,55635,1,8,0:0:0:0:
248,61,55976,2,0,L|172:69,1,60,2|8,0:0|0:0,0:0:0:0:
129,59,56658,2,0,P|129:118|154:177,1,120,8|8,0:3|0:0,0:0:0:0:
257,231,58021,2,0,P|263:264|255:301,1,60,8|8,0:3|0:0,0:0:0:0:
235,345,58703,5,6,0:0:0:0:
147,264,59385,2,0,P|114:270|77:262,1,60,8|8,0:3|0:0,0:0:0:0:
33,242,60067,1,8,0:0:0:0:
54,124,60749,2,0,P|87:118|124:126,1,60,8|8,0:3|0:0,0:0:0:0:
126,63,61431,2,0,P|155:97|239:116,1,120,2|8,0:0|0:3,0:0:0:0:
284,104,62453,2,0,B|316:95|334:70|334:70|362:68|390:80,1,120,8|8,0:0|0:0,0:0:0:0:
445,106,63476,1,8,0:3:0:0:
393,214,64158,6,0,P|416:265|396:333,1,120,2|8,0:0|0:3,0:0:0:0:
357,365,65181,1,8,0:0:0:0:
298,355,65521,2,0,L|175:327,1,120,0|8,0:0|0:3,0:0:0:0:
61,328,66885,2,0,B|50:256|50:256|87:203,1,120,2|8,0:0|0:3,0:0:0:0:
93,159,67908,2,0,B|124:174|135:205|135:205|166:199|205:216,1,120,8|8,0:0|0:0,0:0:0:0:
239,245,68931,1,8,0:3:0:0:
256,192,69612,12,0,75067,0:0:0:0:
387,191,80521,6,0,P|380:134|332:101,1,120,2|8,0:0|0:0,0:0:0:0:
212,83,81885,2,0,L|96:130,1,120,2|8,0:0|0:0,0:0:0:0:
81,185,82908,1,2,0:0:0:0:
130,220,83249,2,0,L|151:275,2,60,2|0|8,0:0|0:0|0:0,0:0:0:0:
80,329,84612,2,0,P|111:356|197:355,1,120,0|10,0:0|0:0,0:0:0:0:
235,323,85635,1,2,0:0:0:0:
291,345,85976,6,0,L|357:336,1,60,2|0,0:0|0:0,0:0:0:0:
410,328,86658,1,8,0:0:0:0:
459,218,87340,2,0,L|393:209,1,60,2|2,0:0|0:0,0:0:0:0:
340,201,88022,1,8,0:0:0:0:
312,84,88703,2,0,L|193:100,1,120,2|8,0:0|0:0,0:0:0:0:
133,100,89726,2,0,P|195:134|235:185,1,120,2|0,0:0|0:0,0:0:0:0:
222,231,90749,2,0,L|160:223,1,60,10|0,0:0|0:0,0:0:0:0:
110,253,91431,6,0,P|48:219|8:168,1,120,2|8,0:0|0:0,0:0:0:0:
56,69,92794,2,0,B|76:89|103:96|103:96|183:88,1,120,0|8,0:0|0:0,0:0:0:0:
227,81,93817,1,0,0:0:0:0:
276,46,94158,2,0,B|301:27|301:27|327:17,2,60,2|2|8,0:0|0:0|0:0,0:0:0:0:
356,135,95521,2,0,B|386:188|386:188|446:233,1,120,0|8,0:0|0:0,0:0:0:0:
492,237,96544,1,0,0:0:0:0:
477,295,96885,6,0,B|449:329|408:333|408:333|363:326,1,120,2|8,0:0|0:0,0:0:0:0:
326,285,97908,2,0,B|287:278|287:278|246:282|218:316,1,120,2|0,0:0|0:0,0:0:0:0:
168,349,98931,1,8,0:0:0:0:
48,348,99612,2,0,L|93:223,1,120,2|8,0:0|0:0,0:0:0:0:
76,176,100635,1,2,0:0:0:0:
40,128,100976,2,0,B|79:155|79:155|163:145,1,120,0|8,0:0|0:0,0:0:0:0:
225,51,102340,6,0,P|270:88|287:145,1,120,6|8,0:0|0:0,0:0:0:0:
299,265,103703,2,0,P|336:219|394:207,1,120,2|8,0:0|0:0,0:0:0:0:
450,228,104726,1,2,0:0:0:0:
480,280,105067,2,0,L|474:149,1,120,2|8,0:0|0:0,0:0:0:0:
406,62,106431,2,0,B|390:136|390:136|363:130|338:132,1,120,2|10,0:0|0:0,0:0:0:0:
287,141,107453,1,0,0:0:0:0:
237,174,107794,6,0,P|165:187|110:165,1,120,2|10,0:0|0:0,0:0:0:0:
83,127,108817,1,0,0:0:0:0:
36,164,109158,2,0,B|27:197|27:197|28:222,2,60,2|0|8,0:0|0:0|0:0,0:0:0:0:
145,212,110521,2,0,B|216:204|216:204|379:243,1,240,2|0,0:0|0:0,0:0:0:0:
427,132,112567,2,0,L|354:150,1,60,8|2,0:0|0:0,0:0:0:0:
312,167,113249,5,0,0:0:0:0:
312,167,114612,2,0,L|239:149,2,60,2|2|2,0:0|0:0|0:0,0:0:0:0:
370,184,115635,1,4,0:0:0:0:
370,184,115976,6,0,P|338:120|338:58,1,120,4|8,0:0|0:3,0:0:0:0:
220,38,117340,2,0,L|205:171,1,120,8|8,0:0|0:3,0:0:0:0:
173,207,118362,1,8,0:0:0:0:
125,243,118703,2,0,P|182:229|240:244,1,120,2|8,0:0|0:3,0:0:0:0:
296,351,120067,2,0,B|335:362|335:362|421:346,1,120,8|8,0:0|0:3,0:0:0:0:
456,306,121090,1,8,0:0:0:0:
458,246,121431,6,0,B|442:220|412:213|412:213|383:205|365:174,1,120,2|8,0:0|0:3,0:0:0:0:
340,57,122794,2,0,B|306:54|279:63|279:63|262:83|255:114,1,120,8|8,0:0|0:3,0:0:0:0:
264,175,123817,1,8,0:0:0:0:
292,228,124158,2,0,P|289:262|277:293,1,60,2|8,0:0|0:0,0:0:0:0:
233,323,124840,2,0,L|106:305,1,120,8|8,0:3|0:0,0:0:0:0:
49,205,126203,2,0,L|125:194,1,60,8|8,0:3|0:0,0:0:0:0:
167,188,126885,5,6,0:0:0:0:
286,212,127567,2,0,L|275:136,1,60,8|8,0:3|0:0,0:0:0:0:
270,93,128249,1,8,0:0:0:0:
375,35,128931,2,0,L|386:111,1,60,8|8,0:3|0:0,0:0:0:0:
440,74,129612,2,0,L|412:202,1,120,2|8,0:0|0:3,0:0:0:0:
354,192,130635,2,0,B|377:237|377:237|357:268|366:321,1,120,8|8,0:0|0:0,0:0:0:0:
383,361,131658,1,8,0:3:0:0:
274,310,132340,6,0,B|214:332|214:332|175:339|139:324,1,120,2|8,0:0|0:3,0:0:0:0:
107,300,133362,1,8,0:0:0:0:
83,245,133703,2,0,P|136:219|197:225,1,120,0|8,0:0|0:3,0:0:0:0:
303,169,135067,2,0,B|283:193|281:224|281:224|301:246|335:249,1,120,2|8,0:0|0:3,0:0:0:0:
380,287,136090,2,0,P|348:286|260:319,1,120,8|8,0:0|0:0,0:0:0:0:
228,362,137112,1,8,0:3:0:0:
122,306,137794,5,0,0:0:0:0:
122,306,140521,6,0,P|101:246|110:188,1,120,8|8,0:0|0:0,0:0:0:0:
102,71,141885,2,0,P|164:82|210:119,1,120,8|8,0:0|0:0,0:0:0:0:
227,174,142908,1,2,0:0:0:0:
212,232,143249,2,0,L|240:288,1,60,8|2,0:0|0:0,0:0:0:0:
295,307,143931,2,0,L|348:280,2,60,10|0|8,0:0|0:0|0:0,0:0:0:0:
183,350,145294,2,0,P|145:352|116:348,1,60,8|0,0:0|0:0,0:0:0:0:
73,316,145976,6,0,B|95:271|95:271|96:233|81:202,1,120,8|8,0:0|0:0,0:0:0:0:
18,101,147340,2,0,B|48:115|86:114|86:114|131:92,1,120,8|8,0:0|0:0,0:0:0:0:
186,69,148362,1,0,0:0:0:0:
246,67,148703,2,0,B|276:70|276:70|301:85,2,60,8|2|0,0:0|0:0|0:0,0:0:0:0:
186,69,149726,1,0,0:0:0:0:
199,127,150067,2,0,P|208:193|176:247,1,120,2|8,0:3|0:3,0:0:0:0:
121,341,151431,6,0,B|183:357|183:357|256:340,1,120,4|8,0:0|0:3,0:0:0:0:
317,255,152794,2,0,P|325:312|372:346,1,120,0|8,0:0|0:3,0:0:0:0:
402,230,154158,2,0,P|369:183|303:167,1,120,4|8,0:0|0:3,0:0:0:0:
259,196,155181,2,0,B|297:144|297:144|309:66,1,120,4|0,0:0|0:0,0:0:0:0:
275,37,156203,1,10,0:3:0:0:
155,43,156885,6,0,P|118:85|92:146,1,120,4|8,0:0|0:3,0:0:0:0:
8,228,158249,2,0,P|44:270|70:331,1,120,2|8,0:0|0:3,0:0:0:0:
172,267,159612,2,0,P|225:293|305:299,1,120,0|8,0:0|0:3,0:0:0:0:
335,334,160635,2,0,L|302:200,1,120,2|0,0:0|0:0,0:0:0:0:
292,159,161658,1,8,0:3:0:0:
256,192,162340,12,4,167794,0:0:0:0:
175,289,178703,5,2,0:0:0:0:
288,251,179385,2,0,P|318:248|348:252,1,60,2|0,0:0|0:0,0:0:0:0:
407,268,180067,1,2,0:0:0:0:
442,153,180749,2,0,L|383:92,1,60,2|0,0:0|0:0,0:0:0:0:
407,50,181431,2,0,P|348:86|277:87,1,120,2|0,0:0|0:0,0:0:0:0:
240,77,182453,2,0,B|214:68|181:83|181:83|155:95|123:84,1,120,2|2,0:0|0:0,0:0:0:0:
66,66,183476,2,0,L|75:133,1,60,2|2,0:0|0:0,0:0:0:0:
20,152,184158,6,0,L|135:195,1,120,0|2,0:0|0:0,0:0:0:0:
192,204,185181,1,0,0:0:0:0:
244,176,185521,2,0,P|243:235|269:288,1,120,0|2,0:0|0:0,0:0:0:0:
385,322,186885,5,0,0:0:0:0:
385,322,188249,2,0,P|431:317|465:322,2,60,2|2|2,0:0|0:0|0:0,0:0:0:0:
330,346,189271,1,4,0:0:0:0:
270,346,189612,6,0,P|213:334|174:288,1,120,4|8,0:0|0:3,0:0:0:0:
55,302,190976,2,0,L|82:185,1,120,8|8,0:0|0:3,0:0:0:0:
133,218,191999,1,8,0:0:0:0:
184,250,192340,2,0,P|203:198|194:135,1,120,2|8,0:0|0:3,0:0:0:0:
106,53,193703,2,0,B|143:39|143:39|238:35,1,120,8|8,0:0|0:3,0:0:0:0:
279,58,194726,1,8,0:0:0:0:
335,36,195067,6,0,P|393:39|445:89,1,120,2|8,0:0|0:3,0:0:0:0:
349,158,196431,2,0,B|378:238|378:238|376:286,1,120,8|8,0:0|0:3,0:0:0:0:
355,329,197453,1,8,0:0:0:0:
298,310,197794,2,0,L|238:323,1,60,2|8,0:0|0:0,0:0:0:0:
185,349,198476,2,0,L|229:232,1,120,8|8,0:3|0:0,0:0:0:0:
152,142,199840,2,0,P|129:161|116:188,1,60,8|8,0:3|0:0,0:0:0:0:
107,247,200521,5,6,0:0:0:0:
222,212,201203,2,0,P|234:239|255:260,1,60,8|8,0:3|0:0,0:0:0:0:
309,287,201884,1,8,0:0:0:0:
296,168,202567,2,0,P|325:164|352:151,1,60,8|8,0:3|0:0,0:0:0:0:
395,109,203249,2,0,B|386:151|386:151|410:240,1,120,2|8,0:0|0:3,0:0:0:0:
447,269,204271,2,0,L|312:260,1,120,8|8,0:0|0:0,0:0:0:0:
269,276,205294,2,0,P|288:307|291:339,1,60,8|8,0:3|0:0,0:0:0:0:
245,368,205976,6,0,P|206:369|133:328,1,120,2|8,0:0|0:3,0:0:0:0:
129,272,206999,1,8,0:0:0:0:
170,228,207340,2,0,B|177:195|177:195|152:103,1,120,0|8,0:0|0:3,0:0:0:0:
274,107,208703,2,0,B|267:140|267:140|292:232,1,120,2|8,0:0|0:3,0:0:0:0:
284,283,209726,2,0,B|265:312|238:322|238:322|212:312|193:285,1,120,8|8,0:0|0:0,0:0:0:0:
184,226,210749,1,8,0:3:0:0:
256,192,211431,12,0,216885,0:0:0:0:
106,115,222340,6,0,B|139:111|163:129|163:129|187:147|220:144,1,120,4|8,0:0|0:0,0:0:0:0:
274,119,223362,1,2,0:0:0:0:
313,73,223703,2,0,B|298:120|298:120|316:195,1,120,0|8,0:0|0:0,0:0:0:0:
386,285,225067,2,0,B|317:301|317:301|270:286,1,120,0|8,0:0|0:0,0:0:0:0:
214,180,226431,2,0,P|169:218|147:289,1,120,0|8,0:0|0:0,0:0:0:0:
155,334,227453,1,2,0:0:0:0:
101,360,227794,6,0,L|43:254,1,120,4|8,0:0|0:0,0:0:0:0:
19,137,229158,2,0,P|70:166|129:164,1,120,0|8,0:0|0:0,0:0:0:0:
185,142,230181,1,2,0:0:0:0:
220,93,230521,2,0,B|249:83|249:83|278:83,1,60,0|2,0:0|0:0,0:0:0:0:
310,32,231203,2,0,L|412:67,2,90,8|2|2,0:0|0:0|0:0,0:0:0:0:
256,192,233249,12,0,237340,0:0:0:0:
