osu file format v13

[General]
AudioFilename: rashisa.mp3
AudioLeadIn: 2000
PreviewTime: 51450
Countdown: 0
SampleSet: Normal
StackLeniency: 0.7
Mode: 0
LetterboxInBreaks: 0
WidescreenStoryboard: 0

[Editor]
DistanceSpacing: 1
BeatDivisor: 4
GridSize: 4
TimelineZoom: 1.4

[Metadata]
Title:Rashisa
TitleUnicode:らしさ
Artist:SUPER BEAVER
ArtistUnicode:SUPER BEAVER
Creator:handsome
Version:Normal
Source:ばらかもん
Tags:barakamon naru junon boy opening handa seishuu clyine tv size
BeatmapID:453732
BeatmapSetID:190486

[Difficulty]
HPDrainRate:4
CircleSize:3
OverallDifficulty:4
ApproachRate:5
SliderMultiplier:1.2
SliderTickRate:1

[Events]
//Background and Video events
Video,0,"rashisa.avi"
0,0,"MANDOM.jpg",0,0
//Break Periods
//Storyboard Layer 0 (Background)
//Storyboard Layer 1 (Fail)
//Storyboard Layer 2 (Pass)
//Storyboard Layer 3 (Foreground)
//Storyboard Sound Samples
//Background Colour Transformations
3,100,163,162,255

[TimingPoints]
736,357.142857142857,4,1,1,100,1,0
736,-100,4,1,1,50,0,0
4843,-100,4,1,1,40,0,0
5200,-100,4,1,1,20,0,0
6450,-100,4,1,1,35,0,0
15021,-100,4,1,1,40,0,0
26450,-100,4,2,1,40,0,0
37521,-100,4,3,1,40,0,0
37700,-100,4,2,1,40,0,0
40021,-100,4,3,1,40,0,0
40289,-100,4,3,1,40,0,0
40468,-100,4,2,1,40,0,0
43057,-100,4,1,1,50,0,0
52164,-100,4,1,1,60,0,1
75021,-100,4,1,1,60,0,0
88414,-100,4,1,1,45,0,0
88950,-100,4,2,1,40,0,0
89306,-100,4,2,1,5,0,0

[Colours]
Combo1 : 192,192,192
Combo2 : 128,128,64
Combo3 : 0,128,0
Combo4 : 64,128,128

[HitObjects]
184,164,736,6,0,B|256:128|344:124|432:168,1,240,4|0,1:0|0:0,0:0:0:0:
436,276,1807,1,8,0:0:0:0:
380,256,1985,2,0,B|288:208|236:256|172:304|92:248,1,300,4|0,0:0|0:0,0:0:0:0:
96,128,3235,1,8,0:0:0:0:
188,52,3593,6,0,P|284:52|412:116,1,240,4|0,0:0|0:0,0:0:0:0:
480,212,4664,1,8,0:0:0:0:
456,268,4843,2,0,L|356:344,1,120,0|0,0:0|0:0,0:0:0:0:
248,312,6450,6,0,P|188:307|133:278,1,120,4|8,0:0|0:0,0:0:0:0:
52,192,7164,1,0,0:0:0:0:
100,80,7521,1,8,0:0:0:0:
216,56,7878,2,0,B|336:116|336:0|480:72,1,240,0|0,0:0|0:0,0:0:0:0:
436,176,8950,1,8,0:0:0:0:
376,284,9307,6,0,P|312:320|232:304,1,120,0|8,0:0|0:0,0:0:0:0:
156,276,10021,2,0,P|104:216|104:140,1,120,0|8,0:0|0:0,0:0:0:0:
216,172,10735,1,0,0:0:0:0:
300,84,11093,1,8,0:0:0:0:
182,62,11449,1,0,0:0:0:0:
103,155,11807,1,8,0:0:0:0:
144,268,12164,6,0,P|258:283|332:195,1,240,4|0,0:0|0:0,0:0:0:0:
300,84,13235,1,8,0:0:0:0:
216,172,13593,2,0,P|96:156|28:240,1,240,0|0,0:0|0:0,0:0:0:0:
144,268,14664,1,8,0:0:0:0:
244,336,15021,5,4,0:0:0:0:
360,312,15378,1,8,0:0:0:0:
444,224,15735,2,0,P|472:168|436:96,1,120,0|8,0:0|0:0,0:0:0:0:
404,84,16271,2,0,P|338:94|280:80,1,120,0|0,0:0|0:0,0:0:0:0:
227,91,16807,2,0,P|168:72|109:86,2,120,8|0|8,0:0|0:0|0:0,0:0:0:0:
164,195,17878,5,0,0:0:0:0:
75,282,18235,1,8,0:0:0:0:
162,369,18593,1,0,0:0:0:0:
251,282,18950,2,0,L|328:304,1,60,8|0,0:0|0:0,0:0:0:0:
368,304,19307,2,0,P|448:272|476:232,1,120,0|8,0:0|0:0,0:0:0:0:
472,128,20021,1,0,0:0:0:0:
368,64,20378,1,8,0:0:0:0:
248,84,20735,6,0,P|192:105|155:151,1,120,0|8,0:0|0:0,0:0:0:0:
144,272,21450,2,0,L|72:312,2,60,0|0|8,0:0|0:0|0:0,0:0:0:0:
260,300,22164,2,0,L|397:223,1,120,0|8,0:0|0:0,0:0:0:0:
460,168,22878,1,0,0:0:0:0:
364,96,23235,1,8,0:0:0:0:
252,52,23593,6,0,P|204:22|136:12,2,120,0|8|0,0:0|0:0|0:0,0:0:0:0:
272,172,24664,1,8,0:0:0:0:
216,192,24843,2,0,P|152:208|88:192,1,120,4|0,0:0|0:0,0:0:0:0:
48,168,25378,2,0,L|44:292,1,120,8|0,0:0|0:0,0:0:0:0:
112,384,26093,1,8,0:0:0:0:
168,280,26450,5,4,0:0:0:0:
264,352,26807,2,0,B|316:372|316:372|384:352,1,120,0|8,0:0|0:1,0:0:0:0:
476,284,27521,1,0,0:0:0:0:
500,168,27878,1,0,0:0:0:0:
460,56,28235,2,0,B|415:22|415:22|344:22,1,120,0|8,0:0|0:1,0:0:0:0:
376,140,28950,1,0,0:0:0:0:
264,96,29307,6,0,L|96:40,1,120,0|0,0:0|0:0,0:0:0:0:
56,132,30021,2,0,L|169:169,1,120,8|0,0:1|0:0,0:0:0:0:
284,208,30735,1,0,0:0:0:0:
208,300,31093,1,0,0:0:0:0:
328,312,31450,2,0,P|376:264|444:248,1,120,8|0,0:1|0:0,0:0:0:0:
504,160,32164,6,0,L|384:104,1,120,0|0,0:0|0:0,0:0:0:0:
292,52,32878,2,0,P|244:100|176:116,1,120,8|0,2:1|2:0,0:0:0:0:
100,192,33593,1,0,0:0:0:0:
124,248,33771,2,0,P|173:280|233:286,1,120,8|0,0:1|0:0,0:1:0:0:
292,268,34307,1,8,0:1:0:0:
372,176,34664,1,0,0:0:0:0:
464,256,35021,6,0,P|424:316|352:356,1,120,0|0,0:0|0:0,0:0:0:0:
292,268,35735,2,0,P|227:299|145:298,1,120,8|0,0:1|0:0,0:0:0:0:
137,192,36450,2,0,P|65:187|-6:145,2,120,0|4|8,0:0|0:0|0:1,0:0:0:0:
240,128,37521,1,4,0:0:0:0:
300,24,37878,6,0,P|240:8|176:28,1,120,4|0,0:0|0:0,0:0:0:0:
140,60,38414,1,0,0:0:0:0:
104,112,38593,1,8,0:1:0:0:
88,232,38950,2,0,B|52:288|0:310,1,120,0|0,0:0|0:0,0:0:0:0:
116,340,39664,2,0,B|152:284|204:261,1,120,0|8,0:0|0:1,0:0:0:0:
256,232,40200,1,0,0:0:0:0:
312,208,40378,1,8,0:0:0:0:
256,104,40735,6,0,P|312:84|368:104,1,120,4|0,0:0|0:0,0:0:0:0:
430,211,41450,2,0,P|419:269|374:307,1,120,4|0,0:0|0:0,0:0:0:0:
249,308,42164,2,0,P|203:269|193:211,1,120,4|0,0:0|0:0,0:0:0:0:
256,104,42878,2,0,P|312:84|368:104,1,120,4|0,0:0|0:0,0:0:0:0:
432,212,43593,6,0,P|376:232|320:212,1,120,4|8,0:0|0:0,0:0:0:0:
212,164,44307,1,0,0:0:0:0:
154,177,44485,1,0,0:0:0:0:
119,224,44664,1,8,0:0:0:0:
136,344,45021,2,0,P|193:330|228:283,1,120,0|8,0:0|0:0,0:0:0:0:
212,164,45735,1,0,0:0:0:0:
308,92,46093,1,8,0:0:0:0:
428,84,46450,6,0,B|387:141|430:194,1,120,0|8,0:0|0:0,0:0:0:0:
456,312,47164,2,0,P|405:345|338:331,1,120,0|8,0:0|0:0,0:0:0:0:
248,276,47878,2,0,L|152:203,1,120,0|8,0:0|0:0,0:0:0:0:
73,114,48593,2,0,B|128:68|192:92,1,120,0|8,0:0|0:0,0:0:0:0:
256,192,49307,12,8,51450,0:0:0:0:
280,116,52164,6,0,P|252:130|228:160,2,60,4|0|8,0:0|0:0|0:0,0:0:0:0:
400,116,52878,2,0,P|448:83|477:19,2,120,0|8|0,0:0|0:0|0:0,0:0:0:0:
312,200,53950,1,8,0:0:0:0:
280,316,54307,1,0,0:0:0:0:
176,252,54664,1,8,0:0:0:0:
100,344,55021,6,0,L|24:352,2,60,0|0|8,0:0|0:0|0:0,0:0:0:0:
124,288,55557,2,0,L|64:260,2,60,0|0|0,0:0|0:0|0:0,0:0:0:0:
172,328,56093,1,8,0:0:0:0:
232,328,56271,2,0,P|292:316|336:268,1,120
360,228,56807,1,8,0:0:0:0:
464,169,57164,1,0,0:0:0:0:
406,64,57521,1,8,0:0:0:0:
300,124,57878,5,0,0:0:0:0:
184,148,58235,2,0,P|127:137|76:166,1,120,8|0,0:0|0:0,0:0:0:0:
148,260,58950,2,0,P|205:271|256:242,1,120,8|4,0:0|0:0,0:0:0:0:
344,160,59664,1,8,0:0:0:0:
444,224,60021,2,0,L|444:100,1,120,0|8,0:0|0:0,0:0:0:0:
340,44,60735,5,0,0:0:0:0:
220,44,61093,2,0,P|164:12|88:24,1,120,8|0,0:0|0:0,0:0:0:0:
136,132,61807,2,0,P|148:232|268:296,1,240,8|8,0:0|0:0,0:0:0:0:
380,284,62878,1,0,0:0:0:0:
464,196,63235,1,8,0:0:0:0:
484,76,63593,6,0,L|369:118,1,120,4|8,0:0|0:0,0:0:0:0:
296,24,64307,2,0,L|235:130,1,120,0|8,0:0|0:0,0:0:0:0:
118,105,65021,2,0,L|140:225,1,120,0|8,0:0|0:0,0:0:0:0:
36,280,65735,2,0,L|130:357,1,120,0|8,0:0|0:0,0:0:0:0:
248,332,66450,6,0,B|292:284|292:284|360:280,1,120,4|8,0:0|0:0,0:0:0:0:
468,292,67164,2,0,P|488:240|488:172,1,120,0|8,0:0|0:0,0:0:0:0:
480,116,67700,2,0,B|452:36|452:36|348:8,1,180,4|8,0:0|0:0,0:0:0:0:
244,48,68593,2,0,P|191:75|162:126,1,120,0|8,0:0|0:0,0:0:0:0:
188,244,69307,6,0,P|240:216|269:165,1,120,4|8,0:0|0:0,0:0:0:0:
384,204,70021,1,0,0:0:0:0:
404,324,70378,2,0,B|352:324|352:324|320:356|320:356|288:324|288:324|184:324,1,240,8|8,0:0|0:0,0:0:0:0:
72,336,71450,1,0,0:0:0:0:
72,216,71807,1,8,0:0:0:0:
76,155,71985,6,0,P|132:88|224:84,1,180,0|8,0:0|0:0,0:0:0:0:
188,196,72878,1,0,0:0:0:0:
260,292,73235,2,0,P|328:292|392:248,1,120,8|0,0:0|0:0,0:0:0:0:
412,220,73771,2,0,L|432:132,1,60,0|8,0:0|0:0,0:0:0:0:
400,108,74128,5,0,0:0:0:0:
280,128,74485,1,0,0:0:0:0:
188,47,74843,2,0,P|210:28|244:12,2,60,0|4|0,0:0|0:0|0:0,0:0:0:0:
140,84,75378,6,0,P|104:120|89:201,1,120,8|0,0:0|0:0,0:0:0:0:
80,244,75914,2,0,P|54:296|0:321,2,120,0|0|0,0:0|0:0|0:0,0:0:0:0:
120,200,76807,5,8,0:0:0:0:
240,184,77164,1,0,0:0:0:0:
312,88,77521,1,8,0:0:0:0:
204,32,77878,6,0,P|140:56|96:104,1,120,4|8,0:0|0:0,0:0:0:0:
48,200,78593,2,0,P|112:180|168:204,1,120,0|8,0:0|0:0,0:0:0:0:
196,244,79128,2,0,P|237:292|299:316,1,120,0|0,0:0|0:0,0:0:0:0:
344,332,79664,1,8,0:0:0:0:
460,300,80021,2,0,L|516:176,1,120,0|8,0:0|0:0,0:0:0:0:
416,116,80735,5,4,0:0:0:0:
312,176,81093,2,0,P|257:252|196:272,1,120,8|0,0:0|0:0,0:0:0:0:
124,224,81807,1,8,0:0:0:0:
68,204,81985,2,0,P|72:112|136:48,1,180,4|8,0:0|0:0,0:0:0:0:
248,24,82878,1,0,0:0:0:0:
364,44,83235,1,8,0:0:0:0:
432,144,83593,6,0,P|456:204|444:268,1,120,4|8,0:0|0:0,0:0:0:0:
340,308,84307,2,0,L|260:208,1,120,0|8,0:0|0:0,0:0:0:0:
180,132,85021,1,0,0:0:0:0:
104,224,85378,2,0,P|74:278|60:360,2,120,8|0|12,0:0|0:0|0:0,0:0:0:0:
227,219,86450,6,0,P|208:164|225:107,1,120,8|8,0:0|0:0,0:0:0:0:
332,164,87164,2,0,P|387:144|444:161,1,120,8|8,0:0|0:0,0:0:0:0:
388,268,87878,2,0,P|407:323|390:380,1,120,8|8,0:0|0:0,0:0:0:0:
280,328,88593,1,0,0:0:0:0:
168,288,88950,6,0,P|200:240|144:216,1,120,0|0,0:0|0:0,0:0:0:0:
