osu file format v13

[General]
AudioFilename: rashisa.mp3
AudioLeadIn: 2000
PreviewTime: 51450
Countdown: 0
SampleSet: Normal
StackLeniency: 0.7
Mode: 0
LetterboxInBreaks: 0
WidescreenStoryboard: 0

[Editor]
Bookmarks: 71807
DistanceSpacing: 0.7
BeatDivisor: 4
GridSize: 4
TimelineZoom: 1.9

[Metadata]
Title:Rashisa
TitleUnicode:らしさ
Artist:SUPER BEAVER
ArtistUnicode:SUPER BEAVER
Creator:handsome
Version:Insane
Source:ばらかもん
Tags:barakamon naru junon boy opening handa seishuu clyine tv size
BeatmapID:453565
BeatmapSetID:190486

[Difficulty]
HPDrainRate:7
CircleSize:4
OverallDifficulty:7.5
ApproachRate:8.8
SliderMultiplier:2
SliderTickRate:1

[Events]
//Background and Video events
Video,0,"rashisa.avi"
0,0,"MANDOM.jpg",0,0
//Break Periods
//Storyboard Layer 0 (Background)
//Storyboard Layer 1 (Fail)
//Storyboard Layer 2 (Pass)
//Storyboard Layer 3 (Foreground)
//Storyboard Sound Samples
//Background Colour Transformations
3,100,163,162,255

[TimingPoints]
736,357.142857142857,4,1,1,100,1,0
736,-100,4,1,1,50,0,0
4843,-200,4,1,1,40,0,0
5200,-200,4,1,1,20,0,0
6450,-100,4,1,1,35,0,0
15021,-100,4,1,1,40,0,0
26450,-133.333333333333,4,2,1,40,0,0
37521,-133.333333333333,4,3,1,40,0,0
37700,-133.333333333333,4,2,1,40,0,0
40021,-133.333333333333,4,3,1,40,0,0
40468,-133.333333333333,4,2,1,40,0,0
43057,-100,4,1,1,50,0,0
51450,-166.666666666667,4,1,1,30,0,0
52164,-100,4,1,1,60,0,1
75021,-100,4,1,1,60,0,0
88414,-100,4,1,1,45,0,0
88950,-133.333333333333,4,2,1,40,0,0
89306,-133.333333333333,4,2,1,5,0,0

[Colours]
Combo1 : 192,192,192
Combo2 : 128,128,64
Combo3 : 0,128,0
Combo4 : 64,128,128

[HitObjects]
56,236,736,6,0,P|80:280|120:308,1,100,4|0,1:0|0:0,0:0:0:0:
244,316,1093,1,8,0:0:0:0:
280,188,1271,1,0,0:0:0:0:
152,216,1450,1,0,0:0:0:0:
300,264,1628,1,0,0:0:0:0:
336,136,1807,1,8,0:0:0:0:
208,164,1985,6,0,B|216:230|128:287|65:243,1,200,4|0,0:0|0:0,0:0:0:0:
288,232,2521,2,0,B|280:166|368:109|431:153,1,200,8|0,0:0|0:0,0:0:0:0:
384,236,3057,1,0,0:0:0:0:
384,236,3235,2,0,B|380:304|320:316,1,100,8|0,0:0|0:0,0:0:0:0:
208,320,3593,5,4,0:0:0:0:
112,239,3772,1,0,0:0:0:0:
135,115,3950,2,0,P|184:80|232:72,1,100,8|0,0:0|0:0,0:0:0:0:
392,112,4307,2,0,P|343:147|295:155,1,100,0|0,0:0|0:0,0:0:0:0:
204,224,4664,1,8,0:0:0:0:
104,296,4843,6,0,B|63:316|46:284|6:307,1,100,0|0,0:0|0:0,0:0:0:0:
196,112,6450,5,4,0:0:0:0:
336,104,6628,1,0,0:0:0:0:
256,220,6807,1,8,0:0:0:0:
392,252,6985,1,0,0:0:0:0:
276,332,7164,2,0,B|212:352|212:352|152:336,1,100,0|0,0:0|0:0,0:0:0:0:
232,204,7521,2,0,B|165:200|165:200|114:165,1,100,8|0,0:0|0:0,0:0:0:0:
234,68,7878,6,0,B|172:42|172:42|136:-8,1,100,0|0,0:0|0:0,0:0:0:0:
84,56,8235,2,0,B|100:84|100:84|100:151,1,100,8|0,0:0|0:0,0:0:0:0:
116,248,8593,2,0,P|66:242|24:212,2,100,0|0|8,0:0|0:0|0:0,0:0:0:0:
244,300,9128,1,0,0:0:0:0:
224,172,9307,6,0,P|259:137|306:123,1,100,0|0,0:0|0:0,0:0:0:0:
424,104,9664,2,0,L|420:216,1,100,8|0,0:0|0:0,0:0:0:0:
338,287,10021,2,0,P|292:305|243:299,1,100,0|0,0:0|0:0,0:0:0:0:
116,292,10378,2,0,P|156:240|164:180,1,100,8|0,0:0|0:0,0:0:0:0:
188,84,10735,5,0,0:0:0:0:
188,84,10914,1,0,0:0:0:0:
308,111,11093,1,8,0:0:0:0:
308,111,11271,1,0,0:0:0:0:
188,84,11450,5,0,0:0:0:0:
308,111,11628,1,0,0:0:0:0:
281,232,11807,1,8,0:0:0:0:
162,203,11985,1,0,0:0:0:0:
52,120,12164,6,0,P|58:67|79:23,1,100,4|0,0:0|0:0,0:0:0:0:
192,56,12521,2,0,P|244:48|292:56,1,100,8|0,0:0|0:0,0:0:0:0:
405,111,12878,1,0,0:0:0:0:
320,240,13057,1,0,0:0:0:0:
409,208,13235,1,8,0:0:0:0:
273,116,13414,1,0,0:0:0:0:
160,216,13593,6,0,B|115:233|115:233|104:253|75:274,1,100,0|0,0:0|0:0,0:0:0:0:
200,328,13950,2,0,B|244:310|244:310|266:318|301:314,1,100,8|0,0:0|0:0,0:0:0:0:
408,324,14307,2,0,P|449:294|471:250,1,100,0|0,0:0|0:0,0:0:0:0:
428,152,14664,1,8,0:0:0:0:
304,80,14843,1,0,0:0:0:0:
300,215,15021,6,0,P|287:264|294:313,1,100,4|0,0:0|0:0,0:0:0:0:
400,244,15378,2,0,P|406:194|394:146,1,100,8|0,0:0|0:0,0:0:0:0:
304,80,15735,2,0,P|254:80|204:89,1,100,0|0,0:0|0:0,0:0:0:0:
128,192,16093,1,8,0:0:0:0:
300,216,16271,6,0,P|343:239|375:278,1,100,0|0,0:0|0:0,0:0:0:0:
432,380,16628,1,0,0:0:0:0:
260,328,16807,2,0,P|216:304|184:265,1,100,8|0,0:0|0:0,0:0:0:0:
152,152,17164,1,0,0:0:0:0:
220,52,17343,1,0,0:0:0:0:
340,60,17521,2,0,L|332:160,1,100,8|0,0:0|0:0,0:0:0:0:
268,260,17878,6,0,B|224:240|180:256|180:256|200:200|260:172,1,200,0|8,0:0|0:0,0:0:0:0:
388,223,18414,1,0,0:0:0:0:
279,317,18593,1,0,0:0:0:0:
273,163,18772,1,0,0:0:0:0:
388,249,18950,1,8,0:0:0:0:
256,304,19129,1,0,0:0:0:0:
156,236,19307,6,0,B|128:176|128:176|160:148|148:100|148:100|190:71,1,200,0|8,0:0|0:0,0:0:0:0:
304,36,19843,1,0,0:0:0:0:
408,92,20021,1,0,0:0:0:0:
436,208,20200,2,0,P|412:256|376:292,1,100,0|8,0:0|0:0,0:0:0:0:
264,264,20557,1,0,0:0:0:0:
168,180,20735,6,0,B|88:192|48:240|48:240|80:272|112:256,1,200,0|8,0:0|0:0,0:0:0:0:
252,224,21271,1,0,0:0:0:0:
372,136,21450,1,0,0:0:0:0:
372,136,21628,1,0,0:0:0:0:
232,76,21807,1,8,0:0:0:0:
252,224,21985,1,8,0:0:0:0:
400,272,22164,6,0,B|446:234|446:234|468:192,1,100,0|0,0:0|0:0,0:0:0:0:
512,72,22521,2,0,P|452:56|420:8,1,100,8|0,0:0|0:0,0:0:0:0:
304,32,22878,2,0,L|224:108,1,100,0|0,0:0|0:0,0:0:0:0:
148,188,23235,1,8,0:0:0:0:
172,304,23414,1,0,0:0:0:0:
287,332,23593,6,0,P|334:314|374:285,1,100,0|0,0:0|0:0,0:0:0:0:
388,164,23950,2,2,P|341:181|301:210,1,100,8|0,0:0|0:0,0:0:0:0:
192,264,24307,1,0,0:0:0:0:
104,200,24485,1,0,0:0:0:0:
104,88,24664,1,8,0:0:0:0:
196,24,24843,6,0,B|228:64|280:64|280:64|324:24|376:32,1,200,4|0,0:0|0:0,0:0:0:0:
472,120,25378,1,8,0:0:0:0:
396,220,25556,1,0,0:0:0:0:
396,220,25646,1,0,0:0:0:0:
396,220,25735,1,0,0:0:0:0:
276,160,25914,5,4,3:0:0:0:
257,176,26093,1,8,3:0:0:0:
238,192,26271,1,8,3:0:0:0:
220,208,26450,6,0,B|184:228|176:272|176:272|216:300|260:296,1,150.000005722046,4|0,0:0|0:0,0:0:0:0:
328,280,26985,1,0,0:0:0:0:
396,220,27164,2,0,P|411:188|419:139,1,75.0000028610231,8|0,0:1|0:0,0:0:0:0:
384,64,27521,2,0,P|348:48|316:20,1,75.0000028610231,0|0,0:0|0:0,0:0:0:0:
232,16,27878,6,0,P|192:20|148:36,1,75.0000028610231,0|0,0:0|0:0,0:0:0:0:
96,96,28235,2,8,P|91:132|103:168,1,75.0000028610231,0|0,0:0|0:0,0:0:0:0:
196,176,28593,2,0,P|232:182|267:196,1,75.0000028610231,8|0,0:1|0:0,0:0:0:0:
327,128,28950,2,0,P|360:120|397:101,1,75.0000028610231,0|0,0:0|0:0,0:0:0:0:
448,176,29307,5,0,0:0:0:0:
448,176,29485,1,0,0:0:0:0:
360,248,29664,1,0,0:0:0:0:
360,248,29843,1,0,0:0:0:0:
304,152,30021,5,8,0:1:0:0:
263,55,30200,1,0,0:0:0:0:
164,102,30378,1,0,0:0:0:0:
208,196,30557,1,0,0:0:0:0:
248,304,30735,6,0,L|160:316,1,75.0000028610231,0|8,0:0|0:1,0:0:0:0:
52,284,31093,2,0,L|114:242,1,75.0000028610231,0|0,0:0|0:0,0:0:0:0:
252,152,31450,2,0,L|164:164,1,75.0000028610231,8|0,0:1|0:0,0:0:0:0:
64,120,31807,2,0,P|48:76|60:32,1,75.0000028610231,0|0,0:0|0:0,0:0:0:0:
180,20,32164,5,0,0:0:0:0:
268,64,32343,1,0,0:0:0:0:
180,104,32521,1,0,0:0:0:0:
268,148,32700,1,0,0:0:0:0:
184,200,32878,5,8,0:1:0:0:
67,170,33057,1,0,0:0:0:0:
96,54,33235,1,0,0:0:0:0:
212,83,33414,1,0,0:0:0:0:
324,44,33593,5,0,0:0:0:0:
420,99,33771,2,0,L|476:148,1,75.0000028610231,8|0,0:1|0:0,0:0:0:0:
412,240,34128,1,0,0:0:0:0:
316,228,34307,2,0,L|258:302,1,75.0000028610231,8|0,0:1|0:0,0:0:0:0:
180,300,34664,2,0,P|142:296|107:308,1,75.0000028610231,0|0,0:0|0:0,0:0:0:0:
104,200,35021,6,0,P|124:152|164:124,1,75.0000028610231,0|0,0:0|0:0,0:0:0:0:
312,68,35378,2,0,P|292:116|252:144,1,75.0000028610231,0|0,0:0|0:0,0:0:0:0:
136,24,35735,2,0,P|184:44|212:84,1,75.0000028610231,8|0,0:1|0:0,0:0:0:0:
280,244,36093,2,0,P|232:224|204:184,1,75.0000028610231,0|0,0:0|0:0,0:0:0:0:
172,208,36360,1,0,0:0:0:0:
172,208,36450,6,0,L|112:292,1,75.0000028610231,0|8,0:0|0:1,0:0:0:0:
168,376,36807,2,0,L|211:314,1,75.0000028610231,4|0,0:0|0:0,0:0:0:0:
336,296,37165,5,8,0:1:0:0:
348,288,37343,1,8,0:1:0:0:
360,280,37521,2,0,L|403:218,1,75.0000028610231,0|0,0:0|0:0,0:0:0:0:
388,128,37878,6,0,P|351:121|314:126,1,75.0000028610231,4|0,0:0|0:0,0:0:0:0:
232,84,38235,2,0,P|225:120|230:157,1,75.0000028610231,0|0,0:0|0:0,0:0:0:0:
156,212,38593,2,0,P|178:241|209:262,1,75.0000028610231,8|0,0:1|0:0,0:0:0:0:
295,292,38950,6,0,P|279:325|248:345,2,75.0000028610231,0|0|0,0:0|0:0|0:0,0:0:0:0:
344,200,39485,1,0,0:0:0:0:
260,136,39664,2,0,P|221:124|187:127,1,75.0000028610231,0|0,0:0|0:0,0:0:0:0:
80,160,40021,1,12,0:0:0:0:
60,264,40200,1,8,0:0:0:0:
160,288,40378,1,8,0:0:0:0:
376,208,40735,6,0,B|436:68|436:68|356:108,1,225.000008583069,4|0,0:0|0:0,0:0:0:0:
367,281,41450,2,0,B|495:363|495:363|468:277,1,225.000008583069,4|0,0:0|0:0,0:0:0:0:
307,238,42164,2,0,B|172:309|172:309|259:328,1,225.000008583069,4|0,0:0|0:0,0:0:0:0:
456,168,42878,5,4,0:0:0:0:
348,23,43057,1,0,0:0:0:0:
320,16,43146,1,0,0:0:0:0:
290,13,43235,1,0,0:0:0:0:
260,16,43324,1,0,0:0:0:0:
231,24,43414,1,0,0:0:0:0:
204,38,43503,1,0,0:0:0:0:
180,52,43593,6,0,B|136:92|92:88|92:88|116:128|100:192,1,200,4|8,0:0|0:0,0:0:0:0:
212,264,44128,1,0,0:0:0:0:
352,272,44307,2,0,P|396:224|416:148,1,100,0|0,0:0|0:0,0:0:0:0:
360,48,44664,2,0,P|316:96|296:172,1,100,8|0,0:0|0:0,0:0:0:0:
132,244,45021,5,0,0:0:0:0:
204,128,45200,1,0,0:0:0:0:
256,240,45378,1,8,0:0:0:0:
84,124,45557,2,0,B|116:102|125:69|125:69|194:30|285:65,1,200,0|0,0:0|0:0,0:0:0:0:
256,220,46093,5,8,0:0:0:0:
360,344,46271,2,0,B|392:312|428:312|428:312|476:256|408:196|360:220,1,200,0|0,0:0|0:0,0:0:0:0:
256,200,46807,1,8,0:0:0:0:
156,328,46985,2,0,B|124:296|88:296|88:296|40:240|108:180|156:204,1,200,0|0,0:0|0:0,0:0:0:0:
256,180,47521,5,8,0:0:0:0:
176,92,47700,2,0,B|116:60|44:108|44:108|99:128,1,200
256,160,48235,1,8,0:0:0:0:
364,92,48414,2,0,B|424:60|496:108|496:108|441:128,1,200
384,232,48950,2,0,P|342:206|292:202,1,100,8|0,0:0|0:0,0:0:0:0:
164,191,49307,5,4,0:0:0:0:
109,89,49485,1,0,0:0:0:0:
109,89,49575,1,0,0:0:0:0:
109,89,49664,1,8,0:0:0:0:
164,191,49843,5,0,0:0:0:0:
101,289,50021,1,0,0:0:0:0:
101,289,50110,1,0,0:0:0:0:
101,289,50200,1,8,0:0:0:0:
164,191,50378,5,0,0:0:0:0:
278,195,50557,1,0,0:0:0:0:
278,195,50646,1,0,0:0:0:0:
278,195,50735,1,8,0:0:0:0:
109,89,50914,5,0,0:0:0:0:
188,240,51093,2,0,L|220:292,2,50,0|0|0,0:0|0:0|0:0,0:0:0:0:
280,120,51450,6,0,P|244:128|208:152,1,59.9999981689454
214,282,51807,2,0,P|250:274|286:250,1,59.9999981689454
360,168,52164,6,0,P|369:118|372:68,1,100,4|0,0:0|0:0,0:0:0:0:
256,60,52521,2,0,P|207:50|156:48,1,100,8|0,0:0|0:0,0:0:0:0:
83,186,52878,1,0,0:0:0:0:
316,236,53057,1,0,0:0:0:0:
185,278,53235,1,8,0:0:0:0:
344,101,53414,1,0,0:0:0:0:
424,216,53593,6,0,P|424:265|405:311,1,100,0|0,0:0|0:0,0:0:0:0:
276,368,53950,2,0,P|276:319|295:273,1,100,8|0,0:0|0:0,0:0:0:0:
348,124,54307,1,0,0:0:0:0:
224,200,54485,1,0,0:0:0:0:
83,186,54664,2,0,P|90:137|116:95,1,100,8|0,0:0|0:0,0:0:0:0:
252,84,55021,5,0,0:0:0:0:
384,160,55200,1,0,0:0:0:0:
296,300,55378,1,8,0:0:0:0:
164,94,55557,5,0,0:0:0:0:
256,216,55736,1,0,0:0:0:0:
120,310,55914,1,0,0:0:0:0:
148,204,56093,1,8,0:0:0:0:
249,323,56271,6,0,P|309:334|391:326,1,100,4|0,0:0|0:0,0:0:0:0:
512,220,56628,2,0,P|450:208|369:216,1,100,0|8,0:0|0:0,0:0:0:0:
292,200,56985,1,0,0:0:0:0:
176,164,57164,1,0,0:0:0:0:
164,44,57343,1,0,0:0:0:0:
284,63,57521,2,0,P|320:96|365:122,1,100,8|0,0:0|0:0,0:0:0:0:
448,208,57878,6,0,B|432:266|380:282|380:282|344:244|292:236,1,200,4|8,0:0|0:0,0:0:0:0:
188,284,58414,1,0,0:0:0:0:
68,272,58593,1,0,0:0:0:0:
208,128,58771,1,0,0:0:0:0:
48,196,58950,2,0,P|24:136|24:84,1,100,8|0,0:0|0:0,0:0:0:0:
176,200,59307,6,0,B|200:244|188:284|188:284|260:292|308:240,1,200,4|8,0:0|0:0,0:0:0:0:
412,193,59843,1,0,0:0:0:0:
378,1,60021,1,0,0:0:0:0:
292,176,60200,1,0,0:0:0:0:
463,84,60378,1,8,0:0:0:0:
271,57,60557,1,0,0:0:0:0:
140,112,60735,6,0,P|116:156|68:200,1,100,0|0,0:0|0:0,0:0:0:0:
124,340,61093,2,0,P|148:296|196:252,1,100,8|0,0:0|0:0,0:0:0:0:
364,215,61450,2,0,P|340:259|305:295,1,100,0|0,0:0|0:0,0:0:0:0:
476,124,61807,1,8,0:0:0:0:
352,54,61985,6,0,B|328:70|288:70|288:70|216:102|224:176,1,200,0|0,0:0|0:0,0:0:0:0:
200,292,62521,1,8,0:0:0:0:
80,312,62700,1,0,0:0:0:0:
80,312,62789,1,0,0:0:0:0:
80,312,62878,1,0,0:0:0:0:
52,196,63057,1,0,0:0:0:0:
52,196,63146,1,0,0:0:0:0:
52,196,63235,2,0,L|80:92,1,100,8|0,0:0|0:0,0:0:0:0:
208,56,63593,6,0,P|292:56|320:28,1,100,4|0,0:0|0:0,0:0:0:0:
304,168,63950,2,0,P|376:126|386:87,1,100,8|0,0:0|0:0,0:0:0:0:
443,216,64307,2,0,P|485:143|474:105,1,100,0|0,0:0|0:0,0:0:0:0:
369,305,64664,1,8,0:0:0:0:
228,303,64843,6,0,B|232:264|208:240|208:240|136:232|88:176,1,200,4|0,0:0|0:0,0:0:0:0:
164,88,65378,1,8,0:0:0:0:
164,88,65468,1,0,0:0:0:0:
164,88,65557,2,0,P|208:120|264:120,1,100,0|0,0:0|0:0,0:0:0:0:
240,32,65914,1,0,0:0:0:0:
184,220,66093,1,8,0:0:0:0:
328,292,66271,1,0,0:0:0:0:
152,308,66450,6,0,P|76:328|36:288,1,100,4|0,0:0|0:0,0:0:0:0:
160,208,66807,2,0,P|84:187|69:132,1,100,8|0,0:0|0:0,0:0:0:0:
216,125,67164,2,0,P|160:69|175:14,1,100,0|0,0:0|0:0,0:0:0:0:
300,60,67521,1,8,0:0:0:0:
344,192,67700,6,0,B|320:288|320:288|256:320|188:280,1,200,4|0,0:0|0:0,0:0:0:0:
96,252,68235,1,8,0:0:0:0:
256,168,68414,1,0,0:0:0:0:
259,28,68593,2,0,P|206:21|153:34,1,100,0|0,0:0|0:0,0:0:0:0:
42,112,68950,2,0,P|78:145|102:189,1,100,8|0,0:0|0:0,0:0:0:0:
136,296,69307,6,0,B|174:247|174:247|248:264|296:188,1,200,4|8,0:0|0:0,0:0:0:0:
368,48,69843,1,0,0:0:0:0:
196,140,70021,1,0,0:0:0:0:
352,264,70200,1,0,0:0:0:0:
304,136,70378,1,8,0:0:0:0:
461,177,70557,6,0,B|432:224|449:297|449:297|431:343|385:356,1,200,0|0,0:0|0:0,0:0:0:0:
280,324,71093,1,8,0:0:0:0:
151,334,71271,1,0,0:0:0:0:
198,134,71450,1,0,0:0:0:0:
102,217,71628,1,0,0:0:0:0:
307,199,71807,1,8,0:0:0:0:
408,152,71985,6,0,P|436:111|480:88,1,100,0|0,0:0|0:0,0:0:0:0:
307,199,72343,2,0,P|327:243|325:293,1,100,0|8,0:0|0:0,0:0:0:0:
315,85,72700,2,0,P|257:77|206:31,1,100,0|0,0:0|0:0,0:0:0:0:
112,24,73057,1,0,0:0:0:0:
184,280,73235,1,8,0:0:0:0:
112,208,73414,6,0,P|154:182|204:184,1,100
328,192,73771,1,0,0:0:0:0:
400,268,73950,2,0,P|357:293|308:292,1,100,8|0,0:0|0:0,0:0:0:0:
276,276,74218,5,0,0:0:0:0:
244,264,74307,1,8,0:0:0:0:
208,260,74396,1,0,0:0:0:0:
172,268,74485,1,0,0:0:0:0:
136,272,74575,1,0,0:0:0:0:
104,256,74664,1,8,0:0:0:0:
80,228,74753,1,0,0:0:0:0:
60,200,74843,2,0,P|47:154|52:102,2,100,0|4|0,0:0|0:0|0:0,0:0:0:0:
256,192,75289,12,8,76271,0:0:0:0:
396,104,76985,5,0,0:0:0:0:
396,104,77164,2,0,P|440:152|448:200,1,100,0|0,0:0|0:0,0:0:0:0:
396,324,77521,2,0,P|352:276|344:228,1,100,8|0,0:0|0:0,0:0:0:0:
288,96,77878,6,0,L|216:196,1,100,4|0,0:0|0:0,0:0:0:0:
120,260,78235,2,0,P|86:218|64:172,1,100,8|0,0:0|0:0,0:0:0:0:
84,40,78593,1,0,0:0:0:0:
240,32,78771,2,0,L|293:116,1,100,0|8,0:0|0:0,0:0:0:0:
320,140,79039,1,0,0:0:0:0:
320,140,79128,6,0,B|374:128|450:152|450:152|394:168|368:210,1,200,4|0,0:0|0:0,0:0:0:0:
308,272,79664,2,0,P|280:360|252:380,1,100,8|0,0:0|0:0,0:0:0:0:
180,280,80021,1,0,0:0:0:0:
168,136,80200,1,0,0:0:0:0:
328,208,80378,1,8,0:0:0:0:
324,60,80557,1,0,0:0:0:0:
460,144,80735,6,0,B|500:202|500:202|498:249,1,100,4|0,0:0|0:0,0:0:0:0:
368,232,81093,2,0,B|373:302|373:302|348:342,1,100,8|0,0:0|0:0,0:0:0:0:
248,256,81450,2,0,B|217:319|217:319|176:341,1,100,0|0,0:0|0:0,0:0:0:0:
140,216,81807,1,8,0:0:0:0:
72,108,81985,6,0,L|172:48,1,100,4|0,0:0|0:0,0:0:0:0:
331,70,82343,2,0,L|226:23,1,100,0|8,0:0|0:0,0:0:0:0:
261,167,82700,2,0,L|352:207,1,100,0|0,0:0|0:0,0:0:0:0:
488,240,83057,1,0,0:0:0:0:
380,344,83235,1,8,0:0:0:0:
240,288,83414,1,0,0:0:0:0:
100,344,83593,6,0,P|60:308|41:243,1,100,4|0,0:0|0:0,0:0:0:0:
180,224,83950,1,8,0:0:0:0:
332,160,84128,1,0,0:0:0:0:
412,40,84307,2,0,P|452:76|471:141,1,100,0|0,0:0|0:0,0:0:0:0:
332,160,84664,1,8,0:0:0:0:
180,224,84843,1,0,0:0:0:0:
100,344,85021,6,0,P|60:308|41:243,1,100,0|0,0:0|0:0,0:0:0:0:
72,124,85378,1,8,0:0:0:0:
204,48,85557,2,0,P|273:36|323:62,1,100,0|0,0:0|0:0,0:0:0:0:
390,225,85914,1,0,0:0:0:0:
390,225,86003,1,0,0:0:0:0:
390,225,86093,1,12,0:0:0:0:
172,224,86271,1,0,0:0:0:0:
300,296,86450,5,8,0:0:0:0:
164,108,86628,1,0,0:0:0:0:
160,308,86807,1,8,0:0:0:0:
264,68,86985,1,0,0:0:0:0:
136,240,87164,5,8,0:0:0:0:
390,225,87343,1,0,0:0:0:0:
160,116,87521,1,8,0:0:0:0:
288,320,87700,1,0,0:0:0:0:
401,139,87878,5,8,0:0:0:0:
204,47,88057,1,0,0:0:0:0:
309,336,88235,1,8,0:0:0:0:
112,244,88414,5,0,0:0:0:0:
401,139,88593,1,8,0:0:0:0:
281,176,88950,6,0,P|229:201|285:214,1,150.000005722046,0|0,0:0|0:0,0:0:0:0:
