osu file format v13

[General]
AudioFilename: rashisa.mp3
AudioLeadIn: 2000
PreviewTime: 51450
Countdown: 0
SampleSet: Soft
StackLeniency: 0.7
Mode: 0
LetterboxInBreaks: 0
WidescreenStoryboard: 0

[Editor]
DistanceSpacing: 1
BeatDivisor: 4
GridSize: 4
TimelineZoom: 1.8

[Metadata]
Title:Rashisa
TitleUnicode:らしさ
Artist:SUPER BEAVER
ArtistUnicode:SUPER BEAVER
Creator:handsome
Version:Hard
Source:ばらかもん
Tags:barakamon naru junon boy opening handa seishuu clyine tv size
BeatmapID:453728
BeatmapSetID:190486

[Difficulty]
HPDrainRate:6
CircleSize:4
OverallDifficulty:6
ApproachRate:7.5
SliderMultiplier:1.4
SliderTickRate:1

[Events]
//Background and Video events
Video,0,"rashisa.avi"
0,0,"MANDOM.jpg",0,0
//Break Periods
//Storyboard Layer 0 (Background)
//Storyboard Layer 1 (Fail)
//Storyboard Layer 2 (Pass)
//Storyboard Layer 3 (Foreground)
//Storyboard Sound Samples
//Background Colour Transformations
3,100,163,162,255

[TimingPoints]
736,357.142857142857,4,1,1,100,1,0
736,-100,4,1,1,50,0,0
4843,-100,4,1,1,40,0,0
5200,-100,4,1,1,20,0,0
6450,-100,4,1,1,35,0,0
15021,-100,4,1,1,40,0,0
26450,-133.333333333333,4,2,1,40,0,0
37521,-133.333333333333,4,3,1,40,0,0
37700,-133.333333333333,4,2,1,40,0,0
40289,-133.333333333333,4,3,1,40,0,0
40468,-133.333333333333,4,2,1,40,0,0
43057,-100,4,1,1,50,0,0
52164,-100,4,1,1,60,0,1
74307,-100,4,1,1,40,0,1
75021,-100,4,1,1,60,0,0
88414,-100,4,1,1,45,0,0
88950,-100,4,2,1,40,0,0
89306,-100,4,2,1,5,0,0

[Colours]
Combo1 : 192,192,192
Combo2 : 128,128,64
Combo3 : 0,128,0
Combo4 : 64,128,128

[HitObjects]
80,296,736,6,0,B|144:272|144:272|213:289,1,140,4|8,1:0|0:0,0:0:0:0:
396,304,1450,2,0,L|448:224,1,70,0|0,0:0|0:0,0:0:0:0:
420,156,1807,1,8,0:0:0:0:
336,193,1985,6,0,B|269:220|269:220|202:207,1,140,4|0,0:0|0:0,0:0:0:0:
96,204,2521,1,8,0:0:0:0:
204,24,2878,1,0,0:0:0:0:
152,116,3057,1,0,0:0:0:0:
256,108,3235,2,0,L|320:58,1,70,8|0,0:0|0:0,0:0:0:0:
400,88,3593,6,0,P|428:128|427:171,1,70,4|0,0:0|0:0,0:0:0:0:
340,156,3950,2,0,P|351:203|337:243,1,70,8|0,0:0|0:0,0:0:0:0:
260,199,4307,2,0,P|254:246|227:279,1,70,0|0,0:0|0:0,0:0:0:0:
172,212,4664,2,0,L|92:244,1,70,8|0,0:0|0:0,0:0:0:0:
192,76,5200,1,0,0:0:0:0:
108,120,6450,6,0,L|176:56,2,70,4|0|8,0:0|0:0|0:0,0:0:0:0:
64,200,6985,1,0,0:0:0:0:
136,256,7164,2,0,L|220:308,1,70,0|0,0:0|0:0,0:0:0:0:
352,264,7521,2,0,L|284:280,1,70,8|0,0:0|0:0,0:0:0:0:
300,188,7879,6,0,L|368:172,1,70,0|0,0:0|0:0,0:0:0:0:
312,100,8236,2,0,L|244:116,1,70,8|0,0:0|0:0,0:0:0:0:
212,200,8593,2,0,P|180:180|160:152,2,70,0|0|8,0:0|0:0|0:0,0:0:0:0:
304,208,9128,1,0,0:0:0:0:
304,208,9307,6,0,P|382:188|412:128,1,140,0|8,0:0|0:0,0:0:0:0:
384,52,9843,1,0,0:0:0:0:
292,44,10021,2,0,L|216:80,1,70
148,116,10378,1,8,0:0:0:0:
148,116,10557,2,0,P|180:148|216:164,2,70,0|0|0,0:0|0:0|0:0,0:0:0:0:
84,32,11093,5,8,0:0:0:0:
84,32,11271,1,0,0:0:0:0:
43,129,11450,1,0,0:0:0:0:
43,129,11628,1,0,0:0:0:0:
88,224,11807,1,8,0:0:0:0:
88,224,11985,1,0,0:0:0:0:
168,292,12164,6,0,P|88:328|20:308,2,140,4|8|0,0:0|0:0|0:0,0:0:0:0:
260,288,13057,2,0,P|251:325|256:360,1,70,0|8,0:0|0:0,0:0:0:0:
344,328,13414,1,0,0:0:0:0:
428,292,13593,6,0,L|476:220,1,70,0|0,0:0|0:0,0:0:0:0:
476,144,13950,2,0,P|440:148|404:172,1,70,8|0,0:0|0:0,0:0:0:0:
332,208,14307,2,0,L|256:188,1,70,0|0,0:0|0:0,0:0:0:0:
172,192,14664,2,0,L|152:112,1,70,8|0,0:0|0:0,0:0:0:0:
220,60,15021,6,0,P|268:45|303:19,1,70,4|0,0:0|0:0,0:0:0:0:
376,48,15378,2,0,P|409:64|432:99,1,70,8|0,0:0|0:0,0:0:0:0:
352,140,15735,2,0,L|361:230,1,70,0|0,0:0|0:0,0:0:0:0:
384,316,16093,1,8,0:0:0:0:
480,276,16271,1,0,0:0:0:0:
276,320,16628,5,0,0:0:0:0:
380,300,16807,1,8,0:0:0:0:
184,256,17164,1,0,0:0:0:0:
92,308,17343,1,0,0:0:0:0:
36,220,17521,2,0,P|17:171|31:128,1,70,8|0,0:0|0:0,0:0:0:0:
107,164,17878,6,0,P|124:133|152:112,1,70,0|0,0:0|0:0,0:0:0:0:
308,116,18235,2,0,P|290:146|262:166,1,70,8|0,0:0|0:0,0:0:0:0:
188,44,18593,2,0,P|218:61|238:89,1,70,0|0,0:0|0:0,0:0:0:0:
236,243,18950,2,0,P|205:227|184:199,1,70,8|0,0:0|0:0,0:0:0:0:
108,164,19307,6,0,P|160:108|224:92,1,140,0|8,0:0|0:0,0:0:0:0:
308,116,19843,1,0,0:0:0:0:
256,192,20021,2,0,B|213:172|175:194,1,70,0|0,0:0|0:0,0:0:0:0:
212,276,20378,2,0,B|165:288|151:330,1,70,8|0,0:0|0:0,0:0:0:0:
232,368,20735,6,0,B|271:322|322:351|354:309,1,140,0|8,0:0|0:0,0:0:0:0:
416,240,21271,1,0,0:0:0:0:
472,168,21450,2,0,P|499:204|506:248,2,70,0|0|8,0:0|0:0|0:0,2:0:0:0:
404,108,21985,1,8,0:0:0:0:
320,76,22164,6,0,P|284:68|248:76,1,70,0|0,0:0|0:0,0:0:0:0:
211,156,22521,2,0,P|179:168|143:160,1,70,8|0,0:0|0:0,0:0:0:0:
96,240,22878,2,0,P|122:261|133:296,1,70,0|0,0:0|0:0,0:0:0:0:
232,292,23235,2,0,P|237:258|262:231,1,70,8|0,0:0|0:0,0:0:0:0:
181,147,23593,6,0,P|227:88|298:78,1,140,0|8,0:0|0:0,0:0:0:0:
376,100,24128,1,0,0:0:0:0:
400,188,24307,2,0,P|383:219|358:244,1,70,0|0,0:0|0:0,0:0:0:0:
256,236,24664,1,8,0:0:0:0:
215,138,24843,6,0,B|144:124|76:152,1,140,4|0,0:0|0:0,0:0:0:0:
32,244,25378,1,8,0:0:0:0:
100,324,25557,2,0,L|76:360,2,35,0|0|0,0:0|0:0|0:0,0:0:0:0:
204,300,25914,1,4,3:0:0:0:
316,320,26093,1,8,3:0:0:0:
408,272,26271,1,8,3:0:0:0:
416,168,26450,6,0,L|360:128,1,52.5000020027161,4|0,0:0|0:0,0:0:0:0:
300,168,26807,2,0,L|244:128,1,52.5000020027161,0|0,0:0|0:0,0:0:0:0:
184,168,27164,1,8,0:1:0:0:
136,324,27521,6,0,L|136:383,2,52.5000020027161,0|0|0,0:0|0:0|0:0,0:0:0:0:
81,176,28235,2,0,L|25:201,2,52.5000020027161,0|0|8,0:0|0:0|0:1,0:0:0:0:
235,144,28950,1,0,0:0:0:0:
128,272,29307,6,0,P|160:304|240:304,1,105.000004005432,0|0,0:0|0:0,0:0:0:0:
372,316,30021,2,0,L|420:204,1,105.000004005432,8|0,0:1|0:0,0:0:0:0:
268,160,30735,2,0,B|236:144|236:144|208:152|208:152|164:120,2,105.000004005432,0|0|8,0:0|0:0|0:1,0:0:0:0:
424,184,31807,1,0,0:0:0:0:
340,316,32164,6,0,P|300:352|244:356,1,105.000004005432,0|0,0:0|0:0,0:0:0:0:
108,296,32878,2,0,L|163:206,1,105.000004005432,8|0,0:1|2:0,0:0:0:0:
264,120,33593,2,0,P|219:83|160:76,1,105.000004005432,0|0,0:0|0:0,0:0:0:0:
224,224,34307,2,0,P|268:260|328:268,1,105.000004005432,8|0,0:1|0:0,0:0:0:0:
444,192,35021,6,0,L|392:88,1,105.000004005432,0|0,0:0|0:0,0:0:0:0:
252,164,35735,2,0,P|196:180|160:228,1,105.000004005432,8|0,0:1|0:0,0:0:0:0:
68,336,36450,2,0,L|140:352,1,52.5000020027161,0|8,0:0|0:1,0:0:0:0:
192,320,36807,2,0,P|268:260|292:264,1,105.000004005432,4|8,0:0|0:1,0:0:0:0:
424,280,37521,1,4,0:0:0:0:
384,128,37878,6,0,L|332:172,1,52.5000020027161,4|0,0:0|0:0,0:0:0:0:
276,120,38235,2,0,L|224:164,1,52.5000020027161,0|0,0:0|0:0,0:0:0:0:
172,108,38593,1,8,0:1:0:0:
96,244,38950,2,0,L|20:232,2,52.5000020027161,0|0|0,0:0|0:0|0:0,0:0:0:0:
251,290,39664,2,0,L|251:346,2,52.5000020027161,0|0|12,0:0|0:0|0:3,0:0:0:0:
320,144,40378,1,8,0:0:0:0:
160,112,40735,6,0,B|144:192|176:192|160:272,1,157.500006008148,4|0,0:0|0:0,0:0:0:0:
256,268,41450,2,0,B|272:192|240:192|256:112,1,157.500006008148,4|0,0:0|0:0,0:0:0:0:
352,112,42164,2,0,B|336:192|368:192|352:268,1,157.500006008148,4|0,0:0|0:0,0:0:0:0:
276,296,42878,1,4,0:0:0:0:
232,224,43057,2,0,P|205:249|192:284,2,70,0|0|0,0:0|0:0|0:0,0:0:0:0:
320,192,43593,6,0,B|300:152|300:152|252:132|252:132|232:80,1,140,4|8,0:0|0:0,0:0:0:0:
188,16,44128,1,0,0:0:0:0:
104,48,44307,2,0,P|64:40|40:16,1,70,8|0,0:0|0:0,0:0:0:0:
0,104,44664,2,0,P|40:112|64:136,1,70,8|0,0:0|0:0,0:0:0:0:
140,176,45021,5,0,0:0:0:0:
229,278,45201,1,0,0:0:0:0:
275,146,45378,1,8,0:0:0:0:
196,216,45558,5,0,0:0:0:0:
285,319,45736,1,0,0:0:0:0:
331,187,45915,1,0,0:0:0:0:
252,256,46093,5,8,0:0:0:0:
340,276,46271,2,0,B|372:238|423:251|423:251|461:203,1,140,0|0,0:0|0:0,0:0:0:0:
460,120,46807,1,8,0:0:0:0:
460,120,46985,2,0,B|392:152|392:100|316:132,1,140,0|0,0:0|0:0,0:0:0:0:
224,212,47521,5,8,0:0:0:0:
224,212,47700,2,0,B|292:183|292:235|360:203,1,140,0|0,0:0|0:0,0:0:0:0:
460,292,48235,1,8,0:0:0:0:
460,292,48414,2,0,B|392:324|392:272|316:304,1,140,0|0,0:0|0:0,0:0:0:0:
224,212,48950,2,0,P|252:176|284:164,1,70,8|0,0:0|0:0,0:0:0:0:
390,186,49307,6,0,P|446:225|454:313,1,140,4|8,0:0|0:0,0:0:0:0:
374,278,49843,2,0,P|353:344|273:378,1,140,0|8,0:0|0:0,3:0:0:0:
278,290,50378,2,0,P|208:291|151:224,1,140,0|8,0:0|0:0,0:0:0:0:
238,206,50914,2,0,P|215:140|260:65,1,140,0|8,0:0|0:0,0:0:0:0:
306,142,51450,2,0,P|361:100|446:120,1,140,0|8,0:0|0:0,0:0:0:0:
192,188,52164,6,0,P|224:198|248:224,1,70,4|0,0:0|0:0,0:0:0:0:
336,200,52521,2,0,P|342:234|332:267,1,70,8|0,0:0|0:0,0:0:0:0:
404,324,52878,2,0,P|377:347|343:354,1,70,0|0,0:0|0:0,0:0:0:0:
256,324,53235,2,0,L|184:372,2,70,8|0|0,0:0|0:0|0:0,0:0:0:0:
332,272,53771,5,0,0:0:0:0:
404,216,53950,2,0,P|456:172|458:92,1,140,8|0,0:0|0:0,0:0:0:0:
380,132,54485,1,0,0:0:0:0:
308,76,54664,2,0,L|224:76,1,70,8|0,0:0|0:0,0:0:0:0:
160,120,55021,6,0,P|116:192|128:248,1,140,0|8,0:0|0:0,0:0:0:0:
204,200,55557,1,0,0:0:0:0:
244,280,55735,2,0,P|308:296|388:264,1,140,0|8,0:0|0:0,0:0:0:0:
476,240,56271,2,0,P|492:196|496:144,1,70
440,84,56628,2,0,P|424:128|420:180,1,70,0|8,0:0|0:0,0:0:0:0:
347,205,56985,5,0,0:0:0:0:
251,203,57164,2,0,P|194:178|178:151,1,70
200,288,57521,2,0,P|257:312|272:339,1,70,8|0,0:0|0:0,0:0:0:0:
350,297,57878,6,0,P|415:249|458:174,1,140,4|8,0:0|0:0,0:0:0:0:
448,108,58414,1,0,0:0:0:0:
372,60,58593,2,0,P|332:64|306:83,1,70,0|0,0:0|0:0,0:0:0:0:
304,172,58950,2,0,P|300:212|281:238,1,70,8|0,0:0|0:0,0:0:0:0:
196,259,59307,6,0,P|132:240|80:184,1,140,4|8,0:0|0:0,0:0:0:0:
108,100,59843,1,0,0:0:0:0:
164,32,60021,2,0,P|187:58|197:96,1,70,0|0,0:0|0:0,0:0:0:0:
172,180,60378,1,8,0:0:0:0:
96,232,60557,1,0,0:0:0:0:
100,324,60735,6,0,P|133:332|167:323,1,70,0|0,0:0|0:0,0:0:0:0:
228,252,61093,2,0,P|261:243|295:251,1,70,8|0,0:0|0:0,0:0:0:0:
332,336,61450,2,0,P|365:344|399:335,1,70,0|0,0:0|0:0,0:0:0:0:
472,280,61807,1,8,0:0:0:0:
464,188,61985,2,0,P|408:132|332:144,1,140
376,224,62521,2,0,P|355:252|331:277,1,70,8|0,0:0|0:0,0:0:0:0:
240,288,62878,1,0,0:0:0:0:
208,204,63057,1,0,0:0:0:0:
208,204,63146,1,0,0:0:0:0:
208,204,63235,2,0,P|208:164|200:124,1,70,8|0,0:0|0:0,0:0:0:0:
296,84,63593,6,0,L|376:121,1,70,4|0,0:0|0:0,0:0:0:0:
340,204,63950,2,0,P|308:228|264:244,1,70,8|0,0:0|0:0,0:0:0:0:
192,260,64307,2,0,P|159:235|112:216,1,70,0|0,0:0|0:0,0:0:0:0:
128,132,64664,1,8,0:0:0:0:
207,83,64843,2,0,B|264:120|264:120|340:135,1,140,4|0,0:0|0:0,0:0:0:0:
420,160,65378,6,0,P|396:232|412:299,1,140,8|0,0:0|0:0,0:0:0:0:
332,340,65914,1,0,0:0:0:0:
256,289,66093,2,0,L|256:216,1,70,8|0,0:0|0:0,0:0:0:0:
208,140,66450,6,0,P|182:174|174:233,1,70,4|0,0:0|0:0,0:0:0:0:
84,200,66807,2,0,P|94:241|133:286,1,70,8|0,0:0|0:0,0:0:0:0:
48,332,67164,2,0,P|80:350|118:356,1,70,0|0,0:0|0:0,0:0:0:0:
204,340,67521,1,8,0:0:0:0:
292,316,67700,6,0,P|360:296|416:232,1,140,4|0,0:0|0:0,0:0:0:0:
400,156,68235,5,8,0:0:0:0:
336,92,68414,2,0,B|336:16,2,70,0|0|0,0:0|0:0|0:0,0:0:0:0:
252,128,68950,2,0,P|216:140|184:168,1,70,8|0,0:0|0:0,0:0:0:0:
260,216,69307,6,0,P|285:251|292:292,1,70,4|0,0:0|0:0,0:0:0:0:
204,308,69664,1,8,0:0:0:0:
112,300,69843,2,0,B|94:335|49:353,2,70,0|0|0,0:0|0:0|0:0,0:0:0:0:
152,220,70378,1,8,0:0:0:0:
188,136,70557,6,0,B|219:132|237:159|237:159|247:215|301:238,1,140,0|0,0:0|0:0,0:0:0:0:
328,148,71093,2,0,L|427:187,1,70,8|0,0:0|0:0,0:0:0:0:
436,256,71450,2,0,P|427:294|402:324,1,70,0|0,0:0|0:0,0:0:0:0:
304,312,71807,2,0,P|293:278|271:251,1,70,8|0,0:0|0:0,0:0:0:0:
192,184,72164,6,0,P|152:180|104:204,2,70,0|0|8,0:0|0:0|0:0,0:0:0:0:
276,120,72700,2,0,P|312:120|352:148,1,70
372,236,73057,1,0,0:0:0:0:
444,180,73235,1,8,0:0:0:0:
432,88,73414,2,0,P|384:24|304:20,1,140
336,112,73950,1,8,0:0:0:0:
271,195,74128,2,0,L|279:255,1,35,0|0,0:0|0:0,0:0:0:0:
240,256,74307,6,0,L|202:286,6,35,0|0|0|0|0|0|0,0:0|0:0|0:0|0:0|0:0|0:0|0:0,0:0:0:0:
256,192,75021,12,0,76271,0:0:0:0:
360,248,76985,5,0,0:0:0:0:
360,248,77164,2,0,P|320:240|282:244,2,70,0|0|8,0:0|0:0|0:0,0:0:0:0:
440,288,77700,2,0,L|488:216,1,70,0|4,0:0|0:0,0:0:0:0:
456,140,78057,1,0,0:0:0:0:
374,179,78235,2,0,L|360:248,1,70,8|0,0:0|0:0,0:0:0:0:
336,96,78592,1,0,0:0:0:0:
264,144,78771,6,0,L|264:224,1,70,0|8,0:0|0:0,0:0:0:0:
244,304,79128,2,0,P|168:338|102:318,1,140,4|0,0:0|0:0,0:0:0:0:
52,259,79664,1,8,0:0:0:0:
144,248,79843,5,0,0:0:0:0:
136,108,80021,1,0,0:0:0:0:
228,180,80200,1,0,0:0:0:0:
319,122,80378,1,8,0:0:0:0:
303,262,80557,1,0,0:0:0:0:
303,262,80735,6,0,P|363:222|383:158,1,140,4|8,0:0|0:0,0:0:0:0:
275,158,81271,1,0,0:0:0:0:
247,54,81450,2,0,P|187:94|167:158,1,140,4|8,0:0|0:0,0:0:0:0:
275,158,81985,6,0,B|303:194|303:194|344:198,1,70,4|0,0:0|0:0,0:0:0:0:
460,212,82343,2,0,B|414:218|414:218|390:251,1,70,0|8,0:0|0:0,0:0:0:0:
320,340,82700,2,0,B|337:297|337:297|320:260,1,70,0|0,0:0|0:0,0:0:0:0:
332,168,83057,1,0,0:0:0:0:
236,224,83235,2,0,L|166:217,1,70,8|0,0:0|0:0,0:0:0:0:
76,224,83593,6,0,P|108:292|196:304,1,140,4|8,0:0|0:0,0:0:0:0:
256,312,84128,1,0,0:0:0:0:
236,224,84307,2,0,P|303:236|342:291,1,140,4|8,0:0|0:0,0:0:0:0:
148,212,84843,2,0,P|164:172|192:152,1,70,0|0,0:0|0:0,0:0:0:0:
256,192,85200,12,12,86093,0:0:0:0:
334,95,86450,6,0,P|384:116|393:138,1,70,8|0,0:0|0:0,0:0:0:0:
316,184,86807,2,0,P|336:234|327:256,1,70,8|0,0:0|0:0,0:0:0:0:
240,240,87164,2,0,P|218:290|196:299,1,70,8|0,0:0|0:0,0:0:0:0:
148,228,87521,2,0,P|97:248|75:239,1,70,8|0,0:0|0:0,0:0:0:0:
64,140,87878,1,8,0:0:0:0:
128,56,88057,1,0,0:0:0:0:
168,152,88235,1,8,0:0:0:0:
232,72,88414,5,0,0:0:0:0:
232,72,88593,1,0,0:0:0:0:
356,240,88950,6,0,B|318:258|315:331|238:337|240:259|303:264|303:264,1,140,0|0,0:0|0:0,0:0:0:0:
