osu file format v13

[General]
AudioFilename: rashisa.mp3
AudioLeadIn: 2000
PreviewTime: 51450
Countdown: 0
SampleSet: Normal
StackLeniency: 0.7
Mode: 0
LetterboxInBreaks: 0
WidescreenStoryboard: 0

[Editor]
Bookmarks: 14307,24128,90021
DistanceSpacing: 1
BeatDivisor: 4
GridSize: 8
TimelineZoom: 1.6

[Metadata]
Title:Rashisa
TitleUnicode:らしさ
Artist:SUPER BEAVER
ArtistUnicode:SUPER BEAVER
Creator:handsome
Version:Clyine's Extra
Source:ばらかもん
Tags:barakamon naru junon boy opening handa seishuu clyine tv size
BeatmapID:460656
BeatmapSetID:190486

[Difficulty]
HPDrainRate:7
CircleSize:4
OverallDifficulty:8
ApproachRate:9
SliderMultiplier:2
SliderTickRate:1

[Events]
//Background and Video events
Video,0,"rashisa.avi"
0,0,"MANDOM.jpg",0,0
//Break Periods
//Storyboard Layer 0 (Background)
//Storyboard Layer 1 (Fail)
//Storyboard Layer 2 (Pass)
//Storyboard Layer 3 (Foreground)
//Storyboard Sound Samples
//Background Colour Transformations
3,100,163,162,255

[TimingPoints]
736,357.142857142857,4,1,1,70,1,0
4843,-66.6666666666667,4,1,1,40,0,0
5200,-100,4,2,1,70,0,0
5378,-100,4,1,1,5,0,0
6450,-100,4,1,1,70,0,0
26450,-133.333333333333,4,1,1,70,0,0
40735,-142.857142857143,4,1,1,70,0,0
41450,-166.666666666667,4,1,1,70,0,0
42164,-200,4,1,1,70,0,0
42878,-133.333333333333,4,1,1,30,0,0
43593,-100,4,1,1,70,0,0
51628,-200,4,1,1,70,0,0
52164,-100,4,1,1,70,0,1
75021,-100,4,1,1,70,0,0
77878,-58.8235294117647,4,1,1,70,0,0
78414,-66.6666666666667,4,1,1,70,0,0
78950,-100,4,1,1,70,0,0
88950,-200,4,2,1,40,0,0
89128,-100,4,1,1,5,0,0

[Colours]
Combo1 : 192,192,192
Combo2 : 128,128,64
Combo3 : 0,128,0
Combo4 : 64,128,128

[HitObjects]
97,109,438,6,0,P|40:80|32:32,1,100
188,69,736,2,4,P|191:144|163:182,1,100,4|0,0:0|0:0,0:0:0:0:
44,307,1093,5,8,0:0:0:0:
164,218,1271,1,0,0:0:0:0:
261,333,1450,1,0,0:0:0:0:
336,181,1629,1,0,0:0:0:0:
454,274,1807,1,8,0:0:0:0:
389,96,1986,2,0,P|314:80|237:166,1,200,4|0,0:0|0:0,0:0:0:0:
462,333,2521,1,8,0:0:0:0:
168,288,2879,5,0,0:0:0:0:
389,96,3057,1,0,0:0:0:0:
168,288,3236,1,8,0:0:0:0:
82,164,3414,5,0,0:0:0:0:
74,156,3504,1,0,0:0:0:0:
67,148,3593,2,0,P|48:104|60:56,1,100
316,121,3950,2,0,P|336:176|317:221,1,100,8|0,0:0|0:0,0:0:0:0:
67,148,4307,2,0,P|83:91|124:66,1,100
439,151,4664,1,8,0:0:0:0:
189,79,4843,6,0,B|85:41|85:41|114:68,1,150.000005722046,4|0,0:0|0:0,0:0:0:0:
226,164,5200,6,0,P|283:231|274:280,1,100,0|0,1:0|2:0,2:0:0:0:
123,252,6450,5,0,0:0:0:0:
201,124,6629,1,0,0:0:0:0:
62,182,6807,1,8,0:0:0:0:
178,321,6986,1,0,0:0:0:0:
120,128,7164,1,0,0:0:0:0:
282,122,7343,1,0,0:0:0:0:
39,277,7521,1,8,0:0:0:0:
205,218,7700,1,0,0:0:0:0:
39,277,7879,6,0,P|17:218|42:162,1,100,4|0,0:0|0:0,0:0:0:0:
86,80,8236,1,8,0:0:0:0:
152,180,8414,1,0,0:0:0:0:
217,78,8593,1,0,0:0:0:0:
85,275,8771,1,0,0:0:0:0:
308,150,8950,1,8,0:0:0:0:
8,184,9128,2,0,L|59:116,1,50,0|0,0:0|3:0,0:0:0:0:
86,80,9307,6,0,P|149:64|201:80,1,100,4|0,0:0|0:0,0:0:0:0:
235,264,9664,1,8,0:0:0:0:
307,77,9843,1,0,0:0:0:0:
312,317,10021,2,0,P|356:286|371:225,1,100,0|0,0:0|0:0,0:0:0:0:
160,131,10379,1,8,0:0:0:0:
379,23,10557,2,0,P|394:92|374:144,1,100,0|0,0:0|0:0,0:3:0:0:
464,240,10914,5,0,0:0:0:0:
315,219,11093,1,8,0:0:0:0:
497,135,11271,1,0,0:0:0:0:
429,342,11450,1,0,0:0:0:0:
204,236,11629,1,0,0:0:0:0:
423,199,11807,1,8,0:0:0:0:
143,154,11985,1,0,0:0:0:0:
302,142,12164,6,0,P|262:106|176:115,1,100,4|0,0:0|0:0,0:0:0:0:
111,312,12521,2,0,P|164:311|221:245,1,100,8|0,0:0|0:0,0:0:0:0:
170,27,12879,1,0,0:0:0:0:
170,27,13057,1,0,0:0:0:0:
363,74,13236,1,8,0:0:0:0:
122,133,13414,1,0,0:0:0:0:
327,217,13593,5,4,0:0:0:0:
92,27,13771,1,0,0:0:0:0:
154,240,13950,2,0,P|211:208|219:153,1,100,8|0,0:0|0:0,0:0:0:0:
170,27,14307,5,4,3:0:0:0:
482,104,14486,1,4,3:0:0:0:
35,263,14664,1,12,0:0:0:0:
261,155,14843,5,0,0:0:0:0:
275,149,14932,1,0,0:0:0:0:
288,142,15021,2,0,P|370:174|374:212,1,100,4|0,0:0|0:0,0:0:0:0:
340,318,15379,2,0,L|214:281,1,100,8|0,0:0|0:0,0:0:0:0:
89,248,15736,1,0,0:0:0:0:
89,248,15914,1,0,0:0:0:0:
414,231,16093,5,8,0:0:0:0:
89,248,16271,2,0,L|206:217,1,100
478,152,16629,1,0,0:0:0:0:
96,164,16807,2,0,L|191:135,1,100,8|0,0:0|0:0,0:0:0:0:
343,82,17164,1,0,0:0:0:0:
343,82,17343,1,0,0:0:0:0:
185,222,17521,1,8,0:0:0:0:
478,152,17700,1,0,0:0:0:0:
318,157,17879,5,4,0:0:0:0:
460,26,18057,1,0,0:0:0:0:
223,137,18236,1,8,0:0:0:0:
423,248,18414,1,0,0:0:0:0:
208,48,18593,1,0,0:0:0:0:
312,292,18771,1,0,0:0:0:0:
68,159,18950,1,8,0:0:0:0:
414,115,19129,1,0,0:0:0:0:
209,200,19307,5,4,0:0:0:0:
194,213,19486,1,0,0:0:0:0:
180,227,19664,2,0,P|162:296|170:324,1,100,8|0,0:0|0:0,0:0:0:0:
144,58,20021,1,0,0:0:0:0:
144,58,20200,1,0,0:0:0:0:
169,321,20379,1,8,0:0:0:0:
413,172,20557,1,0,0:0:0:0:
252,112,20736,6,0,P|170:108|130:137,1,100,4|0,0:0|0:0,0:0:0:0:
46,187,21093,1,8,0:0:0:0:
269,37,21271,2,0,L|324:6,2,50,0|0|0,0:0|0:0|0:0,0:0:0:0:
46,187,21629,1,0,0:0:0:0:
234,253,21807,1,0,0:0:0:0:
298,63,21986,1,0,0:0:0:0:
188,345,22164,2,0,P|140:339|106:303,1,100
106,303,22521,5,8,0:0:0:0:
161,109,22700,1,0,0:0:0:0:
184,286,22879,1,0,0:0:0:0:
234,133,23057,1,0,0:0:0:0:
261,269,23236,1,8,0:0:0:0:
310,159,23414,1,0,0:0:0:0:
336,244,23593,2,0,P|382:209|392:129,1,100,4|0,0:0|0:0,0:0:0:0:
161,109,23950,2,0,P|115:144|105:224,1,100,8|0,0:0|0:0,0:0:0:0:
162,344,24307,1,0,0:0:0:0:
162,344,24486,1,0,0:0:0:0:
337,302,24664,5,8,0:0:0:0:
234,60,24843,1,4,0:0:0:0:
43,192,25200,1,4,0:3:0:0:
487,192,25379,1,8,0:0:0:0:
168,247,25557,1,0,0:0:0:0:
179,238,25646,1,0,0:0:0:0:
190,229,25736,1,0,0:0:0:0:
107,59,25914,1,4,0:3:0:0:
135,155,26093,1,8,0:0:0:0:
169,248,26271,1,4,0:3:0:0:
212,118,26450,6,0,B|291:180|291:180|268:208|299:225|295:222,1,150.000005722046,4|10,0:3|0:2,2:0:0:0:
296,222,26985,1,0,2:0:0:0:
202,207,27164,2,0,P|134:171|126:96,1,150.000005722046,4|2,0:3|0:2,2:0:0:0:
291,110,27878,6,0,B|416:95|416:95|428:115,1,150.000005722046,4|10,0:3|0:2,2:0:0:0:
428,115,28414,1,0,2:0:0:0:
494,171,28593,2,0,P|436:201|361:166,1,150.000005722046,4|2,0:3|0:2,2:0:0:0:
232,93,29307,5,8,0:0:0:0:
363,169,29486,1,0,0:0:0:0:
183,133,29664,1,0,0:0:0:0:
410,133,29843,1,0,0:0:0:0:
180,78,30021,5,8,0:0:0:0:
180,78,30200,1,0,0:0:0:0:
411,182,30379,1,0,0:0:0:0:
411,182,30557,1,0,0:0:0:0:
254,215,30736,6,0,B|128:209|128:209|110:225,1,150.000005722046,12|2,0:0|0:2,0:0:0:0:
110,224,31271,1,0,0:0:0:0:
155,295,31450,2,0,P|71:300|24:230,1,150.000005722046,12|2,0:0|0:2,0:0:0:0:
301,128,32164,5,8,0:0:0:0:
125,96,32343,1,0,0:0:0:0:
293,120,32521,5,0,0:0:0:0:
93,120,32700,1,0,0:0:0:0:
285,112,32879,5,8,0:0:0:0:
65,144,33057,1,0,0:0:0:0:
277,120,33235,5,0,0:0:0:0:
65,260,33414,1,0,0:0:0:0:
285,112,33593,5,8,0:0:0:0:
170,162,33771,1,0,0:0:0:0:
293,120,33950,1,0,0:0:0:0:
273,259,34129,1,0,0:0:0:0:
300,128,34307,6,0,P|370:150|400:216,1,150.000005722046,12|0,0:0|0:0,0:0:0:0:
400,216,34843,1,0,0:0:0:0:
231,279,35021,5,8,0:0:0:0:
392,225,35200,1,0,0:0:0:0:
195,261,35379,5,0,0:0:0:0:
384,233,35557,1,0,0:0:0:0:
164,241,35736,5,8,0:0:0:0:
376,241,35914,1,0,0:0:0:0:
132,222,36093,5,0,0:0:0:0:
368,249,36271,1,0,0:0:0:0:
96,204,36450,5,8,0:0:0:0:
360,257,36629,1,0,0:0:0:0:
64,186,36807,6,0,L|-17:149,1,75.0000028610231,0|0,0:0|0:0,0:0:0:0:
123,127,37164,1,4,0:3:0:0:
156,130,37343,1,8,0:3:0:0:
189,131,37521,1,8,0:3:0:0:
222,134,37700,1,0,0:0:0:0:
252,136,37878,6,0,B|343:124|343:124|391:158,1,150.000005722046,4|2,0:3|0:2,0:0:0:0:
390,157,38414,1,0,0:0:0:0:
316,212,38593,2,0,P|249:227|169:200,1,150.000005722046,4|2,0:3|0:2,0:0:0:0:
63,77,39307,6,0,B|189:40|189:40|202:52,1,150.000005722046,4|2,0:3|0:2,0:0:0:0:
203,53,39843,1,0,0:0:0:0:
163,135,40021,2,0,P|152:191|236:253,1,150.000005722046,4|2,0:3|0:2,0:0:0:0:
462,197,40736,6,0,L|252:295,1,209.999993591309
462,197,41450,6,0,L|287:243,1,179.999994506836
462,197,42164,6,0,L|308:213,1,150
487,169,42879,6,0,L|418:165,1,37.5000014305115,0|0,0:0|0:0,1:3:0:0:
344,77,43057,2,0,L|275:72,1,37.5000014305115,0|0,0:0|0:0,1:3:0:0:
220,172,43236,2,0,L|151:167,1,37.5000014305115,0|0,0:0|0:0,1:3:0:0:
120,52,43414,2,0,L|51:47,1,37.5000014305115,0|0,0:0|0:0,1:3:0:0:
61,178,43593,6,0,P|74:259|114:291,1,100,4|0,0:0|0:0,0:0:0:0:
335,214,43950,2,0,P|322:133|282:101,1,100,8|0,0:0|0:0,0:0:0:0:
170,47,44307,1,0,0:0:0:0:
170,47,44486,1,0,0:0:0:0:
439,109,44664,1,8,0:0:0:0:
62,178,44843,1,0,0:0:0:0:
240,267,45021,5,0,0:0:0:0:
170,47,45200,1,0,0:0:0:0:
240,266,45379,1,8,0:0:0:0:
118,179,45557,2,0,P|180:145|228:155,1,100
370,174,45914,1,0,0:0:0:0:
79,68,46093,1,8,0:0:0:0:
274,71,46271,1,0,0:0:0:0:
65,179,46450,6,0,P|89:247|153:267,1,100,4|0,0:0|0:0,0:0:0:0:
308,170,46807,2,0,P|245:133|184:159,1,100,8|0,0:0|0:0,0:0:0:0:
65,179,47164,1,0,0:0:0:0:
397,80,47343,1,0,0:0:0:0:
208,92,47521,1,8,0:0:0:0:
370,254,47700,1,0,0:0:0:0:
208,92,47878,6,0,P|130:70|76:87,1,100,4|0,0:0|0:0,0:0:0:0:
190,279,48236,2,0,P|265:248|297:201,1,100,8|0,0:0|0:0,0:0:0:0:
280,100,48593,1,0,0:0:0:0:
280,100,48771,1,0,0:0:0:0:
72,140,48950,1,8,0:0:0:0:
388,223,49129,1,0,0:0:0:0:
402,228,49218,1,0,0:0:0:0:
416,232,49307,1,4,0:0:0:0:
403,95,49485,5,0,0:0:0:0:
362,91,49575,1,0,0:0:0:0:
322,88,49664,1,0,0:0:0:0:
370,311,49843,1,4,0:3:0:0:
348,56,50021,5,0,0:0:0:0:
309,72,50111,1,0,0:0:0:0:
273,90,50200,1,0,0:0:0:0:
370,311,50379,1,4,0:3:0:0:
280,55,50557,5,0,0:0:0:0:
247,81,50646,1,0,0:0:0:0:
217,106,50736,1,0,0:0:0:0:
370,311,50914,1,4,0:3:0:0:
212,67,51093,5,0,0:0:0:0:
187,100,51182,1,0,0:0:0:0:
164,133,51271,1,0,0:0:0:0:
370,311,51450,1,4,0:3:0:0:
228,285,51629,6,0,L|129:270,1,100
129,270,52164,5,4,0:0:0:0:
466,225,52343,1,0,0:0:0:0:
197,192,52521,2,0,L|99:175,1,100,8|0,0:0|0:0,0:0:0:0:
466,133,52879,1,0,0:0:0:0:
466,133,53057,1,0,0:0:0:0:
132,77,53236,1,8,0:0:0:0:
468,55,53414,1,0,0:0:0:0:
132,77,53771,5,0,0:0:0:0:
327,120,53950,2,0,P|308:196|251:212,1,100,8|0,0:0|0:0,0:0:0:0:
135,228,54307,1,0,0:0:0:0:
135,228,54486,1,0,0:0:0:0:
478,181,54664,1,0,0:0:0:0:
456,193,54753,1,0,0:0:0:0:
434,205,54843,1,0,0:0:0:0:
219,186,55021,5,0,0:0:0:0:
314,302,55200,1,0,0:0:0:0:
464,80,55378,1,8,0:0:0:0:
318,46,55557,5,0,0:0:0:0:
208,148,55736,1,0,0:0:0:0:
440,282,55914,1,0,0:0:0:0:
464,79,56093,1,0,0:0:0:0:
263,26,56271,2,0,P|254:110|277:157,1,100,0|0,0:0|0:0,0:0:0:0:
480,182,56629,2,0,P|432:252|385:273,1,100,0|8,0:0|0:0,0:0:0:0:
241,275,56986,5,0,0:0:0:0:
480,182,57164,1,0,0:0:0:0:
199,257,57343,1,0,0:0:0:0:
438,164,57521,1,8,0:0:0:0:
157,237,57700,1,0,0:0:0:0:
396,144,57879,6,0,L|296:105,1,100,4|0,0:0|0:0,0:0:0:0:
37,122,58236,2,0,L|149:167,1,100,8|0,0:0|0:0,0:0:0:0:
376,262,58593,1,0,0:0:0:0:
376,262,58771,1,0,0:0:0:0:
130,159,58950,2,0,L|24:210,1,100,8|0,0:0|0:0,0:0:0:0:
286,208,59307,2,0,L|379:161,1,100,4|0,0:0|0:0,0:0:0:0:
162,264,59664,5,8,0:0:0:0:
438,264,59843,1,0,0:0:0:0:
348,131,60021,1,0,0:0:0:0:
398,357,60200,1,0,0:0:0:0:
478,164,60379,1,8,0:0:0:0:
221,184,60557,1,0,0:0:0:0:
469,72,60736,6,0,P|429:118|356:125,1,100,4|0,0:0|0:0,0:0:0:0:
221,184,61093,2,0,P|198:249|235:312,1,100,8|0,0:0|0:0,0:0:0:0:
398,357,61450,1,0,0:0:0:0:
398,357,61629,1,0,0:0:0:0:
426,199,61807,1,8,0:0:0:0:
22,168,61986,6,0,L|128:143,1,100
390,69,62343,1,0,0:0:0:0:
126,233,62521,1,8,0:0:0:0:
306,319,62700,1,0,0:0:0:0:
335,292,62789,1,0,0:0:0:0:
364,265,62879,1,0,0:0:0:0:
193,204,63057,1,0,0:0:0:0:
234,188,63146,1,0,0:0:0:0:
275,172,63236,1,0,0:0:0:0:
125,71,63414,1,0,0:0:0:0:
174,64,63504,1,0,0:0:0:0:
223,57,63593,6,0,P|280:48|340:70,1,100
461,265,63950,2,0,P|412:275|363:264,1,100,8|0,0:0|0:0,0:0:0:0:
193,204,64307,1,0,0:0:0:0:
193,204,64486,1,0,0:0:0:0:
364,265,64664,1,8,0:0:0:0:
32,155,64843,6,0,L|125:111,1,100,4|0,0:0|0:0,0:0:0:0:
287,38,65200,1,0,0:0:0:0:
287,38,65379,1,8,0:0:0:0:
122,112,65557,1,0,0:0:0:0:
254,291,65736,1,0,0:0:0:0:
297,115,65914,1,0,0:0:0:0:
71,291,66093,1,8,0:0:0:0:
102,315,66271,1,0,0:0:0:0:
141,319,66450,6,0,P|214:291|232:249,1,100
325,168,66807,2,0,L|342:282,1,100,8|0,0:0|0:0,0:0:0:0:
308,46,67164,1,0,0:0:0:0:
308,46,67343,1,0,0:0:0:0:
416,190,67521,1,8,0:0:0:0:
59,174,67700,2,0,L|193:218,1,100
390,280,68057,1,0,0:0:0:0:
161,123,68236,1,8,0:0:0:0:
340,110,68414,6,0,L|403:92,2,50,0|0|0,0:0|0:0|0:0,0:0:0:0:
60,174,68771,1,0,0:0:0:0:
351,186,68950,1,8,0:0:0:0:
72,246,69129,1,0,0:0:0:0:
359,258,69307,2,0,P|408:234|421:177,1,100,4|0,0:0|0:0,0:0:0:0:
161,123,69664,5,8,0:0:0:0:
351,186,69843,1,0,0:0:0:0:
60,174,70021,1,0,0:0:0:0:
257,75,70200,1,0,0:0:0:0:
19,98,70379,1,8,0:0:0:0:
287,146,70557,2,0,B|346:160|346:160|285:211|326:297,1,200
321,286,71093,5,8,0:0:0:0:
407,236,71271,1,0,0:0:0:0:
212,220,71450,1,0,0:0:0:0:
488,146,71629,1,0,0:0:0:0:
325,319,71807,1,8,0:0:0:0:
273,99,71985,2,0,P|216:79|166:89,1,100
249,187,72343,6,0,P|239:252|204:286,2,100,8|0|0,0:0|0:0|0:0,0:0:0:0:
40,56,72879,1,0,0:0:0:0:
40,56,73057,1,0,0:0:0:0:
249,187,73236,1,8,0:0:0:0:
489,146,73414,2,0,L|382:98,1,100
249,190,73771,6,0,P|169:154|165:137,1,100,0|8,0:0|0:0,0:0:0:0:
202,106,74039,5,0,1:3:0:0:
255,92,74129,1,0,1:3:0:0:
308,109,74218,1,0,1:3:0:0:
343,151,74307,1,0,1:3:0:0:
350,206,74396,1,0,1:3:0:0:
326,255,74486,1,0,1:3:0:0:
279,284,74575,1,0,1:3:0:0:
224,283,74664,1,0,1:3:0:0:
178,252,74754,1,0,1:3:0:0:
156,202,74843,6,0,L|101:83,1,100,0|4,0:0|0:0,0:0:0:0:
343,151,75200,2,0,L|393:270,1,100,0|8,0:0|0:0,0:0:0:0:
382,243,75557,1,0,0:0:0:0:
114,111,75736,1,0,0:0:0:0:
343,151,75914,1,0,0:0:0:0:
156,203,76093,1,8,0:0:0:0:
509,93,76271,6,0,L|393:78,1,100
152,57,76629,1,0,0:0:0:0:
472,163,76807,1,8,0:0:0:0:
303,143,76986,1,0,0:0:0:0:
152,57,77164,2,0,P|116:124|125:163,1,100
34,299,77521,2,0,P|99:337|138:329,1,100,8|0,0:0|0:0,0:0:0:0:
453,264,77879,6,0,L|285:234,1,170.000003242493,4|0,0:0|0:0,0:0:0:0:
286,234,78235,5,8,0:0:0:0:
284,234,78414,2,0,P|349:199|364:128,1,150.000005722046
365,128,78771,5,0,0:0:0:0:
365,128,78950,2,0,L|225:109,1,100,12|0,0:0|0:0,0:0:0:0:
31,83,79486,5,0,0:0:0:0:
31,83,79664,1,8,0:0:0:0:
241,173,79843,1,0,0:0:0:0:
111,297,80021,1,0,0:0:0:0:
354,167,80200,1,0,0:0:0:0:
128,179,80379,1,8,0:0:0:0:
422,272,80557,1,0,0:0:0:0:
292,55,80736,6,0,P|246:89|226:127,1,100,4|0,0:0|0:0,0:0:0:0:
212,309,81093,2,0,P|261:307|302:279,1,100,8|0,0:0|0:0,0:0:0:0:
128,179,81450,2,0,L|31:203,1,100
184,104,81807,5,8,0:0:0:0:
422,272,81986,2,0,P|397:211|330:182,1,100
422,272,82343,2,0,P|434:207|393:146,1,100,0|8,0:0|0:0,0:0:0:0:
422,272,82700,2,0,P|478:219|457:92,1,200
303,59,83236,5,8,0:0:0:0:
248,50,83325,1,0,0:0:0:0:
195,64,83414,1,0,0:0:0:0:
153,99,83504,1,0,0:0:0:0:
136,151,83593,2,0,L|149:272,1,100,4|0,0:0|0:0,0:0:0:0:
422,272,83950,6,0,L|311:203,1,100,8|0,0:0|0:0,0:0:0:0:
153,99,84307,1,0,0:0:0:0:
153,99,84486,1,0,0:0:0:0:
479,249,84664,2,0,L|379:186,1,100,8|0,0:0|0:0,0:0:0:0:
204,85,85021,1,0,0:0:0:0:
254,345,85379,5,8,0:0:0:0:
324,196,85557,2,0,L|357:132,2,50,0|0|0,0:0|0:0|0:0,0:0:0:0:
159,269,85914,1,0,0:0:0:0:
487,118,86093,1,12,0:0:0:0:
243,77,86271,1,0,0:0:0:0:
268,225,86450,5,8,0:0:0:0:
243,77,86629,1,0,0:0:0:0:
305,260,86807,1,8,0:0:0:0:
243,77,86986,1,0,0:0:0:0:
339,296,87164,2,0,L|358:167,1,100,8|0,0:0|0:0,0:0:0:0:
379,18,87521,5,8,0:0:0:0:
110,126,87700,1,0,0:0:0:0:
379,18,87879,5,0,0:0:0:0:
325,102,88057,1,0,0:0:0:0:
425,100,88236,1,8,0:0:0:0:
267,28,88414,1,0,0:0:0:0:
382,188,88593,2,0,L|441:276,1,100,0|0,0:0|2:0,0:0:0:0:
217,256,88950,6,0,L|107:245,1,100,0|0,0:0|2:0,0:0:0:0:
