osu file format v14

[General]
AudioFilename: rashisa.mp3
AudioLeadIn: 0
PreviewTime: 51450
Countdown: 1
SampleSet: None
StackLeniency: 0.7
Mode: 1
LetterboxInBreaks: 1
WidescreenStoryboard: 0

[Editor]
DistanceSpacing: 0.8
BeatDivisor: 4
GridSize: 32
TimelineZoom: 2

[Metadata]
Title:Rashisa
TitleUnicode:Rashisa
Artist:SUPER BEAVER
ArtistUnicode:SUPER BEAVER
Creator:-[ ix Ishida xi ]-
Version:Oni
Source:Barakamon
Tags:
BeatmapID:638897
BeatmapSetID:282537

[Difficulty]
HPDrainRate:5
CircleSize:5
OverallDifficulty:5
ApproachRate:5
SliderMultiplier:1.4
SliderTickRate:1

[Events]
//Background and Video events
0,0,"Konachan.com - 185461 clouds gintama grass mori_(m_p_m) nobody scenic sky sunset.jpg",0,0
//Break Periods
//Storyboard Layer 0 (Background)
//Storyboard Layer 1 (Fail)
//Storyboard Layer 2 (Pass)
//Storyboard Layer 3 (Foreground)
//Storyboard Sound Samples

[TimingPoints]
-692,357.142857142857,4,1,0,70,1,0
736,-100,4,1,0,70,0,1
3593,-100,4,1,0,70,0,0
4843,-100,4,1,0,70,0,1
6450,-100,4,1,0,70,0,0
52145,-83.3333333333333,4,1,0,70,0,1
89218,-83.3333333333333,4,1,0,70,0,0

[HitObjects]
448,192,379,5,0,0:0:0:0:
384,160,736,1,6,0:0:0:0:
416,160,1986,1,6,0:0:0:0:
320,128,2343,1,0,0:0:0:0:
448,224,2522,1,2,0:0:0:0:
448,160,2700,1,2,0:0:0:0:
416,160,2790,1,2,0:0:0:0:
416,160,2879,1,0,0:0:0:0:
384,192,3057,1,0,0:0:0:0:
352,256,3236,1,0,0:0:0:0:
384,224,3415,1,0,0:0:0:0:
352,160,3593,1,6,0:0:0:0:
448,128,4665,1,2,0:0:0:0:
480,160,4843,1,6,0:0:0:0:
512,128,5022,1,0,0:0:0:0:
448,128,5200,1,2,0:0:0:0:
416,160,5379,1,0,0:0:0:0:
384,160,5468,1,0,0:0:0:0:
416,128,5557,1,0,0:0:0:0:
448,192,5736,1,6,0:0:0:0:
384,160,5915,1,0,0:0:0:0:
448,256,6272,1,0,0:0:0:0:
480,224,6450,1,6,0:0:0:0:
448,192,6629,1,0,0:0:0:0:
448,128,6807,1,2,0:0:0:0:
416,128,6986,1,0,0:0:0:0:
448,128,7165,1,2,0:0:0:0:
448,128,7343,1,0,0:0:0:0:
448,192,7522,1,2,0:0:0:0:
448,160,7611,1,2,0:0:0:0:
448,128,7700,1,0,0:0:0:0:
480,160,7879,1,2,0:0:0:0:
448,160,8057,1,0,0:0:0:0:
416,160,8147,1,0,0:0:0:0:
480,128,8236,1,2,0:0:0:0:
448,160,8415,1,0,0:0:0:0:
480,128,8682,1,2,0:0:0:0:
448,160,8772,1,0,0:0:0:0:
448,192,8861,1,0,0:0:0:0:
448,160,8950,1,2,0:0:0:0:
480,160,9040,1,2,0:0:0:0:
480,128,9129,1,0,0:0:0:0:
416,128,9307,1,2,0:0:0:0:
448,160,9486,1,0,0:0:0:0:
480,128,9665,1,2,0:0:0:0:
416,128,9843,1,0,0:0:0:0:
416,160,9932,1,0,0:0:0:0:
448,160,10022,1,2,0:0:0:0:
480,160,10200,1,0,0:0:0:0:
448,128,10379,1,2,0:0:0:0:
416,160,10557,1,2,0:0:0:0:
480,64,10915,1,0,0:0:0:0:
448,160,11093,1,2,0:0:0:0:
448,160,11182,1,2,0:0:0:0:
480,128,11272,1,0,0:0:0:0:
416,160,11450,1,0,0:0:0:0:
384,128,11629,1,0,0:0:0:0:
416,160,11807,1,0,0:0:0:0:
384,192,11986,1,0,0:0:0:0:
384,192,12075,1,0,0:0:0:0:
416,192,12165,1,2,0:0:0:0:
480,128,12343,1,2,0:0:0:0:
480,128,12522,1,0,0:0:0:0:
416,192,12790,1,0,0:0:0:0:
384,160,12879,1,2,0:0:0:0:
448,160,13057,1,2,0:0:0:0:
480,128,13236,1,0,0:0:0:0:
448,160,13415,1,2,0:0:0:0:
416,192,13593,1,2,0:0:0:0:
384,128,13772,1,0,0:0:0:0:
416,160,13861,1,0,0:0:0:0:
448,160,13950,1,2,0:0:0:0:
416,160,14129,1,2,0:0:0:0:
384,192,14218,1,2,0:0:0:0:
512,128,14307,1,0,0:0:0:0:
480,128,14397,1,2,0:0:0:0:
448,128,14486,1,0,0:0:0:0:
448,192,14665,1,6,0:0:0:0:
416,192,14843,1,0,0:0:0:0:
416,160,14932,1,0,0:0:0:0:
416,160,15022,1,2,0:0:0:0:
480,160,15200,1,0,0:0:0:0:
448,192,15379,1,6,0:0:0:0:
480,128,15557,1,0,0:0:0:0:
480,128,15647,1,2,0:0:0:0:
480,128,15736,1,0,0:0:0:0:
416,192,15825,1,0,0:0:0:0:
416,192,15915,1,0,0:0:0:0:
480,128,16093,1,0,0:0:0:0:
416,192,16272,1,2,0:0:0:0:
448,160,16450,1,0,0:0:0:0:
416,192,16629,1,0,0:0:0:0:
352,160,16807,1,2,0:0:0:0:
416,160,16986,1,0,0:0:0:0:
448,160,17075,1,2,0:0:0:0:
480,128,17165,1,0,0:0:0:0:
480,128,17343,1,2,0:0:0:0:
416,128,17522,1,2,0:0:0:0:
416,128,17611,1,2,0:0:0:0:
448,128,17700,1,0,0:0:0:0:
416,128,17790,1,0,0:0:0:0:
416,192,17879,1,2,0:0:0:0:
416,192,18057,1,0,0:0:0:0:
448,128,18236,1,2,0:0:0:0:
480,128,18415,1,0,0:0:0:0:
448,128,18504,1,2,0:0:0:0:
416,160,18593,1,0,0:0:0:0:
352,192,18772,1,0,0:0:0:0:
416,192,18950,1,0,0:0:0:0:
448,128,19129,1,2,0:0:0:0:
416,160,19307,1,0,0:0:0:0:
480,128,19486,1,0,0:0:0:0:
416,160,19665,1,2,0:0:0:0:
416,224,19843,1,0,0:0:0:0:
320,160,19932,1,2,0:0:0:0:
416,160,20022,1,0,0:0:0:0:
448,192,20200,1,0,0:0:0:0:
448,128,20379,1,2,0:0:0:0:
448,160,20468,1,2,0:0:0:0:
416,160,20557,1,0,0:0:0:0:
384,224,20736,1,2,0:0:0:0:
416,192,20915,1,0,0:0:0:0:
448,160,21093,1,2,0:0:0:0:
512,160,21272,1,0,0:0:0:0:
448,160,21361,1,2,0:0:0:0:
416,160,21450,1,0,0:0:0:0:
384,192,21629,1,0,0:0:0:0:
384,192,21807,1,0,0:0:0:0:
448,160,21986,1,2,0:0:0:0:
448,160,22165,1,0,0:0:0:0:
416,160,22343,1,0,0:0:0:0:
448,160,22522,1,2,0:0:0:0:
384,192,22700,1,2,0:0:0:0:
416,192,22790,1,2,0:0:0:0:
416,160,22879,1,0,0:0:0:0:
416,192,23057,1,0,0:0:0:0:
416,192,23147,1,0,0:0:0:0:
448,160,23236,1,2,0:0:0:0:
480,128,23325,1,2,0:0:0:0:
448,160,23415,1,0,0:0:0:0:
448,224,23593,1,6,0:0:0:0:
448,160,23772,1,0,0:0:0:0:
416,128,23861,1,0,0:0:0:0:
480,128,23950,1,2,0:0:0:0:
512,128,24129,1,0,0:0:0:0:
480,128,24218,1,2,0:0:0:0:
448,128,24307,1,0,0:0:0:0:
416,192,24486,1,0,0:0:0:0:
448,128,24665,1,2,0:0:0:0:
448,128,24843,1,0,0:0:0:0:
416,160,24932,1,0,0:0:0:0:
384,160,25022,1,0,0:0:0:0:
448,160,25200,1,2,0:0:0:0:
416,128,25379,1,2,0:0:0:0:
416,160,25468,1,2,0:0:0:0:
448,160,25557,1,0,0:0:0:0:
448,160,25647,1,0,0:0:0:0:
448,160,25736,1,2,0:0:0:0:
416,224,25915,1,2,0:0:0:0:
448,160,26093,1,0,0:0:0:0:
416,192,26272,1,0,0:0:0:0:
416,192,26361,1,0,0:0:0:0:
448,192,26450,1,4,0:0:0:0:
352,224,26807,1,0,0:0:0:0:
384,192,26986,1,0,0:0:0:0:
416,256,27165,1,6,0:0:0:0:
384,160,27522,1,2,0:0:0:0:
352,192,27700,1,2,0:0:0:0:
384,160,27790,1,2,0:0:0:0:
416,160,27879,1,4,0:0:0:0:
448,160,28057,1,2,0:0:0:0:
384,160,28236,1,0,0:0:0:0:
384,192,28325,1,0,0:0:0:0:
384,192,28415,1,0,0:0:0:0:
416,192,28593,1,6,0:0:0:0:
416,128,28772,1,0,0:0:0:0:
416,160,28950,1,0,0:0:0:0:
416,160,29218,1,0,0:0:0:0:
448,160,29307,1,2,0:0:0:0:
480,128,29486,1,0,0:0:0:0:
480,160,29665,1,2,0:0:0:0:
416,160,29843,1,0,0:0:0:0:
416,160,29932,1,0,0:0:0:0:
416,192,30022,1,6,0:0:0:0:
416,192,30200,1,0,0:0:0:0:
448,160,30379,1,2,0:0:0:0:
416,192,30557,1,4,0:0:0:0:
480,192,30736,1,0,0:0:0:0:
416,224,30915,1,6,0:0:0:0:
416,192,31093,1,0,0:0:0:0:
384,160,31182,1,0,0:0:0:0:
384,192,31272,1,0,0:0:0:0:
480,192,31450,1,6,0:0:0:0:
416,192,31629,1,0,0:0:0:0:
512,128,31807,1,2,0:0:0:0:
448,160,32075,1,0,0:0:0:0:
416,192,32165,1,2,0:0:0:0:
480,192,32343,1,0,0:0:0:0:
448,224,32522,1,2,0:0:0:0:
448,160,32700,1,0,0:0:0:0:
416,160,32790,1,0,0:0:0:0:
416,192,32879,1,6,0:0:0:0:
448,160,33057,1,0,0:0:0:0:
416,160,33236,1,2,0:0:0:0:
448,160,33415,1,0,0:0:0:0:
416,160,33504,1,0,0:0:0:0:
384,160,33593,1,0,0:0:0:0:
448,160,33772,1,6,0:0:0:0:
416,192,33950,1,0,0:0:0:0:
416,192,34129,1,0,0:0:0:0:
416,192,34218,1,0,0:0:0:0:
416,192,34307,1,6,0:0:0:0:
480,160,34486,1,2,0:0:0:0:
480,96,34665,1,0,0:0:0:0:
448,160,34843,1,0,0:0:0:0:
416,192,34903,1,0,0:0:0:0:
416,192,34962,1,0,0:0:0:0:
416,192,35022,1,2,0:0:0:0:
448,160,35200,1,0,0:0:0:0:
480,160,35379,1,2,0:0:0:0:
416,192,35557,1,0,0:0:0:0:
384,192,35647,1,0,0:0:0:0:
448,160,35736,1,6,0:0:0:0:
480,96,35915,1,2,0:0:0:0:
448,160,36004,1,0,0:0:0:0:
416,160,36093,1,2,0:0:0:0:
416,160,36182,1,2,0:0:0:0:
448,160,36272,1,0,0:0:0:0:
416,160,36450,1,2,0:0:0:0:
480,128,36629,1,0,0:0:0:0:
448,160,36807,1,2,0:0:0:0:
480,64,37075,1,2,0:0:0:0:
448,128,37165,1,0,0:0:0:0:
416,160,37343,1,2,0:0:0:0:
384,192,37432,1,2,0:0:0:0:
416,160,37522,1,0,0:0:0:0:
384,192,37641,1,0,0:0:0:0:
384,192,37760,1,0,0:0:0:0:
384,160,37879,1,4,0:0:0:0:
480,192,38415,1,0,0:0:0:0:
416,224,38593,1,6,0:0:0:0:
480,128,38950,1,0,0:0:0:0:
416,160,39129,1,2,0:0:0:0:
480,128,39307,1,0,0:0:0:0:
448,160,39486,1,2,0:0:0:0:
416,160,39665,1,0,0:0:0:0:
384,160,39754,1,0,0:0:0:0:
416,160,39843,1,0,0:0:0:0:
448,160,40022,1,6,0:0:0:0:
480,128,40200,1,2,0:0:0:0:
448,160,40379,1,0,0:0:0:0:
448,160,40736,1,6,0:0:0:0:
352,192,41093,1,0,0:0:0:0:
416,160,41212,1,0,0:0:0:0:
384,192,41331,1,0,0:0:0:0:
416,192,41450,1,6,0:0:0:0:
448,96,41807,1,2,0:0:0:0:
416,160,41927,1,2,0:0:0:0:
448,128,42046,1,0,0:0:0:0:
416,192,42165,1,6,0:0:0:0:
352,192,42343,1,0,0:0:0:0:
416,192,42522,1,2,0:0:0:0:
416,160,42641,1,0,0:0:0:0:
384,128,42760,1,0,0:0:0:0:
416,160,42879,1,6,0:0:0:0:
448,160,42998,1,2,0:0:0:0:
448,160,43117,1,0,0:0:0:0:
448,192,43236,1,2,0:0:0:0:
480,160,43355,1,0,0:0:0:0:
448,160,43474,1,0,0:0:0:0:
416,192,43593,1,4,0:0:0:0:
448,192,43772,1,0,0:0:0:0:
448,192,43861,1,0,0:0:0:0:
448,160,43950,1,2,0:0:0:0:
512,128,44129,1,0,0:0:0:0:
480,96,44218,1,2,0:0:0:0:
480,128,44307,1,0,0:0:0:0:
448,160,44397,1,0,0:0:0:0:
416,160,44486,1,0,0:0:0:0:
480,128,44665,1,2,0:0:0:0:
448,160,44843,1,0,0:0:0:0:
416,160,44932,1,0,0:0:0:0:
416,160,45022,1,0,0:0:0:0:
448,224,45200,1,0,0:0:0:0:
448,160,45379,1,2,0:0:0:0:
512,128,45557,1,0,0:0:0:0:
448,160,45647,1,2,0:0:0:0:
416,160,45736,1,2,0:0:0:0:
416,160,45825,1,2,0:0:0:0:
448,128,45915,1,0,0:0:0:0:
480,128,46093,1,0,0:0:0:0:
448,160,46272,1,6,0:0:0:0:
384,192,46450,1,0,0:0:0:0:
384,192,46629,1,0,0:0:0:0:
416,128,46807,1,2,0:0:0:0:
480,128,46986,1,0,0:0:0:0:
448,128,47075,1,2,0:0:0:0:
448,128,47165,1,0,0:0:0:0:
416,160,47343,1,0,0:0:0:0:
416,160,47522,1,2,0:0:0:0:
480,160,47700,1,0,0:0:0:0:
384,160,48057,1,0,0:0:0:0:
352,160,48147,1,0,0:0:0:0:
416,160,48236,1,2,0:0:0:0:
448,160,48355,1,2,0:0:0:0:
416,192,48474,1,2,0:0:0:0:
416,160,48593,1,0,0:0:0:0:
384,160,48653,1,0,0:0:0:0:
384,160,48712,1,0,0:0:0:0:
384,192,48831,1,0,0:0:0:0:
448,160,48950,1,6,0:0:0:0:
448,128,49069,1,0,0:0:0:0:
416,160,49188,1,0,0:0:0:0:
448,160,49307,1,4,0:0:0:0:
416,192,49397,1,0,0:0:0:0:
416,160,49486,1,2,0:0:0:0:
416,128,49575,1,2,0:0:0:0:
416,128,49665,1,2,0:0:0:0:
480,160,49843,1,4,0:0:0:0:
512,160,49932,1,0,0:0:0:0:
480,160,50022,1,2,0:0:0:0:
416,160,50111,1,2,0:0:0:0:
416,160,50200,1,2,0:0:0:0:
480,160,50379,1,4,0:0:0:0:
448,160,50468,1,0,0:0:0:0:
416,160,50557,1,2,0:0:0:0:
384,160,50647,1,2,0:0:0:0:
384,160,50736,1,2,0:0:0:0:
416,192,50915,1,4,0:0:0:0:
416,128,51093,1,2,0:0:0:0:
416,160,51182,1,2,0:0:0:0:
448,160,51272,1,0,0:0:0:0:
480,192,51450,1,6,0:0:0:0:
480,160,51540,1,0,0:0:0:0:
512,96,51629,1,2,0:0:0:0:
384,224,52165,1,6,0:0:0:0:
416,128,52343,1,0,0:0:0:0:
416,160,52522,1,2,0:0:0:0:
480,160,52700,1,0,0:0:0:0:
448,128,52790,1,2,0:0:0:0:
448,160,52879,1,0,0:0:0:0:
384,192,53057,1,0,0:0:0:0:
480,160,53236,1,2,0:0:0:0:
448,160,53415,1,0,0:0:0:0:
416,128,53772,1,0,0:0:0:0:
416,160,53950,1,2,0:0:0:0:
384,256,54218,1,2,0:0:0:0:
416,224,54307,1,0,0:0:0:0:
448,192,54397,1,2,0:0:0:0:
416,192,54486,1,0,0:0:0:0:
416,160,54665,1,2,0:0:0:0:
352,288,55022,1,0,0:0:0:0:
352,160,55379,1,2,0:0:0:0:
416,128,55557,1,2,0:0:0:0:
448,128,55647,1,0,0:0:0:0:
416,160,55736,1,0,0:0:0:0:
448,128,55915,1,0,0:0:0:0:
416,160,56093,1,0,0:0:0:0:
480,160,56272,1,6,0:0:0:0:
416,128,56450,1,0,0:0:0:0:
416,160,56629,1,0,0:0:0:0:
416,224,56807,1,6,0:0:0:0:
352,224,56986,1,0,0:0:0:0:
320,224,57075,1,0,0:0:0:0:
320,224,57165,1,0,0:0:0:0:
384,224,57343,1,0,0:0:0:0:
448,192,57522,1,2,0:0:0:0:
448,160,57879,1,0,0:0:0:0:
416,96,58057,1,0,0:0:0:0:
416,160,58236,1,2,0:0:0:0:
448,160,58415,1,0,0:0:0:0:
448,160,58504,1,2,0:0:0:0:
448,160,58593,1,0,0:0:0:0:
416,224,58772,1,0,0:0:0:0:
448,160,58950,1,2,0:0:0:0:
448,160,59218,1,0,0:0:0:0:
384,160,59307,1,0,0:0:0:0:
448,160,59486,1,0,0:0:0:0:
416,160,59665,1,2,0:0:0:0:
416,96,59843,1,0,0:0:0:0:
384,160,59932,1,0,0:0:0:0:
320,192,60111,1,0,0:0:0:0:
288,192,60200,1,0,0:0:0:0:
352,192,60379,1,2,0:0:0:0:
384,160,60468,1,0,0:0:0:0:
384,192,60557,1,0,0:0:0:0:
448,160,60736,1,2,0:0:0:0:
480,96,60915,1,0,0:0:0:0:
416,160,61093,1,6,0:0:0:0:
448,160,61272,1,0,0:0:0:0:
480,128,61361,1,2,0:0:0:0:
448,128,61450,1,4,0:0:0:0:
448,160,61629,1,0,0:0:0:0:
480,128,61807,1,2,0:0:0:0:
448,192,61986,1,6,0:0:0:0:
448,160,62165,1,0,0:0:0:0:
448,160,62343,1,2,0:0:0:0:
448,128,62522,1,6,0:0:0:0:
416,160,62611,1,2,0:0:0:0:
416,160,62700,1,0,0:0:0:0:
448,160,62790,1,0,0:0:0:0:
448,192,62879,1,6,0:0:0:0:
448,160,62968,1,2,0:0:0:0:
480,128,63057,1,0,0:0:0:0:
448,128,63147,1,2,0:0:0:0:
480,160,63236,1,6,0:0:0:0:
448,192,63325,1,2,0:0:0:0:
416,160,63415,1,0,0:0:0:0:
448,160,63504,1,0,0:0:0:0:
480,160,63593,1,4,0:0:0:0:
480,160,63772,1,0,0:0:0:0:
448,128,63861,1,0,0:0:0:0:
448,160,63950,1,2,0:0:0:0:
448,160,64129,1,0,0:0:0:0:
480,128,64218,1,2,0:0:0:0:
448,160,64397,1,2,0:0:0:0:
480,128,64486,1,0,0:0:0:0:
448,160,64665,1,2,0:0:0:0:
480,128,64843,1,0,0:0:0:0:
448,160,64932,1,2,0:0:0:0:
416,192,65022,1,4,0:0:0:0:
480,160,65200,1,0,0:0:0:0:
448,224,65379,1,0,0:0:0:0:
480,128,65557,1,0,0:0:0:0:
448,128,65647,1,2,0:0:0:0:
448,160,65736,1,2,0:0:0:0:
448,160,65825,1,2,0:0:0:0:
448,160,65915,1,0,0:0:0:0:
448,160,66093,1,0,0:0:0:0:
416,96,66272,1,4,0:0:0:0:
416,128,66361,1,0,0:0:0:0:
416,160,66450,1,0,0:0:0:0:
480,192,66629,1,0,0:0:0:0:
480,128,66807,1,2,0:0:0:0:
448,192,66986,1,6,0:0:0:0:
448,192,67165,1,2,0:0:0:0:
448,160,67254,1,2,0:0:0:0:
480,192,67343,1,0,0:0:0:0:
448,192,67522,1,0,0:0:0:0:
448,192,67700,1,6,0:0:0:0:
320,192,68057,1,0,0:0:0:0:
384,160,68236,1,2,0:0:0:0:
448,128,68415,1,2,0:0:0:0:
384,160,68504,1,2,0:0:0:0:
416,192,68593,1,0,0:0:0:0:
480,160,68772,1,0,0:0:0:0:
416,192,68861,1,0,0:0:0:0:
448,160,68950,1,2,0:0:0:0:
480,128,69040,1,2,0:0:0:0:
448,160,69129,1,0,0:0:0:0:
416,224,69486,1,0,0:0:0:0:
448,160,69665,1,2,0:0:0:0:
384,128,69843,1,2,0:0:0:0:
416,160,69932,1,2,0:0:0:0:
480,128,70022,1,0,0:0:0:0:
416,192,70200,1,0,0:0:0:0:
448,160,70379,1,2,0:0:0:0:
416,192,70557,1,0,0:0:0:0:
416,192,70915,1,0,0:0:0:0:
448,160,71093,1,2,0:0:0:0:
384,160,71272,1,0,0:0:0:0:
416,160,71361,1,2,0:0:0:0:
416,128,71450,1,2,0:0:0:0:
384,160,71540,1,2,0:0:0:0:
416,160,71629,1,0,0:0:0:0:
352,160,71807,1,0,0:0:0:0:
416,192,71986,1,6,0:0:0:0:
448,128,72165,1,0,0:0:0:0:
448,128,72343,1,2,0:0:0:0:
480,192,72522,1,6,0:0:0:0:
480,128,72700,1,0,0:0:0:0:
448,128,72790,1,0,0:0:0:0:
416,160,72879,1,0,0:0:0:0:
416,160,73057,1,0,0:0:0:0:
480,128,73236,1,2,0:0:0:0:
416,192,73415,1,4,0:0:0:0:
448,160,73772,1,0,0:0:0:0:
480,192,73950,1,6,0:0:0:0:
448,160,74129,1,2,0:0:0:0:
416,128,74218,1,2,0:0:0:0:
416,160,74307,1,2,0:0:0:0:
416,160,74397,1,2,0:0:0:0:
448,160,74486,1,0,0:0:0:0:
448,160,74575,1,2,0:0:0:0:
416,128,74665,1,2,0:0:0:0:
416,160,74754,1,2,0:0:0:0:
448,128,74843,1,0,0:0:0:0:
448,128,74932,1,0,0:0:0:0:
480,160,75022,1,4,0:0:0:0:
352,224,75379,1,2,0:0:0:0:
416,192,75557,1,0,0:0:0:0:
448,128,75647,1,2,0:0:0:0:
416,160,75736,1,2,0:0:0:0:
416,160,75915,1,2,0:0:0:0:
448,128,76093,1,0,0:0:0:0:
448,128,76272,1,2,0:0:0:0:
480,128,76629,1,0,0:0:0:0:
416,160,76807,1,2,0:0:0:0:
448,96,76986,1,0,0:0:0:0:
416,160,77075,1,0,0:0:0:0:
480,128,77165,1,2,0:0:0:0:
480,128,77254,1,2,0:0:0:0:
448,160,77343,1,0,0:0:0:0:
384,192,77522,1,2,0:0:0:0:
480,128,77700,1,0,0:0:0:0:
448,192,77879,1,6,0:0:0:0:
448,160,78057,1,0,0:0:0:0:
416,160,78147,1,0,0:0:0:0:
448,160,78236,1,2,0:0:0:0:
448,160,78415,1,0,0:0:0:0:
448,160,78504,1,2,0:0:0:0:
416,128,78593,1,0,0:0:0:0:
416,192,78772,1,0,0:0:0:0:
384,224,78950,1,2,0:0:0:0:
448,192,79129,1,4,0:0:0:0:
480,128,79486,1,0,0:0:0:0:
448,192,79665,1,6,0:0:0:0:
448,160,79843,1,0,0:0:0:0:
448,160,79932,1,0,0:0:0:0:
448,160,80022,1,2,0:0:0:0:
480,128,80200,1,0,0:0:0:0:
448,160,80379,1,2,0:0:0:0:
384,192,80557,1,2,0:0:0:0:
416,256,80736,1,4,0:0:0:0:
448,192,80915,1,0,0:0:0:0:
480,128,81093,1,6,0:0:0:0:
480,128,81272,1,0,0:0:0:0:
480,160,81361,1,2,0:0:0:0:
448,192,81450,1,4,0:0:0:0:
480,160,81629,1,0,0:0:0:0:
416,192,81807,1,0,0:0:0:0:
448,192,81986,1,6,0:0:0:0:
512,160,82165,1,2,0:0:0:0:
480,192,82254,1,2,0:0:0:0:
480,160,82343,1,0,0:0:0:0:
480,160,82522,1,2,0:0:0:0:
448,192,82700,1,0,0:0:0:0:
384,224,82879,1,2,0:0:0:0:
416,160,83057,1,0,0:0:0:0:
416,192,83147,1,0,0:0:0:0:
416,192,83236,1,2,0:0:0:0:
416,192,83325,1,2,0:0:0:0:
416,192,83415,1,0,0:0:0:0:
480,160,83593,1,6,0:0:0:0:
416,160,83772,1,0,0:0:0:0:
480,128,83950,1,2,0:0:0:0:
416,160,84129,1,0,0:0:0:0:
448,160,84218,1,2,0:0:0:0:
448,160,84307,1,0,0:0:0:0:
384,192,84486,1,0,0:0:0:0:
480,128,84665,1,2,0:0:0:0:
448,160,84843,1,0,0:0:0:0:
320,192,85200,1,0,0:0:0:0:
448,160,85379,1,2,0:0:0:0:
416,160,85557,1,0,0:0:0:0:
416,160,85647,1,0,0:0:0:0:
448,160,85736,1,2,0:0:0:0:
448,128,85825,1,2,0:0:0:0:
448,160,85915,1,0,0:0:0:0:
448,128,86093,1,2,0:0:0:0:
448,160,86182,1,2,0:0:0:0:
480,128,86272,1,0,0:0:0:0:
448,192,86450,1,6,0:0:0:0:
384,192,86629,1,2,0:0:0:0:
416,192,86718,1,2,0:0:0:0:
416,192,86807,1,2,0:0:0:0:
416,192,86986,1,2,0:0:0:0:
416,224,87075,1,2,0:0:0:0:
384,256,87165,1,2,0:0:0:0:
384,256,87343,1,2,0:0:0:0:
384,256,87432,1,2,0:0:0:0:
384,256,87522,1,2,0:0:0:0:
384,256,87700,1,2,0:0:0:0:
416,224,87790,1,0,0:0:0:0:
384,256,87879,1,2,0:0:0:0:
416,192,88057,1,0,0:0:0:0:
416,160,88147,1,0,0:0:0:0:
448,160,88236,1,2,0:0:0:0:
384,192,88415,1,2,0:0:0:0:
352,160,88504,1,0,0:0:0:0:
480,160,88593,1,6,0:0:0:0:
416,192,88712,1,0,0:0:0:0:
416,192,88831,1,0,0:0:0:0:
384,192,88950,1,0,0:0:0:0:
480,160,89129,1,4,0:0:0:0:
