osu file format v5

[General]
AudioFilename: SUN & LUNAR-Matsuri no Uta.mp3
AudioLeadIn: 0
PreviewTime: -1
Countdown: 1
SampleSet: Normal
StackLeniency: 0.7
Mode: 0
LetterboxInBreaks: 1
EditorBookmarks: 33461,106961

[Metadata]
Title:Matsuri no Uta(NON STOP!!!)
Artist:SUN & LUNAR
Creator:kioukiou
Version:Normal
Source:
Tags:

[Difficulty]
HPDrainRate:4
CircleSize:4
OverallDifficulty:4
SliderMultiplier:1.4
SliderTickRate:2

[Events]
//Background and Video events
0,0,"NON STOP!!!.jpg"
//Break Periods
2,94701,105770
//Storyboard Layer 0 (Background)
//Storyboard Layer 1 (Failing)
//Storyboard Layer 2 (Passing)
//Storyboard Layer 3 (Foreground)
//Storyboard Sound Samples
//Background Colour Transformations
3,100,163,162,255

[TimingPoints]
7961,375,4,1,0,100,1

[HitObjects]
112,88,33461,1,0
240,88,33836,1,0
168,192,34211,1,0
168,320,34586,2,2,C|320:328|304:176,2,280
88,224,36461,5,0
192,152,36836,1,0
296,80,37211,1,0
416,32,37586,2,2,C|416:264|328:192,1,350
208,200,38898,1,0
80,64,39461,5,0
80,64,39648,2,0,C|24:152|96:216|184:200,1,280
328,304,40961,6,0,C|416:344|464:288,3,140
440,192,42461,1,0
440,64,42836,1,2
312,64,43211,1,0
184,64,43586,1,2
72,312,45461,5,0
200,312,45836,1,0
136,200,46211,2,2,C|136:56,2,140
264,200,47336,2,2,B|360:160|264:72,2,140
136,200,48461,5,0
264,200,48836,1,0
392,200,49211,2,0,C|480:200|408:88,1,210
288,104,50148,2,8,C|120:104,2,140
120,192,51461,5,0
128,320,51836,1,0
256,320,52211,1,0
256,192,52586,1,0
184,88,52961,2,2,B|256:32|328:96,3,140
256,192,54461,12,4,55586
432,64,57461,5,0
304,64,57836,2,2,B|160:64|176:152|288:176,1,210
384,184,58773,1,0
472,272,59148,2,2,B|488:360|424:368|248:280,1,280
136,136,60461,5,0
264,136,60836,1,0
264,264,61211,1,0
136,264,61586,1,0
264,264,61961,2,2,C|376:264|344:168,1,210
264,80,62898,1,0
72,80,63461,5,0
72,208,63836,1,8
200,208,64211,1,8
344,88,64773,1,0
472,88,65148,1,0
392,184,65523,1,8
392,184,65711,1,8
144,216,66461,6,0,C|32:216|88:104,3,210,0|0|0|2
200,128,68523,1,2
328,128,68898,1,2
456,136,69273,2,2,C|408:192,1,70
256,192,70023,12,4,71336
88,72,71898,5,0
216,72,72273,1,0
152,184,72648,2,2,C|88:280|240:280|200:208,1,350
328,192,73961,5,4
328,192,74336,1,4
464,64,74898,1,0
336,64,75273,1,0
208,64,75648,1,0
80,64,76023,2,0,C|24:128|88:176,1,140
248,184,76961,5,4
376,184,77336,1,4
240,48,77898,2,2,B|136:104|160:176,2,140
368,48,79023,2,2,B|480:120|472:168,1,140
280,168,79961,6,2,B|112:168|208:304,2,210
408,168,81461,1,0
408,40,81836,1,0
280,40,82211,1,0
152,40,82586,1,0
152,168,82961,5,4
152,168,83336,1,4
336,168,83898,2,2,C|240:168|296:272|376:256,1,280
416,160,85023,1,8
312,80,85398,1,8
120,80,85961,6,4,C|120:232,1,140
304,224,86898,1,2
432,224,87273,1,2
376,112,87648,1,2
248,112,88023,2,2,C|96:112,1,140
104,304,88961,5,4
232,304,89336,1,4
168,128,89898,2,2,C|200:40|344:40|368:152,1,350
360,264,91211,1,0
232,264,91586,1,0
256,192,91961,12,4,94492
80,56,106961,6,0,C|40:144|128:216,1,210
248,216,107898,1,0
248,88,108273,1,0
376,88,108648,2,2,B|432:152|376:232,2,140
224,200,109961,5,0
352,200,110336,1,0
280,96,110711,2,2,C|352:40|408:152,1,210
440,264,111648,1,0
312,264,112023,1,0
184,264,112398,1,0
184,72,112961,5,0
56,72,113336,1,0
56,200,113711,2,2,C|112:136|184:216|272:152,1,280
344,88,114836,1,0
344,216,115211,1,0
456,152,115586,1,0
416,272,115961,2,2,C|448:352|240:352|344:272,1,420
104,56,118961,6,2,C|208:40|176:160,1,210
72,192,119898,1,0
72,320,120273,1,0
200,320,120648,1,2
328,320,121023,1,2
328,192,121398,1,2
448,40,121961,6,2,C|328:40|392:128,1,210
440,216,122898,1,0
440,344,123273,2,0,C|304:264,3,140,0|2|2|2
176,152,124961,6,0,B|72:32|264:48|64:152,1,210
80,264,125898,1,0
272,264,126461,2,0,B|384:248|256:160|416:120,1,210
440,240,127398,1,0
256,192,127961,12,4,129086
168,96,130961,5,0
168,224,131336,1,0
296,224,131711,2,2,B|416:176|280:96|440:88,1,210
424,216,132648,1,0
424,344,133023,1,0
296,344,133398,1,0
104,344,133961,6,0,B|32:264|184:288|32:160,1,210
112,64,134898,1,0
240,64,135273,2,2,B|312:136|216:200,3,140
408,264,136961,5,0
280,264,137336,1,0
344,152,137711,1,0
152,152,138273,1,0
24,152,138648,1,0
88,264,139023,2,0,B|168:264,2,70,0|8|8
240,152,139961,5,0
344,80,140336,1,0
368,200,140711,1,0
256,256,141086,2,0,B|136:240|72:136|152:120,1,210,0|2
248,104,142023,1,2
376,104,142398,1,2
384,232,142773,2,2,B|328:176,1,70
256,192,143523,12,4,144836
80,64,145398,5,0
208,64,145773,1,0
144,176,146148,2,2,B|216:248|288:168,2,140
336,184,147461,5,4
464,184,147836,1,4
336,320,148398,2,2,B|232:320|184:264,2,140
336,192,149523,1,8
328,64,149898,1,8
136,64,150461,5,4
136,64,150836,1,4
136,248,151398,1,0
264,248,151773,1,0
200,136,152148,2,2,C|360:136|424:240,1,280
256,192,153461,12,4,154586
200,208,154961,5,0
104,128,155336,2,2,C|192:48|328:128,1,280
256,232,156461,5,4
128,232,156836,1,4
216,64,157398,1,0
344,64,157773,2,2,B|416:144|328:192,3,140
152,184,159461,5,4
152,184,159836,1,4
336,184,160398,2,2,B|280:264|224:184,2,140
464,184,161523,1,8
464,312,161898,1,8
272,312,162461,5,4
144,312,162836,1,4
144,120,163398,1,0
272,120,163773,2,2,B|368:224|232:312,1,210
144,232,164711,1,0
48,144,165086,1,0
144,56,165461,2,2,B|360:56,1,210
256,192,166211,12,4,168836
