osu file format v7

[General]
AudioFilename: Seto no Hanayome OP.mp3
AudioLeadIn: 3000
PreviewTime: -1
Countdown: 1
SampleSet: Soft
StackLeniency: 0.7
Mode: 0
LetterboxInBreaks: 1

[Editor]
DistanceSpacing: 0.800000011920929
BeatDivisor: 8
GridSize: 16

[Metadata]
Title:Romantic summer
Artist:SUN & LUNAR
Creator:fung0517
Version:First Hard
Source:Seto no Hanayome
Tags:

[Difficulty]
HPDrainRate:5
CircleSize:6
OverallDifficulty:7
SliderMultiplier:1.4
SliderTickRate:3

[Events]
//Background and Video events
0,0,"2122339376_c403f6fab5.jpg"
Video,0,"Seto no Hanayome OP.flv"
//Break Periods
2,17543,18413
2,20825,21412
2,23543,24318
2,26356,31350
2,35730,37162
2,45387,47287
2,80637,86662
//Storyboard Layer 0 (Background)
//Storyboard Layer 1 (Fail)
//Storyboard Layer 2 (Pass)
//Storyboard Layer 3 (Foreground)
//Storyboard Sound Samples
//Background Colour Transformations
3,100,0,0,0

[TimingPoints]
0,750,4,2,0,100,1,0
21843,-50,4,2,0,100,0,0
23753,-100,4,2,0,100,0,0
32000,-50,4,2,0,100,0,0
42831,-100,4,2,0,100,0,0
43875,-100,4,2,0,100,0,0
47531,-50,4,2,0,100,0,0
49687,-200,4,2,0,100,0,0
61218,-50,4,2,0,100,0,0

[Colours]
Combo1 : 255,150,0
Combo2 : 5,240,5
Combo3 : 5,5,240
Combo4 : 240,5,5

[HitObjects]
256,80,5531,1,0
256,80,5718,1,0
256,80,5906,1,0
256,80,6093,1,0
256,80,6281,2,0,L|256:208,1,122.5
256,202,7031,5,0
256,202,7218,1,0
256,202,7406,1,0
256,202,7593,1,0
256,202,7781,2,0,L|256:336,1,122.5
336,176,8625,5,0
336,176,8812,1,0
336,176,9000,1,0
336,176,9187,2,0,L|192:176,1,140
192,176,10125,5,0
192,176,10312,1,0
192,176,10500,1,0
192,176,10687,2,0,L|192:288,1,105
96,176,11718,5,0
97,173,12093,2,2,L|359:175,1,245
256,64,13875,5,0
256,64,14062,1,0
256,64,14250,1,0
256,64,14437,1,0
256,64,14625,1,0
256,64,15000,2,2,L|256:256,1,175
256,240,16125,1,0
256,240,16312,1,0
256,240,16500,1,0
256,240,16687,2,0,L|288:236,7,17.5
256,192,19313,5,0
256,192,19407,1,0
256,192,19500,1,0
256,192,19594,1,0
256,192,19688,1,0
256,192,19782,1,0
256,192,19875,1,0
256,192,19969,1,0
256,192,20062,1,0
256,192,20156,1,0
256,192,20250,1,0
256,192,20343,1,0
256,192,20437,1,0
256,192,20531,1,0
256,192,20625,1,0
288,192,22312,5,0
288,192,22500,1,0
294,192,22687,5,0
294,192,22781,1,0
294,192,22875,1,0
294,192,22968,1,0
294,192,23062,1,0
294,192,23156,1,0
294,192,23250,1,0
294,192,23343,5,0
256,160,25218,5,0
256,160,25406,1,0
256,160,25593,1,0
256,160,25781,2,0,L|304:160,2,35
48,96,32250,6,0,L|128:96,1,70
128,144,32625,6,0,L|208:144,1,70
208,192,33000,6,2,L|320:192,1,105
313,192,33375,1,2
313,192,33468,1,2
313,192,33562,2,0,L|320:304,1,105
319,296,34125,2,0,L|464:288,1,140
459,288,34593,2,0,L|464:224|512:240|480:288|496:272,2,175
448,64,38062,6,0,L|368:64,1,70
378,64,38343,1,0
378,64,38437,1,0
378,64,38531,1,0
384,128,38812,2,0,L|240:128,1,140
244,128,39375,1,0
240,176,39750,6,0,L|240:336,1,140
176,352,40406,5,0
176,352,40593,1,0
176,352,40781,1,0
176,352,40968,2,0,L|176:192,1,140
176,176,41718,2,0,L|32:176,1,140
36,176,42375,2,0,L|112:64,1,105
96,96,42843,2,0,L|155:98,1,35
256,64,43312,5,0
256,64,43500,1,0
256,64,43687,1,0
256,64,43875,2,0,L|261:320,1,245
432,254,48187,6,0,L|434:338,1,70
378,251,48562,2,0,L|375:148,1,70
328,184,48937,2,0,L|245:188,1,70
216,185,49312,2,0,L|127:231,1,70
64,112,49687,6,0,L|128:112,1,61.25
128,160,50718,2,0,L|218:160,1,87.5
416,64,52593,2,0,L|416:128,1,61.25
368,128,53625,2,0,L|368:224,1,87.5
48,304,55500,2,0,L|123:305,1,70
122,256,56625,2,0,L|214:256,1,87.5
256,192,58312,12,0,60468
112,96,61218,5,0
112,96,61312,1,0
112,96,61406,2,0,L|352:96,1,210
322,96,62062,1,0
322,96,62156,1,0
322,96,62249,1,0
432,96,62718,2,0,L|432:208,3,105
112,256,64124,5,0
112,256,64218,1,0
112,256,64312,2,0,L|336:256,1,210
320,256,64968,1,0
320,256,65062,1,0
320,256,65156,1,0
416,224,65625,2,0,L|416:112,3,105
64,80,67031,5,0
64,80,67124,1,0
64,80,67218,2,0,L|288:80,1,210
272,80,67875,1,0
272,80,67968,1,0
272,80,68062,1,0
400,80,68437,2,0,L|400:208,3,105
224,192,69843,6,0,L|304:192,5,70
256,144,71156,6,0,L|256:224,6,70
256,176,72750,5,2
256,176,72844,1,2
256,176,72937,1,2
256,176,73031,1,2
256,176,73125,1,2
256,176,73219,1,2
256,176,73312,1,2
256,176,73406,1,2
256,176,73500,1,2
256,176,73593,1,2
256,176,73687,1,2
256,176,73781,1,2
256,176,73875,1,2
256,176,73968,1,2
256,176,74062,1,2
256,176,74156,1,2
256,192,74718,12,0,80437
256,192,87562,5,0
256,192,87656,1,0
256,192,87750,1,0
256,192,87843,1,0
256,192,87937,1,0
256,192,88031,1,0
256,192,88125,1,0
256,192,88218,1,0
256,192,88312,1,0
256,192,88406,1,0
256,192,88500,1,0
256,192,88593,1,0
