osu file format v14

[General]
AudioFilename: summer.mp3
AudioLeadIn: 0
PreviewTime: 61942
Countdown: 0
SampleSet: Soft
StackLeniency: 0.7
Mode: 3
LetterboxInBreaks: 0
SpecialStyle: 0
WidescreenStoryboard: 0

[Editor]
DistanceSpacing: 1
BeatDivisor: 6
GridSize: 4
TimelineZoom: 1.5

[Metadata]
Title:Romantic summer (TV Size)
TitleUnicode:Romantic summer (TV Size)
Artist:SUN & LUNAR (CV:Momoi Haruko & Nogawa Sakura)
ArtistUnicode:SUN & LUNAR (CV:桃井はるこ&野川さくら)
Creator:[Shana Lesus]
Version:HD
Source:瀬戸の花嫁
Tags:seto san edomae luna my bride is a mermaid 瀬戸燦 江戸前留奈 seto no hanayome
BeatmapID:536900
BeatmapSetID:230948

[Difficulty]
HPDrainRate:7
CircleSize:4
OverallDifficulty:8
ApproachRate:5
SliderMultiplier:1.4
SliderTickRate:1

[Events]
//Background and Video events
Video,0,"video.avi"
0,0,"sunlunar.jpg",0,0
//Break Periods
//Storyboard Layer 0 (Background)
//Storyboard Layer 1 (Fail)
//Storyboard Layer 2 (Pass)
//Storyboard Layer 3 (Foreground)
//Storyboard Sound Samples

[TimingPoints]
1220,361.44578313253,4,2,0,40,1,0
61942,-100,4,2,0,40,0,1
74954,-100,4,2,0,40,0,0

[HitObjects]
448,192,1220,5,4,0:0:0:0:
64,192,1220,128,0,1581:0:0:0:0:
320,192,1581,128,0,1942:0:0:0:0:
448,192,1942,128,0,2304:0:0:0:0:
64,192,2304,128,0,2665:0:0:0:0:
192,192,2665,128,0,3027:0:0:0:0:
448,192,3027,1,0,0:0:0:0:
64,192,3027,128,2,3388:0:0:0:0:
320,192,3388,128,0,3750:0:0:0:0:
64,192,3750,128,0,4111:0:0:0:0:
192,192,4111,128,0,4473:0:0:0:0:
448,192,4473,128,0,4834:0:0:0:0:
192,192,4834,128,0,5195:0:0:0:0:
320,192,5195,128,0,5557:0:0:0:0:
64,192,5557,128,0,7003:0:0:0:0:
448,192,5918,1,2,0:0:0:0:
448,192,6099,1,2,0:0:0:0:
320,192,6280,128,4,7003:0:0:0:0:
192,192,6280,1,0,0:0:0:0:
448,192,7003,128,0,8448:0:0:0:0:
192,192,7726,1,2,0:0:0:0:
192,192,8448,128,0,9894:0:0:0:0:
64,192,9171,1,2,0:0:0:0:
448,192,9894,128,0,11340:0:0:0:0:
192,192,10617,128,2,12063:0:0:0:0:
64,192,11340,128,0,12786:0:0:0:0:
448,192,12063,128,2,12786:0:0:0:0:
320,192,12786,128,0,15677:0:0:0:0:
64,192,13509,1,2,0:0:0:0:
448,192,14232,1,2,0:0:0:0:
64,192,14954,1,2,0:0:0:0:
192,192,15677,128,2,17123:0:0:0:0:
448,192,15677,1,0,0:0:0:0:
320,192,16400,1,2,0:0:0:0:
64,192,17123,1,2,0:0:0:0:
320,192,17123,128,0,17846:0:0:0:0:
448,192,17846,128,2,18930:0:0:0:0:
192,192,17846,1,0,0:0:0:0:
64,192,20015,1,2,0:0:0:0:
192,192,20105,1,2,0:0:0:0:
64,192,20195,1,2,0:0:0:0:
192,192,20286,1,2,0:0:0:0:
448,192,20376,1,2,0:0:0:0:
320,192,20466,1,2,0:0:0:0:
448,192,20557,1,2,0:0:0:0:
320,192,20647,1,2,0:0:0:0:
192,192,20738,1,2,0:0:0:0:
320,192,20828,1,2,0:0:0:0:
192,192,20918,1,8,0:0:0:0:
64,192,20918,1,2,0:0:0:0:
320,192,21009,1,2,0:0:0:0:
64,192,21099,1,2,0:0:0:0:
448,192,21099,1,8,0:0:0:0:
192,192,21189,1,2,0:0:0:0:
320,192,21280,1,2,0:0:0:0:
192,192,21370,1,2,0:0:0:0:
448,192,21460,1,4,0:0:0:0:
64,192,21460,128,0,22726:0:0:0:0:
192,192,21641,128,0,21822:0:0:0:0:
320,192,21822,128,0,22003:0:0:0:0:
448,192,22003,128,0,22183:0:0:0:0:
448,192,22364,128,0,22545:0:0:0:0:
320,192,22726,128,2,24352:0:0:0:0:
192,192,22726,1,4,0:0:0:0:
64,192,23810,128,0,24352:0:0:0:0:
448,192,23991,1,4,3:0:0:0:
192,192,24352,128,4,25617:0:0:0:0:
448,192,24352,128,0,24533:0:0:0:0:
64,192,24533,128,0,24713:0:0:0:0:
320,192,24713,128,0,24894:0:0:0:0:
64,192,24894,128,0,25075:0:0:0:0:
448,192,25256,128,0,25436:0:0:0:0:
448,192,25617,128,2,27244:0:0:0:0:
64,192,25617,1,4,0:0:0:0:
64,192,26159,1,0,0:0:0:0:
320,192,26159,1,4,0:0:0:0:
320,192,26521,1,0,0:0:0:0:
192,192,26521,1,8,3:0:0:0:
64,192,26701,1,8,0:0:0:0:
192,192,26792,1,8,0:0:0:0:
64,192,26882,1,2,0:0:0:0:
320,192,26882,1,0,0:0:0:0:
320,192,27063,1,0,0:0:0:0:
64,192,27063,1,2,0:0:0:0:
320,192,27244,128,0,27424:0:0:0:0:
192,192,27244,1,0,0:0:0:0:
192,192,27424,128,0,27605:0:0:0:0:
64,192,27605,1,8,0:0:0:0:
448,192,27605,128,0,27786:0:0:0:0:
64,192,27786,128,0,27966:0:0:0:0:
320,192,27786,1,8,0:0:0:0:
448,192,27966,1,0,0:0:0:0:
192,192,27966,1,0,0:0:0:0:
192,192,28147,128,0,28328:0:0:0:0:
448,192,28328,1,0,0:0:0:0:
64,192,28328,1,8,0:0:0:0:
320,192,28509,128,4,29593:0:0:0:0:
192,192,28689,1,0,0:0:0:0:
64,192,28689,1,0,0:0:0:0:
64,192,29051,1,8,0:0:0:0:
448,192,29051,1,0,0:0:0:0:
448,192,29232,1,8,0:0:0:0:
192,192,29412,1,0,0:0:0:0:
64,192,29412,1,0,0:0:0:0:
64,192,29593,128,0,29774:0:0:0:0:
192,192,29774,1,0,0:0:0:0:
448,192,29774,1,8,0:0:0:0:
192,192,29954,128,0,32304:0:0:0:0:
320,192,29954,1,4,0:0:0:0:
448,192,30135,1,0,0:0:0:0:
320,192,30497,1,8,0:0:0:0:
64,192,30497,1,0,0:0:0:0:
64,192,30677,1,8,0:0:0:0:
320,192,30858,1,0,0:0:0:0:
448,192,30858,1,0,0:0:0:0:
448,192,31219,1,8,0:0:0:0:
64,192,31219,1,0,0:0:0:0:
320,192,31581,1,0,0:0:0:0:
448,192,31581,1,0,0:0:0:0:
320,192,31942,1,8,0:0:0:0:
64,192,31942,1,0,0:0:0:0:
320,192,32123,1,8,0:0:0:0:
448,192,32304,1,2,0:0:0:0:
64,192,32304,1,0,0:0:0:0:
320,192,32394,1,0,0:0:0:0:
192,192,32485,1,0,0:0:0:0:
64,192,32575,1,2,0:0:0:0:
448,192,32575,1,8,0:0:0:0:
192,192,32665,1,0,0:0:0:0:
320,192,32665,1,8,0:0:0:0:
64,192,32756,1,0,0:0:0:0:
320,192,32846,1,8,0:0:0:0:
192,192,32846,1,0,0:0:0:0:
448,192,32936,1,0,0:0:0:0:
64,192,33027,1,4,0:0:0:0:
320,192,33027,128,2,33569:0:0:0:0:
192,192,33027,1,0,0:0:0:0:
64,192,33388,1,8,0:0:0:0:
448,192,33388,1,0,0:0:0:0:
192,192,33569,1,8,0:0:0:0:
448,192,33569,128,0,34473:0:0:0:0:
64,192,33750,1,0,0:0:0:0:
192,192,33750,1,0,0:0:0:0:
320,192,34111,1,4,0:0:0:0:
64,192,34111,1,0,0:0:0:0:
192,192,34292,1,0,0:0:0:0:
320,192,34473,1,0,0:0:0:0:
64,192,34473,128,2,35015:0:0:0:0:
192,192,34834,1,8,0:0:0:0:
448,192,34834,1,0,0:0:0:0:
320,192,35015,1,8,0:0:0:0:
192,192,35015,128,0,35557:0:0:0:0:
320,192,35195,1,0,0:0:0:0:
448,192,35195,1,0,0:0:0:0:
64,192,35557,1,4,0:0:0:0:
448,192,35557,128,0,35918:0:0:0:0:
320,192,35918,128,2,36460:0:0:0:0:
192,192,35918,1,0,0:0:0:0:
64,192,36280,1,0,0:0:0:0:
448,192,36280,1,8,0:0:0:0:
64,192,36460,1,8,0:0:0:0:
448,192,36460,128,0,37364:0:0:0:0:
192,192,36641,1,0,0:0:0:0:
320,192,36641,1,0,0:0:0:0:
320,192,37003,1,4,0:0:0:0:
64,192,37003,1,0,0:0:0:0:
192,192,37364,128,2,37906:0:0:0:0:
448,192,37726,1,8,0:0:0:0:
64,192,37726,1,0,0:0:0:0:
64,192,37906,1,8,0:0:0:0:
320,192,37906,128,0,38448:0:0:0:0:
448,192,38087,1,0,0:0:0:0:
192,192,38087,1,0,0:0:0:0:
448,192,38448,1,4,0:0:0:0:
64,192,38448,1,0,0:0:0:0:
192,192,38448,128,0,38810:0:0:0:0:
320,192,38629,1,0,0:0:0:0:
448,192,38810,128,0,39352:0:0:0:0:
64,192,38810,1,0,0:0:0:0:
64,192,39171,1,0,0:0:0:0:
320,192,39171,1,8,0:0:0:0:
64,192,39352,1,8,0:0:0:0:
192,192,39352,128,0,40256:0:0:0:0:
320,192,39533,1,0,0:0:0:0:
448,192,39533,1,0,0:0:0:0:
320,192,39894,1,4,0:0:0:0:
64,192,39894,1,0,0:0:0:0:
448,192,40075,1,0,0:0:0:0:
320,192,40256,1,0,0:0:0:0:
64,192,40256,128,0,40798:0:0:0:0:
192,192,40617,1,8,0:0:0:0:
448,192,40617,1,0,0:0:0:0:
448,192,40798,128,8,41701:0:0:0:0:
320,192,40798,1,0,0:0:0:0:
320,192,40979,1,0,0:0:0:0:
192,192,40979,1,0,0:0:0:0:
64,192,41340,1,4,0:0:0:0:
320,192,41340,1,0,0:0:0:0:
64,192,41701,128,0,42244:0:0:0:0:
320,192,41701,1,0,0:0:0:0:
448,192,42063,1,8,0:0:0:0:
192,192,42063,1,0,0:0:0:0:
448,192,42244,128,8,43147:0:0:0:0:
320,192,42244,1,0,0:0:0:0:
192,192,42424,1,0,0:0:0:0:
320,192,42424,1,0,0:0:0:0:
320,192,42786,1,4,0:0:0:0:
64,192,42786,1,0,0:0:0:0:
192,192,43147,128,0,43689:0:0:0:0:
64,192,43147,1,0,0:0:0:0:
448,192,43509,1,8,0:0:0:0:
64,192,43509,1,0,0:0:0:0:
448,192,43689,128,0,44593:0:0:0:0:
320,192,43689,1,8,0:0:0:0:
320,192,43870,1,0,0:0:0:0:
192,192,43870,1,0,0:0:0:0:
320,192,44232,1,4,0:0:0:0:
64,192,44232,1,0,0:0:0:0:
64,192,44412,1,0,0:0:0:0:
320,192,44593,128,0,45677:0:0:0:0:
192,192,44593,1,0,0:0:0:0:
64,192,44954,1,0,0:0:0:0:
448,192,44954,1,8,0:0:0:0:
192,192,45135,1,8,0:0:0:0:
64,192,45316,1,0,0:0:0:0:
192,192,45316,1,0,0:0:0:0:
64,192,45677,1,0,0:0:0:0:
448,192,45677,1,4,0:0:0:0:
192,192,45918,1,2,0:0:0:0:
320,192,45979,1,2,0:0:0:0:
448,192,46039,1,2,0:0:0:0:
64,192,46039,1,0,0:0:0:0:
448,192,46400,128,2,47123:0:0:0:0:
64,192,46400,128,4,47123:0:0:0:0:
192,192,46400,1,0,0:0:0:0:
320,192,46400,1,0,0:0:0:0:
192,192,46942,1,2,0:0:0:0:
320,192,47123,1,2,0:0:0:0:
192,192,47304,1,2,0:0:0:0:
448,192,47485,128,0,48027:0:0:0:0:
64,192,47485,1,4,0:0:0:0:
320,192,47485,1,0,0:0:0:0:
320,192,47846,1,8,0:0:0:0:
64,192,47846,1,0,0:0:0:0:
64,192,48027,128,8,48930:0:0:0:0:
320,192,48027,1,0,0:0:0:0:
192,192,48207,1,0,0:0:0:0:
320,192,48207,1,0,0:0:0:0:
448,192,48569,1,4,0:0:0:0:
192,192,48569,1,0,0:0:0:0:
320,192,48750,1,0,0:0:0:0:
320,192,48930,1,0,0:0:0:0:
192,192,48930,1,0,0:0:0:0:
64,192,49111,1,2,0:0:0:0:
192,192,49201,1,2,0:0:0:0:
320,192,49292,1,2,0:0:0:0:
192,192,49473,1,2,0:0:0:0:
320,192,49563,1,2,0:0:0:0:
448,192,49653,1,2,0:0:0:0:
64,192,49834,1,2,0:0:0:0:
192,192,49924,1,2,0:0:0:0:
320,192,50015,1,2,0:0:0:0:
192,192,50195,1,0,0:0:0:0:
448,192,50195,1,2,0:0:0:0:
320,192,50376,1,4,0:0:0:0:
64,192,50376,128,2,50738:0:0:0:0:
448,192,50738,1,0,0:0:0:0:
320,192,50738,128,2,51099:0:0:0:0:
64,192,51099,1,0,0:0:0:0:
192,192,51099,128,2,51641:0:0:0:0:
64,192,51460,1,0,0:0:0:0:
448,192,51460,1,8,0:0:0:0:
320,192,51641,128,0,51822:0:0:0:0:
448,192,51822,128,0,52183:0:0:0:0:
64,192,51822,1,2,0:0:0:0:
192,192,52183,1,2,0:0:0:0:
320,192,52183,128,0,52364:0:0:0:0:
64,192,52364,128,0,52545:0:0:0:0:
448,192,52545,1,2,0:0:0:0:
192,192,52545,128,0,52726:0:0:0:0:
448,192,52726,128,0,52906:0:0:0:0:
64,192,52906,1,0,0:0:0:0:
320,192,52906,128,8,53087:0:0:0:0:
64,192,53087,128,0,53268:0:0:0:0:
192,192,53268,128,2,53810:0:0:0:0:
448,192,53268,1,0,0:0:0:0:
320,192,53629,1,2,0:0:0:0:
64,192,53629,1,0,0:0:0:0:
448,192,53810,128,0,54713:0:0:0:0:
320,192,53991,1,2,0:0:0:0:
192,192,53991,1,0,0:0:0:0:
320,192,54352,1,8,0:0:0:0:
64,192,54352,1,0,0:0:0:0:
192,192,54713,128,2,55798:0:0:0:0:
64,192,54713,1,0,0:0:0:0:
320,192,55075,1,2,0:0:0:0:
448,192,55075,1,0,0:0:0:0:
320,192,55436,1,0,0:0:0:0:
448,192,55436,1,2,0:0:0:0:
64,192,55798,1,8,0:0:0:0:
448,192,55798,128,0,56159:0:0:0:0:
320,192,56159,1,2,0:0:0:0:
192,192,56159,128,0,56521:0:0:0:0:
64,192,56521,128,2,56701:0:0:0:0:
448,192,56521,1,0,0:0:0:0:
320,192,56701,128,0,56882:0:0:0:0:
192,192,56882,128,2,57244:0:0:0:0:
448,192,56882,1,0,0:0:0:0:
448,192,57244,128,0,57424:0:0:0:0:
320,192,57244,1,8,0:0:0:0:
192,192,57424,128,0,57605:0:0:0:0:
320,192,57605,128,2,57966:0:0:0:0:
64,192,57605,1,0,0:0:0:0:
64,192,57966,128,0,58147:0:0:0:0:
448,192,57966,1,2,0:0:0:0:
192,192,58147,128,0,58328:0:0:0:0:
320,192,58328,128,2,58509:0:0:0:0:
64,192,58328,1,0,0:0:0:0:
192,192,58509,1,0,0:0:0:0:
64,192,58689,128,0,58870:0:0:0:0:
320,192,58689,1,8,0:0:0:0:
448,192,58870,128,0,59412:0:0:0:0:
64,192,59051,1,2,0:0:0:0:
192,192,59051,128,0,59412:0:0:0:0:
64,192,59412,128,0,59593:0:0:0:0:
320,192,59412,1,2,0:0:0:0:
320,192,59593,128,0,59774:0:0:0:0:
448,192,59774,128,0,59954:0:0:0:0:
192,192,59774,1,2,0:0:0:0:
192,192,59954,128,0,60135:0:0:0:0:
448,192,60135,1,0,0:0:0:0:
64,192,60135,128,8,60316:0:0:0:0:
320,192,60316,128,0,61219:0:0:0:0:
448,192,60316,1,4,0:0:0:0:
64,192,60497,1,2,0:0:0:0:
192,192,60497,1,0,0:0:0:0:
64,192,60858,5,0,0:0:0:0:
448,192,60858,1,4,0:0:0:0:
192,192,60858,1,2,0:0:0:0:
448,192,61219,1,0,0:0:0:0:
192,192,61219,1,2,0:0:0:0:
64,192,61310,1,2,0:0:0:0:
448,192,61400,1,0,0:0:0:0:
192,192,61491,1,2,0:0:0:0:
320,192,61491,1,2,0:0:0:0:
64,192,61581,1,2,0:0:0:0:
448,192,61581,1,8,0:0:0:0:
448,192,61762,1,8,0:0:0:0:
64,192,61762,1,0,0:0:0:0:
320,192,61852,1,8,0:0:0:0:
64,192,61942,128,0,62485:0:0:0:0:
192,192,61942,1,4,0:0:0:0:
448,192,61942,1,8,0:0:0:0:
448,192,62304,1,0,0:0:0:0:
192,192,62304,1,8,0:0:0:0:
320,192,62485,128,8,63027:0:0:0:0:
448,192,62485,1,0,0:0:0:0:
192,192,62665,1,0,0:0:0:0:
64,192,62665,1,0,0:0:0:0:
192,192,63027,128,0,63388:0:0:0:0:
448,192,63027,1,4,0:0:0:0:
64,192,63027,1,0,0:0:0:0:
448,192,63388,128,0,63930:0:0:0:0:
64,192,63388,1,0,0:0:0:0:
320,192,63750,1,8,0:0:0:0:
64,192,63750,1,0,0:0:0:0:
64,192,63930,128,0,64473:0:0:0:0:
192,192,63930,1,8,0:0:0:0:
320,192,64111,1,0,0:0:0:0:
448,192,64111,1,0,0:0:0:0:
192,192,64473,128,0,64834:0:0:0:0:
448,192,64473,1,4,0:0:0:0:
320,192,64834,128,0,65376:0:0:0:0:
64,192,64834,1,0,0:0:0:0:
64,192,65195,1,8,0:0:0:0:
448,192,65195,1,0,0:0:0:0:
64,192,65376,128,0,65918:0:0:0:0:
192,192,65376,1,8,0:0:0:0:
320,192,65557,1,0,0:0:0:0:
448,192,65557,1,0,0:0:0:0:
448,192,65918,128,0,66280:0:0:0:0:
192,192,65918,1,4,0:0:0:0:
192,192,66280,128,0,66822:0:0:0:0:
320,192,66280,1,0,0:0:0:0:
448,192,66641,1,8,0:0:0:0:
64,192,66641,1,0,0:0:0:0:
448,192,66822,128,0,67364:0:0:0:0:
320,192,66822,1,8,0:0:0:0:
64,192,67003,1,0,0:0:0:0:
192,192,67003,1,0,0:0:0:0:
320,192,67364,128,0,67726:0:0:0:0:
64,192,67364,1,4,0:0:0:0:
64,192,67726,128,0,68268:0:0:0:0:
448,192,67726,1,0,0:0:0:0:
448,192,68087,1,8,0:0:0:0:
192,192,68087,1,0,0:0:0:0:
192,192,68268,128,0,68810:0:0:0:0:
320,192,68268,1,8,0:0:0:0:
320,192,68448,1,0,0:0:0:0:
448,192,68448,1,0,0:0:0:0:
448,192,68810,128,0,69171:0:0:0:0:
64,192,68810,1,4,0:0:0:0:
64,192,69171,128,0,69713:0:0:0:0:
320,192,69171,1,0,0:0:0:0:
192,192,69533,1,0,0:0:0:0:
448,192,69533,1,8,0:0:0:0:
320,192,69713,128,0,70256:0:0:0:0:
448,192,69713,1,8,0:0:0:0:
192,192,69894,1,0,0:0:0:0:
64,192,69894,1,0,0:0:0:0:
192,192,70256,128,0,70617:0:0:0:0:
448,192,70256,1,0,0:0:0:0:
64,192,70256,1,4,0:0:0:0:
448,192,70617,128,0,71159:0:0:0:0:
64,192,70617,1,0,0:0:0:0:
320,192,70979,1,8,0:0:0:0:
64,192,70979,1,0,0:0:0:0:
64,192,71159,128,0,71701:0:0:0:0:
192,192,71159,1,8,0:0:0:0:
320,192,71340,1,0,0:0:0:0:
448,192,71340,1,0,0:0:0:0:
320,192,71701,128,0,72063:0:0:0:0:
448,192,71701,1,4,0:0:0:0:
448,192,72063,128,0,72605:0:0:0:0:
64,192,72063,1,0,0:0:0:0:
320,192,72424,1,8,0:0:0:0:
64,192,72424,1,0,0:0:0:0:
64,192,72605,128,0,73147:0:0:0:0:
320,192,72605,1,8,0:0:0:0:
192,192,72786,1,0,0:0:0:0:
320,192,72786,1,0,0:0:0:0:
448,192,73147,128,0,73509:0:0:0:0:
192,192,73147,1,4,0:0:0:0:
320,192,73509,128,4,73689:0:0:0:0:
192,192,73509,128,0,73689:0:0:0:0:
448,192,73870,128,4,74051:0:0:0:0:
64,192,73870,128,0,74051:0:0:0:0:
320,192,74232,1,2,0:0:0:0:
192,192,74232,1,0,0:0:0:0:
320,192,74412,1,2,0:0:0:0:
448,192,74412,1,0,0:0:0:0:
192,192,74412,1,4,3:0:0:0:
320,192,74593,1,0,0:0:0:0:
192,192,74593,1,2,0:0:0:0:
64,192,74593,1,4,3:0:0:0:
448,192,74774,128,4,75316:0:0:0:0:
64,192,74774,128,8,75316:0:0:0:0:
192,192,75858,1,2,0:0:0:0:
64,192,75858,1,0,0:0:0:0:
320,192,76039,1,8,0:0:0:0:
448,192,76039,1,4,3:0:0:0:
192,192,76219,1,2,0:0:0:0:
64,192,76219,1,0,0:0:0:0:
448,192,76400,128,0,76581:0:0:0:0:
64,192,76400,128,0,77665:0:0:0:0:
192,192,76400,1,4,0:0:0:0:
320,192,76581,128,0,76762:0:0:0:0:
192,192,76762,128,0,76942:0:0:0:0:
320,192,76942,128,0,77123:0:0:0:0:
192,192,77304,128,0,77485:0:0:0:0:
448,192,77665,128,0,79292:0:0:0:0:
320,192,77665,1,0,0:0:0:0:
192,192,77665,1,4,0:0:0:0:
64,192,78930,1,4,3:0:0:0:
320,192,78930,1,2,0:0:0:0:
64,192,79292,128,4,79473:0:0:0:0:
192,192,79292,1,0,0:0:0:0:
320,192,79292,128,0,80557:0:0:0:0:
192,192,79473,128,0,79653:0:0:0:0:
448,192,79653,128,0,79834:0:0:0:0:
64,192,79834,128,0,80015:0:0:0:0:
192,192,80195,128,0,80376:0:0:0:0:
64,192,80557,128,0,82183:0:0:0:0:
448,192,80557,1,4,0:0:0:0:
192,192,80557,1,0,0:0:0:0:
192,192,81099,1,4,0:0:0:0:
320,192,81370,1,2,0:0:0:0:
448,192,81460,1,2,0:0:0:0:
192,192,81460,1,0,0:0:0:0:
320,192,81732,1,2,0:0:0:0:
192,192,81822,1,0,0:0:0:0:
448,192,81822,1,2,0:0:0:0:
320,192,82003,1,2,0:0:0:0:
448,192,82183,128,4,82364:0:0:0:0:
320,192,82183,1,0,0:0:0:0:
192,192,82364,128,0,82545:0:0:0:0:
320,192,82545,128,0,82726:0:0:0:0:
64,192,82545,1,8,0:0:0:0:
64,192,82726,128,0,82906:0:0:0:0:
448,192,82726,1,8,0:0:0:0:
192,192,82906,1,0,0:0:0:0:
320,192,82906,1,0,0:0:0:0:
64,192,83087,128,0,83268:0:0:0:0:
448,192,83268,1,0,0:0:0:0:
192,192,83268,1,8,0:0:0:0:
64,192,83448,1,4,0:0:0:0:
320,192,83448,128,0,84713:0:0:0:0:
192,192,83991,1,8,0:0:0:0:
448,192,83991,1,0,0:0:0:0:
64,192,84171,1,8,0:0:0:0:
192,192,84352,1,0,0:0:0:0:
64,192,84352,1,0,0:0:0:0:
64,192,84713,128,0,84894:0:0:0:0:
192,192,84713,1,8,0:0:0:0:
448,192,84894,128,4,87786:0:0:0:0:
320,192,84894,1,0,0:0:0:0:
320,192,85436,1,8,0:0:0:0:
64,192,85436,1,0,0:0:0:0:
192,192,85617,1,8,0:0:0:0:
192,192,85798,1,0,0:0:0:0:
64,192,85798,1,0,0:0:0:0:
320,192,86159,1,4,0:0:0:0:
64,192,86159,1,0,0:0:0:0:
64,192,86340,1,2,0:0:0:0:
320,192,86430,1,2,0:0:0:0:
64,192,86521,1,0,0:0:0:0:
192,192,86521,1,2,0:0:0:0:
64,192,86701,1,2,0:0:0:0:
320,192,86792,1,2,0:0:0:0:
192,192,86882,1,2,0:0:0:0:
64,192,86882,1,0,0:0:0:0:
320,192,87063,1,2,0:0:0:0:
192,192,87153,1,2,0:0:0:0:
320,192,87244,1,2,0:0:0:0:
64,192,87244,1,0,0:0:0:0:
64,192,87424,1,2,0:0:0:0:
320,192,87515,1,2,0:0:0:0:
64,192,87605,1,0,0:0:0:0:
192,192,87605,1,2,0:0:0:0:
64,192,87786,1,4,0:0:0:0:
320,192,87786,1,0,0:0:0:0:
320,192,88328,1,8,0:0:0:0:
64,192,88328,1,0,0:0:0:0:
448,192,88509,1,8,0:0:0:0:
192,192,88509,1,0,0:0:0:0:
320,192,88689,1,8,0:0:0:0:
64,192,88689,1,0,0:0:0:0:
448,192,88870,1,8,0:0:0:0:
192,192,88870,1,0,0:0:0:0:
64,192,89051,1,0,0:0:0:0:
192,192,89051,1,8,0:0:0:0:
448,192,89232,1,8,0:0:0:0:
320,192,89232,1,0,0:0:0:0:
